osu file format v14

[General]
AudioFilename: nanawoakari is cute.mp3
AudioLeadIn: 0
PreviewTime: 43860
Countdown: 0
SampleSet: Soft
StackLeniency: 0.6
Mode: 0
LetterboxInBreaks: 0
WidescreenStoryboard: 1

[Editor]
DistanceSpacing: 1.3
BeatDivisor: 4
GridSize: 32
TimelineZoom: 2.1

[Metadata]
Title:Doppel ally
TitleUnicode:ドッペルアリー
Artist:nanawoakari
ArtistUnicode:ナナヲアカリ
Creator:Irohas
Version:Silky's Insane
Source:
Tags:mugiwarasekai kanau mamayu fuyuyu- silky mini album いろいろいうけど「♡」(いいね)がほしい Iroiro iukedo "♥" (ii ne) ga hoshii eve numa leimon ryuuseee
BeatmapID:1631954
BeatmapSetID:770165

[Difficulty]
HPDrainRate:6
CircleSize:4
OverallDifficulty:8.2
ApproachRate:9
SliderMultiplier:1.7
SliderTickRate:2

[Events]
//Background and Video events
0,0,"bg.png",0,0
//Break Periods
//Storyboard Layer 0 (Background)
//Storyboard Layer 1 (Fail)
//Storyboard Layer 2 (Pass)
//Storyboard Layer 3 (Foreground)
//Storyboard Sound Samples

[TimingPoints]
324,320.855614973262,4,2,1,50,1,0
3211,-200,4,2,1,50,0,0
4174,-200,4,2,1,30,0,0
4495,-100,4,2,1,50,0,0
5477,320.855614973262,4,2,1,50,1,0
5477,-111.111111111111,4,2,1,50,0,0
23445,-111.111111111111,4,2,1,55,0,0
24729,-100,4,2,1,60,0,0
26012,-111.111111111111,4,2,1,60,0,0
38846,-111.111111111111,4,2,1,50,0,0
40771,-100,4,2,1,50,0,0
43980,-200,4,2,1,50,0,0
44622,-133.333333333333,4,2,2,50,0,0
44702,-133.333333333333,4,2,2,15,0,0
45263,-100,4,2,1,80,0,0
46546,-100,4,2,1,90,0,1
46787,-100,4,2,1,80,0,1
46868,-100,4,2,1,80,0,1
55530,-83.3333333333333,4,2,1,80,0,0
56813,-100,4,2,1,80,0,1
64514,-200,4,2,1,60,0,0
65797,-83.3333333333333,4,2,1,60,0,0
67081,-200,4,2,1,60,0,0
67563,-200,4,2,1,15,0,0

[Colours]
Combo1 : 248,133,162
Combo2 : 64,157,234
Combo3 : 250,219,173
Combo4 : 235,235,235

[HitObjects]
125,138,484,5,2,3:1:0:0:
104,334,644,1,12,0:0:0:0:
104,334,965,5,4,3:2:0:0:
280,259,1126,2,0,L|180:248,1,85,0|0,3:0|3:0,0:0:0:0:
54,159,1446,2,0,P|135:166|194:108,1,170,10|0,3:2|3:1,0:0:0:0:
382,151,1928,5,8,0:0:0:0:
314,0,2088,2,0,P|304:43|295:93,1,85,0|0,3:0|3:0,0:0:0:0:
454,220,2409,2,0,B|486:173|486:173|450:44,1,170,10|0,3:2|3:0,0:0:0:0:
279,199,2890,2,0,P|321:189|367:180,1,85,8|0,3:2|3:0,0:0:0:0:
512,327,3211,6,0,B|361:277|418:393|269:344,1,255,12|0,0:0|0:0,0:0:0:0:
240,356,4495,6,0,L|255:256,1,85,8|0,0:0|3:0,0:0:0:0:
101,123,4815,2,0,P|119:163|110:216,1,85,8|0,0:0|3:0,0:0:0:0:
7,341,5297,5,8,0:0:0:0:
7,341,5377,1,8,0:0:0:0:
7,341,5477,2,0,P|69:294|154:326,1,152.999995330811,4|4,3:2|3:1,0:0:0:0:
238,227,5958,1,2,3:1:0:0:
301,360,6119,2,0,L|208:378,1,76.4999976654053,4|2,0:1|0:0,0:0:0:0:
424,299,6440,2,0,P|443:332|437:385,1,76.4999976654053,8|0,0:0|3:0,0:0:0:0:
335,246,6761,6,0,P|346:167|359:83,1,152.999995330811,2|0,3:1|3:0,0:0:0:0:
512,175,7241,2,0,L|420:191,1,76.4999976654053,4|0,3:1|0:0,0:0:0:0:
259,232,7563,2,0,L|359:250,1,76.4999976654053,0|8,3:0|0:0,0:0:0:0:
284,125,7884,5,0,3:0:0:0:
370,24,8044,2,0,L|384:99,1,76.4999976654053,4|0,3:1|0:0,0:0:0:0:
180,147,8365,2,0,L|194:71,1,76.4999976654053,4|2,3:1|3:1,0:0:0:0:
237,235,8686,2,0,P|200:241|151:251,1,76.4999976654053,4|2,0:1|0:0,0:0:0:0:
35,194,9007,1,8,0:0:0:0:
66,354,9167,5,0,3:0:0:0:
66,354,9247,1,2,0:0:0:0:
66,354,9327,2,0,P|144:365|217:379,1,152.999995330811,2|4,3:1|0:1,0:0:0:0:
344,330,9809,2,0,P|360:258|309:204,1,152.999995330811,6|0,3:1|3:1,0:0:0:0:
183,180,10290,2,0,L|200:273,1,76.4999976654053,8|2,0:0|3:0,0:0:0:0:
280,80,10611,5,0,3:0:0:0:
280,80,10932,2,0,L|195:63,1,76.4999976654053,4|2,3:1|3:1,0:0:0:0:
56,213,11253,2,0,P|110:164|182:179,1,152.999995330811,4|8,0:1|0:0,0:0:0:0:
248,281,11734,5,0,3:0:0:0:
248,281,11814,1,2,0:0:0:0:
248,281,11894,2,0,L|235:364,1,76.4999976654053,6|0,3:1|3:0,0:0:0:0:
133,250,12215,1,4,0:1:0:0:
49,327,12376,2,0,L|133:343,1,76.4999976654053,6|0,3:1|0:0,0:0:0:0:
258,166,12696,2,0,L|173:181,1,76.4999976654053,0|8,3:1|0:0,0:0:0:0:
67,84,13017,5,0,3:0:0:0:
174,16,13178,2,0,P|166:49|156:103,1,76.4999976654053,6|0,3:1|0:0,0:0:0:0:
15,214,13499,2,0,P|7:176|0:139,1,76.4999976654053,4|2,0:1|0:0,0:0:0:0:
111,309,13819,1,2,3:1:0:0:
222,182,13980,1,2,0:0:0:0:
294,344,14140,1,8,0:0:0:0:
122,197,14301,5,2,0:3:0:0:
308,106,14461,1,2,3:1:0:0:
233,258,14622,2,0,L|221:174,1,76.4999976654053,12|0,0:2|0:0,0:0:0:0:
462,266,14942,2,0,P|404:210|319:243,1,152.999995330811,4|2,3:1|3:1,0:0:0:0:
259,356,15424,2,0,P|222:349|184:343,1,76.4999976654053,12|8,0:0|3:2,0:0:0:0:
157,356,15664,5,8,0:0:0:0:
157,356,15745,2,0,B|171:298|171:298|158:270|158:270|171:207,1,152.999995330811,4|0,3:2|3:0,0:0:0:0:
44,187,16226,1,2,3:1:0:0:
3,322,16386,2,0,L|83:304,1,76.4999976654053,4|2,0:1|0:0,0:0:0:0:
170,208,16707,2,0,L|156:122,1,76.4999976654053,8|0,0:0|3:0,0:0:0:0:
30,58,17028,6,0,P|4:130|52:191,1,152.999995330811,2|0,3:1|0:0,0:0:0:0:
201,65,17509,2,0,L|187:140,1,76.4999976654053,6|0,0:1|0:0,0:0:0:0:
275,289,17830,2,0,L|350:275,1,76.4999976654053,2|8,0:0|0:0,0:0:0:0:
406,132,18151,5,0,3:0:0:0:
298,190,18311,2,0,P|305:153|313:111,1,76.4999976654053,2|0,3:1|0:0,0:0:0:0:
472,7,18632,2,0,P|478:44|486:82,1,76.4999976654053,4|2,0:1|3:1,0:0:0:0:
512,239,18953,2,0,P|473:231|434:223,1,76.4999976654053,4|2,0:1|0:0,0:0:0:0:
232,312,19274,1,8,0:0:0:0:
350,367,19434,5,2,0:1:0:0:
350,367,19515,1,2,0:0:0:0:
350,367,19595,2,0,L|320:208,1,152.999995330811,2|0,3:1|0:0,0:0:0:0:
100,288,20076,2,0,P|160:331|232:312,1,152.999995330811,6|2,0:1|0:0,0:0:0:0:
112,182,20557,2,0,L|24:203,1,76.4999976654053,8|0,0:0|3:0,0:0:0:0:
229,108,20878,5,2,3:1:0:0:
229,108,21199,2,0,L|214:204,1,76.4999976654053,4|2,3:1|3:1,0:0:0:0:
347,150,21520,2,0,L|318:0,1,152.999995330811,4|8,0:1|0:0,0:0:0:0:
510,90,22001,5,2,0:0:0:0:
510,90,22081,1,2,0:0:0:0:
510,90,22162,2,0,L|426:76,1,76.4999976654053,0|0,3:1|3:0,0:0:0:0:
347,150,22483,1,0,0:0:0:0:
465,247,22643,2,0,P|472:208|483:159,1,76.4999976654053,6|0,0:1|0:0,0:0:0:0:
294,272,22964,2,0,P|301:309|308:347,1,76.4999976654053,2|8,0:0|0:0,0:0:0:0:
347,150,23285,1,2,0:0:0:0:
179,263,23445,6,0,P|105:277|45:232,1,152.999995330811,4|4,3:1|0:1,0:0:0:0:
148,91,23926,1,2,3:1:0:0:
0,133,24087,2,0,L|100:156,1,76.4999976654053,6|2,3:1|0:0,0:0:0:0:
166,1,24408,2,0,L|66:24,1,76.4999976654053,8|2,0:0|0:0,0:0:0:0:
323,117,24729,6,0,L|343:22,1,85,6|0,3:1|0:0,0:0:0:0:
159,98,25049,2,0,L|176:181,1,85,2|8,3:1|0:0,0:0:0:0:
354,246,25370,2,0,L|460:221,1,85,6|2,3:1|0:0,0:0:0:0:
198,353,25691,2,0,P|156:316|80:322,1,127.5,12|0,0:0|0:0,0:0:0:0:
57,334,26012,5,6,0:0:0:0:
57,334,26333,1,2,3:1:0:0:
152,202,26493,2,0,L|168:284,1,76.4999976654053,8|0,0:0|0:0,0:0:0:0:
18,197,26814,2,0,L|32:121,1,76.4999976654053,4|8,0:1|0:0,0:0:0:0:
120,36,27135,1,2,0:0:0:0:
213,115,27295,6,0,P|288:102|377:83,1,152.999995330811,0|2,0:0|3:1,0:0:0:0:
512,224,27777,2,0,P|454:177|383:196,1,152.999995330811,8|2,3:2|3:1,0:0:0:0:
316,283,28258,1,8,0:0:0:0:
316,283,28579,6,0,P|324:318|335:363,1,76.4999976654053,6|0,3:1|0:0,0:0:0:0:
199,243,28900,2,0,P|207:205|216:168,1,76.4999976654053,2|8,3:1|0:0,0:0:0:0:
166,363,29221,2,0,P|90:360|37:297,1,152.999995330811,0|8,3:0|0:0,0:0:0:0:
141,152,29862,6,0,P|178:159|216:168,1,76.4999976654053,6|0,3:1|0:0,0:0:0:0:
335,46,30183,2,0,P|297:54|260:61,1,76.4999976654053,2|8,3:1|0:0,0:0:0:0:
439,158,30504,2,0,B|469:115|469:115|441:-4,1,152.999995330811,4|12,3:1|0:0,0:0:0:0:
335,254,31146,5,0,3:1:0:0:
335,254,31466,1,0,3:0:0:0:
461,373,31627,2,0,L|370:358,1,76.4999976654053,8|2,0:0|0:0,0:0:0:0:
259,266,31948,2,0,L|350:251,1,76.4999976654053,0|8,3:0|0:0,0:0:0:0:
434,152,32269,1,2,3:1:0:0:
331,54,32429,6,0,P|267:68|239:151,1,152.999995330811,0|2,3:0|3:1,0:0:0:0:
259,266,32910,2,0,P|183:252|101:238,1,152.999995330811,8|0,0:0|3:0,0:0:0:0:
39,126,33392,1,8,0:0:0:0:
39,126,33712,6,0,L|126:102,1,76.4999976654053,6|0,3:1|0:0,0:0:0:0:
264,104,34033,2,0,P|254:63|246:30,1,76.4999976654053,2|8,3:1|0:0,0:0:0:0:
179,188,34354,2,0,P|254:231|325:207,1,152.999995330811,2|8,0:0|0:0,0:0:0:0:
494,140,34996,6,0,L|517:231,1,76.4999976654053,6|0,3:1|0:0,0:0:0:0:
377,110,35317,2,0,L|393:35,1,76.4999976654053,2|12,3:1|0:0,0:0:0:0:
314,215,35638,1,4,3:1:0:0:
165,147,35798,1,2,3:1:0:0:
274,75,35958,1,12,3:2:0:0:
197,260,36119,1,2,3:1:0:0:
57,123,36279,1,2,0:2:0:0:
57,123,36600,6,0,P|63:83|74:38,1,76.4999976654053,8|8,0:0|3:2,0:0:0:0:
165,147,36921,1,0,0:0:0:0:
74,236,37081,2,0,P|36:228|-20:214,1,76.4999976654053,4|8,3:1|0:0,0:0:0:0:
68,355,37402,1,2,0:0:0:0:
198,316,37563,6,0,L|181:231,1,76.4999976654053,4|0,3:1|0:0,0:0:0:0:
326,172,37884,2,0,L|310:247,1,76.4999976654053,2|8,3:1|0:0,0:0:0:0:
464,379,38204,1,0,3:0:0:0:
408,233,38365,1,0,3:0:0:0:
292,346,38525,1,8,3:2:0:0:
512,281,38686,1,8,0:0:0:0:
394,122,38846,6,0,B|294:145|294:145|244:109,1,152.999995330811,4|8,3:2|0:0,0:0:0:0:
225,129,39488,2,0,P|214:55|271:8,2,152.999995330811,2|8|4,3:1|0:0|3:1,0:0:0:0:
381,218,40290,5,2,0:0:0:0:
291,85,40450,1,2,3:1:0:0:
225,257,40611,1,8,0:0:0:0:
430,200,40771,2,0,L|338:182,1,85,12|0,0:0|3:0,0:0:0:0:
201,352,41092,2,0,P|239:332|284:339,1,85,12|8,3:2|3:3,0:0:0:0:
305,354,41333,5,8,3:3:0:0:
305,354,41413,2,0,B|371:341|371:341|416:363|416:363|472:350,1,170,4|8,0:0|0:0,0:0:0:0:
316,213,41894,1,0,3:0:0:0:
439,168,42055,2,0,L|424:263,1,85,4|0,3:1|3:0,0:0:0:0:
290,39,42376,2,0,L|305:134,1,85,8|2,0:0|0:0,0:0:0:0:
112,207,42696,5,2,3:1:0:0:
214,96,42857,1,0,3:0:0:0:
77,37,43017,1,2,3:1:0:0:
218,223,43178,1,0,3:0:0:0:
218,223,43258,1,8,0:0:0:0:
218,223,43338,1,2,3:1:0:0:
8,276,43499,1,8,0:0:0:0:
95,123,43658,2,0,L|111:206,1,85,2|2,3:1|3:0,0:0:0:0:
274,378,43980,6,0,L|174:358,1,85,6|0,3:2|0:0,0:0:0:0:
174,342,44622,6,0,B|315:296|247:396|386:356,1,223.125008511544,4|0,0:0|0:0,0:0:0:0:
414,347,45263,5,8,3:2:0:0:
300,179,45424,1,0,3:1:0:0:
460,102,45584,1,0,3:1:0:0:
338,280,45745,1,8,3:2:0:0:
185,170,45905,2,0,L|199:86,1,85,0|0,3:1|3:1,0:0:0:0:
46,234,46226,5,8,0:0:0:0:
49,254,46306,1,8,3:3:0:0:
53,275,46386,1,8,0:0:0:0:
57,296,46466,1,8,3:2:0:0:
60,317,46547,2,0,P|134:299|177:352,1,127.5,6|0,3:0|0:0,0:0:0:0:
253,301,46868,2,0,L|239:385,1,85,8|4,0:0|0:1,0:0:0:0:
449,217,47188,1,0,0:0:0:0:
334,350,47349,1,4,0:1:0:0:
283,140,47509,1,8,0:0:0:0:
480,306,47670,6,0,L|384:289,1,85,0|2,3:0|3:0,0:0:0:0:
283,140,47991,1,4,0:1:0:0:
207,307,48151,1,8,0:0:0:0:
375,185,48311,1,4,0:1:0:0:
187,87,48472,1,2,3:1:0:0:
267,223,48632,2,0,P|273:184|286:126,1,85,4|8,0:1|0:0,0:0:0:0:
80,47,48953,6,0,P|88:88|95:130,1,85,4|2,0:1|3:1,0:0:0:0:
40,262,49274,1,4,0:1:0:0:
199,152,49434,1,8,0:0:0:0:
273,338,49595,1,4,0:1:0:0:
126,211,49755,1,2,3:1:0:0:
45,380,49916,1,4,0:1:0:0:
253,237,50076,2,0,P|294:244|341:252,1,85,8|4,0:0|0:1,0:0:0:0:
512,185,50397,5,2,3:1:0:0:
455,358,50557,2,0,L|435:263,1,85,4|8,0:1|0:0,0:0:0:0:
191,340,50878,2,0,B|255:352|255:352|297:335|297:335|355:347,1,170,4|4,0:1|0:1,0:0:0:0:
372,146,51360,1,8,0:0:0:0:
245,258,51520,1,4,0:1:0:0:
111,153,51680,6,0,P|101:92|163:60,1,127.5,6|0,3:2|0:0,0:0:0:0:
221,0,52001,2,0,L|241:110,1,85,8|4,0:0|0:1,0:0:0:0:
128,249,52322,1,0,3:0:0:0:
305,166,52483,1,4,3:1:0:0:
149,59,52643,1,8,0:0:0:0:
275,266,52803,6,0,L|378:250,1,85,4|2,3:1|3:1,0:0:0:0:
461,332,53124,1,4,0:1:0:0:
305,166,53285,1,8,0:0:0:0:
215,364,53445,1,4,0:1:0:0:
359,253,53606,1,2,3:1:0:0:
223,99,53766,2,0,P|198:138|206:195,1,85,4|8,0:1|0:0,0:0:0:0:
400,94,54087,6,0,L|386:9,1,85,4|2,0:1|3:1,0:0:0:0:
305,166,54408,1,4,0:1:0:0:
466,234,54568,1,8,0:0:0:0:
305,60,54729,1,4,0:1:0:0:
230,260,54889,1,2,3:1:0:0:
400,94,55049,1,4,0:1:0:0:
485,281,55210,2,0,L|390:260,1,85,8|4,0:0|0:1,0:0:0:0:
207,160,55531,6,0,L|229:258,1,101.999996887207,8|0,3:2|0:0,0:0:0:0:
78,361,55852,6,0,B|67:310|67:310|102:265,1,101.999996887207,8|0,3:2|0:0,0:0:0:0:
267,351,56172,6,0,P|222:362|166:333,1,101.999996887207,8|0,3:2|0:0,0:0:0:0:
29,171,56493,5,8,3:3:0:0:
29,171,56573,1,2,3:1:0:0:
29,171,56654,1,8,0:0:0:0:
29,171,56734,1,8,0:0:0:0:
29,171,56814,2,0,P|91:179|165:193,1,127.5,6|0,3:2|0:0,0:0:0:0:
185,92,57135,2,0,P|138:86|96:113,1,85,8|4,0:0|0:1,0:0:0:0:
262,214,57456,1,2,3:1:0:0:
368,74,57616,1,4,0:1:0:0:
490,199,57777,1,8,0:0:0:0:
272,102,57937,6,0,L|288:8,1,85,4|2,3:1|3:1,0:0:0:0:
379,179,58258,1,4,0:1:0:0:
178,232,58418,1,8,0:0:0:0:
323,329,58579,1,4,0:1:0:0:
272,102,58739,1,2,3:1:0:0:
107,255,58900,2,0,P|146:271|188:265,1,85,4|8,3:1|0:0,0:0:0:0:
379,179,59221,1,4,0:1:0:0:
313,355,59381,6,0,L|294:248,1,85,2|4,3:1|0:1,0:0:0:0:
493,188,59702,2,0,L|478:276,1,85,8|4,0:0|0:1,0:0:0:0:
423,74,60023,2,0,P|458:53|505:52,1,85,2|4,3:1|0:1,0:0:0:0:
318,155,60343,2,0,P|275:153|239:132,1,85,8|4,0:0|0:1,0:0:0:0:
132,25,60664,6,0,L|114:115,1,85,2|4,3:1|0:1,0:0:0:0:
7,252,60985,2,0,P|83:224|148:276,1,170,8|2,0:0|3:1,0:0:0:0:
331,320,61466,1,4,3:1:0:0:
268,157,61627,2,0,P|260:197|252:240,1,85,8|4,0:0|0:1,0:0:0:0:
422,383,61948,6,0,B|443:347|443:347|416:232,1,127.5,4|0,0:0|0:0,0:0:0:0:
447,175,62269,2,0,P|405:184|363:191,1,85,8|4,0:0|0:1,0:0:0:0:
255,330,62589,2,0,P|297:337|339:347,1,85,2|4,3:1|0:1,0:0:0:0:
151,190,62910,1,8,0:0:0:0:
81,352,63071,1,4,0:1:0:0:
249,210,63231,6,0,P|240:165|231:115,1,85,4|0,3:2|3:0,0:0:0:0:
86,34,63552,2,0,P|78:75|70:117,1,85,2|0,3:1|3:0,0:0:0:0:
219,305,63872,2,0,P|260:297|316:288,1,85,2|2,3:1|3:1,0:0:0:0:
493,225,64193,2,0,L|451:217,1,42.5,8|0,3:0|0:0,0:0:0:0:
268,126,64354,2,0,L|309:118,1,42.5,8|0,3:0|0:0,0:0:0:0:
376,174,64515,6,0,B|363:237|363:237|384:273|384:273|370:341,1,170,4|2,0:0|0:3,0:0:0:0:
386,362,65797,6,0,B|334:371|334:371|286:341,1,101.999996887207,12|0,0:0|3:0,0:0:0:0:
117,253,66119,6,0,L|222:234,1,101.999996887207,12|0,0:0|3:0,0:0:0:0:
348,156,66440,6,0,P|373:194|368:253,1,101.999996887207,12|0,0:0|0:0,0:0:0:0:
212,100,66761,6,0,L|231:-3,1,101.999996887207,12|0,0:0|0:0,0:0:0:0:
0,189,67081,6,0,P|49:151|110:162,1,127.5,12|0,3:2|0:0,0:0:0:0:
