osu file format v14

[General]
AudioFilename: nanawoakari is cute.mp3
AudioLeadIn: 0
PreviewTime: 43860
Countdown: 0
SampleSet: Soft
StackLeniency: 0.6
Mode: 0
LetterboxInBreaks: 0
WidescreenStoryboard: 1

[Editor]
Bookmarks: 15795,26062,41463
DistanceSpacing: 1.1
BeatDivisor: 2
GridSize: 32
TimelineZoom: 2.1

[Metadata]
Title:Doppel ally
TitleUnicode:ドッペルアリー
Artist:nanawoakari
ArtistUnicode:ナナヲアカリ
Creator:Irohas
Version:Easy
Source:
Tags:mugiwarasekai kanau mamayu fuyuyu- silky mini album いろいろいうけど「♡」(いいね)がほしい Iroiro iukedo "♥" (ii ne) ga hoshii eve numa leimon ryuuseee
BeatmapID:1619299
BeatmapSetID:770165

[Difficulty]
HPDrainRate:2
CircleSize:3
OverallDifficulty:2
ApproachRate:3
SliderMultiplier:0.9
SliderTickRate:1

[Events]
//Background and Video events
0,0,"bg.png",0,0
//Break Periods
2,44180,45106
//Storyboard Layer 0 (Background)
//Storyboard Layer 1 (Fail)
//Storyboard Layer 2 (Pass)
//Storyboard Layer 3 (Foreground)
//Storyboard Sound Samples

[TimingPoints]
324,320.855614973262,4,2,1,50,1,0
324,-100,4,2,1,50,0,0
3211,-100,4,2,1,50,0,0
4495,-100,4,2,1,50,0,0
5477,320.855614973262,4,2,1,50,1,0
5477,-100,4,2,1,50,0,0
23445,-100,4,2,1,55,0,0
24729,-100,4,2,1,60,0,0
38846,-100,4,2,1,50,0,0
43980,-100,4,2,1,50,0,0
44622,-100,4,2,2,80,0,0
45263,-100,4,2,1,80,0,0
46546,-100,4,2,1,90,0,1
47188,-100,4,2,1,80,0,1
55530,-100,4,2,1,80,0,0
55852,-100,4,2,1,80,0,0
56172,-100,4,2,1,80,0,0
56493,-100,4,2,1,80,0,0
56813,-100,4,2,1,80,0,1
64514,-100,4,2,1,60,0,0
65798,-100,4,2,1,60,0,0
67081,-100,4,2,1,60,0,0
67723,-100,4,2,1,15,0,0

[Colours]
Combo1 : 248,133,162
Combo2 : 64,157,234
Combo3 : 250,219,173
Combo4 : 235,235,235

[HitObjects]
449,340,644,5,12,0:0:0:0:
378,270,965,2,0,P|425:242|506:254,2,135,4|10|8,3:2|3:2|0:0,0:0:0:0:
259,359,2409,2,0,P|171:349|115:343,1,135,10|8,3:2|3:2,0:0:0:0:
41,290,3211,1,12,0:0:0:0:
12,198,4495,5,8,0:0:0:0:
41,290,4815,1,8,0:0:0:0:
86,94,5477,6,0,P|167:66|224:84,1,135,4|2,3:2|3:1,0:0:0:0:
311,188,6440,1,8,0:0:0:0:
389,127,6761,2,0,B|413:68|413:68|376:1,2,135,2|4|8,3:1|3:1|0:0,0:0:0:0:
311,188,8044,6,0,P|319:232|338:334,1,135,4|2,3:1|3:1,0:0:0:0:
201,256,9007,1,8,0:0:0:0:
233,349,9327,2,0,P|197:343|87:328,2,135,2|6|8,3:1|3:1|0:0,0:0:0:0:
322,306,10611,6,0,P|352:286|459:300,1,135,0|2,3:0|3:1,0:0:0:0:
509,157,11573,1,8,0:0:0:0:
415,122,11894,2,0,P|375:129|270:148,2,135,6|6|8,3:1|3:1|0:0,0:0:0:0:
368,34,13178,6,0,L|264:52,1,90,6|4,3:1|0:1,0:0:0:0:
202,111,13819,2,0,L|113:97,1,90,2|8,3:1|0:0,0:0:0:0:
0,189,14622,2,0,P|88:203|148:213,1,135,12|4,0:2|0:1,0:0:0:0:
210,273,15424,1,12,0:0:0:0:
302,238,15745,6,0,P|336:168|315:105,1,135,4|2,3:2|3:1,0:0:0:0:
192,44,16707,1,8,0:0:0:0:
283,6,17028,2,0,P|323:13|428:32,2,135,2|6|8,3:1|0:1|0:0,0:0:0:0:
192,44,18311,6,0,P|115:83|52:69,1,135,2|2,3:1|3:1,0:0:0:0:
0,204,19274,1,8,0:0:0:0:
93,235,19595,2,0,P|76:326|67:374,2,135,2|6|8,3:1|0:1|0:0,0:0:0:0:
154,157,20878,6,0,B|199:134|199:134|296:166,1,135,2|2,3:1|3:1,0:0:0:0:
391,260,21841,1,8,0:0:0:0:
476,210,22162,2,0,P|501:151|479:76,2,135,0|6|8,3:1|0:1|0:0,0:0:0:0:
391,260,23445,6,0,P|351:254|292:245,1,90,4|4,3:1|0:1,0:0:0:0:
222,187,24087,2,0,P|187:174|127:182,1,90,6|8,3:1|0:0,0:0:0:0:
67,251,24729,2,0,P|74:284|90:356,2,90,6|2|6,3:1|3:1|3:1,0:0:0:0:
0,177,25691,1,12,0:0:0:0:
61,99,26012,6,0,P|137:61|196:75,2,135,6|8|8,0:0|0:0|0:0,0:0:0:0:
0,177,27295,1,8,3:3:0:0:
133,242,27777,2,0,P|222:226|276:219,1,135,8|8,3:2|0:0,0:0:0:0:
363,236,28579,6,0,B|393:296|393:296|355:369,2,135,6|8|8,3:1|0:0|0:0,0:0:0:0:
318,148,29862,2,0,B|288:88|288:88|326:15,2,135,6|8|12,3:1|0:0|0:0,0:0:0:0:
407,171,31145,5,8,3:3:0:0:
274,238,31627,2,0,P|234:231|127:216,1,135,8|8,0:0|0:0,0:0:0:0:
44,241,32428,2,0,P|6:319|20:376,2,135,8|8|8,3:3|0:0|0:0,0:0:0:0:
140,217,33712,5,6,3:1:0:0:
13,138,34194,2,0,P|101:126|158:119,1,135,8|8,0:0|0:0,0:0:0:0:
218,51,34996,2,0,P|307:63|369:73,2,135,6|12|12,3:1|0:0|3:2,0:0:0:0:
146,120,36279,6,0,P|153:160|173:264,1,135,8|8,3:3|3:2,0:0:0:0:
286,345,37242,1,8,0:0:0:0:
356,275,37563,2,0,P|397:256|492:273,2,135,4|8|8,3:1|0:0|0:0,0:0:0:0:
286,345,38846,6,0,P|246:356|195:341,1,90,4|8,3:2|0:0,0:0:0:0:
139,265,39488,2,0,P|99:254|48:269,1,90,2|8,3:1|0:0,0:0:0:0:
1,180,40130,2,0,P|10:137|23:76,1,90,4|2,3:1|3:1,0:0:0:0:
117,80,40771,2,0,P|107:124|98:168,1,90,12|12,0:0|3:2,0:0:0:0:
193,197,41413,6,0,P|282:185|390:173,1,180,4|4,0:0|3:1,0:0:0:0:
452,233,42376,1,8,0:0:0:0:
509,162,42696,2,0,P|520:128|502:69,1,90,2|2,3:1|3:1,0:0:0:0:
417,34,43338,2,0,P|387:38|308:51,1,90,2|2,3:1|3:1,0:0:0:0:
243,100,43980,5,6,3:2:0:0:
48,63,46546,6,0,P|55:112|75:254,1,180,6|2,3:0|3:1,0:0:0:0:
11,318,47509,1,8,0:0:0:0:
100,361,47830,2,0,P|140:353|200:342,1,90,2|8,3:0|0:0,0:0:0:0:
247,263,48472,2,0,P|291:271|335:279,1,90,2|8,3:1|0:0,0:0:0:0:
406,350,49114,6,0,B|438:309|438:309|402:165,1,180,2|2,3:1|3:1,0:0:0:0:
327,126,50076,1,8,0:0:0:0:
402,62,50396,2,0,P|445:55|498:48,2,90,2|8|2,3:1|0:0|3:1,0:0:0:0:
309,31,51360,1,8,0:0:0:0:
327,126,51680,6,0,P|254:172|150:154,1,180,6|0,3:2|3:0,0:0:0:0:
90,94,52643,1,8,0:0:0:0:
33,175,52964,2,0,P|42:222|53:284,1,90,2|8,3:1|0:0,0:0:0:0:
148,271,53606,2,0,B|196:253|196:253|252:273,1,90,2|8,3:1|0:0,0:0:0:0:
207,361,54247,6,0,P|257:352|314:343,1,90,2|8,3:1|0:0,0:0:0:0:
377,289,54889,2,0,P|421:280|465:273,1,90,2|8,3:1|0:0,0:0:0:0:
436,180,55531,2,0,P|391:187|347:195,2,90,8|8|8,3:2|3:2|3:2,0:0:0:0:
504,108,56493,1,8,3:3:0:0:
416,64,56814,6,0,P|371:71|225:96,1,180,6|2,3:2|3:1,0:0:0:0:
150,47,57777,1,8,0:0:0:0:
78,110,58098,2,0,P|61:148|73:205,1,90,2|8,3:1|0:0,0:0:0:0:
155,240,58739,2,0,P|172:278|160:335,1,90,2|8,3:1|0:0,0:0:0:0:
75,365,59381,6,0,P|162:350|259:334,1,180,2|2,3:1|3:1,0:0:0:0:
337,283,60343,1,8,0:0:0:0:
420,335,60664,2,0,B|437:297|437:297|421:248,1,90,2|8,3:1|0:0,0:0:0:0:
340,193,61306,2,0,B|323:155|323:155|339:106,1,90,2|8,3:1|0:0,0:0:0:0:
421,55,61948,6,0,P|458:59|528:69,2,90,4|8|2,0:0|0:0|3:1,0:0:0:0:
334,7,62910,1,8,0:0:0:0:
262,70,63231,2,0,P|218:83|164:69,1,90,4|8,3:2|3:2,0:0:0:0:
100,9,63872,2,0,P|76:48|75:103,1,90,2|8,3:1|3:3,0:0:0:0:
141,163,64515,1,4,0:0:0:0:
141,163,65798,5,12,0:0:0:0:
162,259,66119,1,12,0:0:0:0:
185,355,66440,2,8,P|227:346|287:337,1,90,12|12,0:0|0:0,0:0:0:0:
348,273,67081,5,12,3:2:0:0:
