osu file format v14

[General]
AudioFilename: audio.mp3
AudioLeadIn: 0
PreviewTime: 51369
Countdown: 0
SampleSet: Soft
StackLeniency: 0.2
Mode: 0
LetterboxInBreaks: 0
WidescreenStoryboard: 0

[Editor]
Bookmarks: 3414,10422,17429,20933,34728,45458,52465,62976,73487,80495
DistanceSpacing: 0.9
BeatDivisor: 4
GridSize: 16
TimelineZoom: 2.799999

[Metadata]
Title:Danger in my Tsuugakuro
TitleUnicode:Danger in my 通学路
Artist:nanairoad
ArtistUnicode:ナナイロード
Creator:Aro
Version:Pure Danger
Source:
Tags:
BeatmapID:1793350
BeatmapSetID:858099

[Difficulty]
HPDrainRate:5.2
CircleSize:4.3
OverallDifficulty:9.5
ApproachRate:10
SliderMultiplier:2
SliderTickRate:1

[Events]
//Background and Video events
0,0,"bg3.jpg",0,0
//Break Periods
//Storyboard Layer 0 (Background)
//Storyboard Layer 1 (Fail)
//Storyboard Layer 2 (Pass)
//Storyboard Layer 3 (Foreground)
//Storyboard Sound Samples

[TimingPoints]
1663,218.978102189781,4,2,0,40,1,0
4838,-399.999999999997,4,2,0,40,0,0
5166,-100,4,2,0,40,0,0
6590,-399.999999999997,4,2,0,40,0,0
6918,-100,4,2,0,40,0,0
8341,-399.999999999997,4,2,0,40,0,0
8560,-100,4,2,0,40,0,0
15349,-399.999999999997,4,2,0,40,0,0
15677,-100,4,2,0,40,0,0
17100,-399.999999999997,4,2,0,40,0,0
17429,-100,4,2,0,40,0,0
34728,218.978102189781,4,2,0,40,1,0
34728,-133.333333333333,4,2,0,40,0,0
44800,-399.999999999997,4,2,0,40,0,0
45457,218.978102189781,4,2,0,40,1,0
52464,-66.6666666666667,4,2,0,40,0,1
62975,-100,4,2,0,40,0,0
66478,-66.6666666666667,4,2,0,40,0,1
73486,-100,4,2,0,40,0,0
78960,-50,4,2,0,40,0,0

[Colours]
Combo1 : 133,194,194
Combo2 : 255,179,74
Combo3 : 255,155,248
Combo4 : 205,95,98

[HitObjects]
256,192,568,12,0,2319,0:0:0:0:
1,262,2538,5,0,0:0:0:0:
41,339,2648,5,0,0:0:0:0:
75,337,2702,1,0,0:0:0:0:
107,349,2757,1,0,0:0:0:0:
139,363,2812,1,0,0:0:0:0:
174,364,2866,1,0,0:0:0:0:
294,309,2976,5,0,0:0:0:0:
156,119,3086,1,0,0:0:0:0:
379,191,3195,1,0,0:0:0:0:
156,264,3305,1,0,0:0:0:0:
294,74,3414,1,0,0:0:0:0:
306,77,3633,5,0,0:0:0:0:
206,30,3743,2,0,P|170:43|107:41,1,100,0|0,0:0|0:0,0:0:0:0:
245,157,3962,1,0,0:0:0:0:
329,6,4071,2,0,P|371:32|386:79,1,100,0|0,0:0|0:0,0:0:0:0:
361,206,4290,5,0,0:0:0:0:
474,76,4400,2,0,B|488:112|488:112|459:174,1,100,0|0,0:0|0:0,0:0:0:0:
490,374,4619,2,0,B|475:337|475:337|504:275,1,100,0|0,0:0|0:0,0:0:0:0:
354,252,4838,6,0,L|403:245,1,50,0|0,0:0|0:0,0:0:0:0:
490,374,5166,1,0,0:0:0:0:
479,384,5385,5,0,0:0:0:0:
338,262,5495,2,0,P|291:244|241:246,1,100,0|0,0:0|0:0,0:0:0:0:
94,276,5714,1,0,0:0:0:0:
167,107,5823,2,0,L|156:232,1,100,0|0,0:0|0:0,0:0:0:0:
146,368,6042,5,0,0:0:0:0:
14,269,6152,2,0,B|17:234|17:234|69:195,1,100,0|0,0:0|0:0,0:0:0:0:
67,0,6371,2,0,B|64:35|64:35|11:73,1,100,0|0,0:0|0:0,0:0:0:0:
196,66,6590,6,0,L|146:99,1,50,0|0,0:0|0:0,0:0:0:0:
94,276,6918,1,0,0:0:0:0:
104,285,7137,5,0,0:0:0:0:
0,151,7246,2,0,P|-12:198|2:245,1,100,0|0,0:0|0:0,0:0:0:0:
109,382,7465,1,0,0:0:0:0:
176,222,7575,2,0,P|133:242|98:304,1,100,0|0,0:0|0:0,0:0:0:0:
14,137,7794,5,0,0:0:0:0:
204,156,7903,2,0,B|237:168|237:168|256:230,1,100,0|0,0:0|0:0,0:0:0:0:
397,369,8122,2,0,B|364:357|364:357|344:295,1,100,0|0,0:0|0:0,0:0:0:0:
236,347,8341,6,0,L|269:300,1,50,0|0,0:0|0:0,0:0:0:0:
350,195,8670,1,0,0:0:0:0:
343,205,8889,5,0,0:0:0:0:
423,40,8998,2,0,P|411:88|426:135,1,100,0|0,0:0|0:0,0:0:0:0:
467,266,9217,1,0,0:0:0:0:
256,266,9327,2,0,P|292:232|340:221,1,100,0|0,0:0|0:0,0:0:0:0:
411,30,9546,6,0,B|339:-6|267:30|267:30|194:64|123:30,1,300,0|0,0:0|0:0,0:0:0:0:
13,356,9984,1,0,0:0:0:0:
13,356,10312,5,0,0:0:0:0:
38,338,10367,1,0,0:0:0:0:
78,317,10422,6,0,B|111:305|143:317|143:317|160:347|186:360|186:360|222:350|255:363,1,200,0|0,0:0|0:0,0:0:0:0:
429,270,10750,1,0,0:0:0:0:
272,191,10860,1,0,0:0:0:0:
362,353,10969,1,0,0:0:0:0:
462,195,11079,2,0,P|406:191|368:219,1,100,0|0,0:0|0:0,0:0:0:0:
451,362,11298,5,0,0:0:0:0:
451,362,11352,1,0,0:0:0:0:
451,362,11407,1,0,0:0:0:0:
480,185,11517,1,0,0:0:0:0:
305,288,11626,1,0,0:0:0:0:
240,124,11735,5,0,0:0:0:0:
298,32,11845,1,0,0:0:0:0:
367,146,11954,1,0,0:0:0:0:
449,31,12064,1,0,0:0:0:0:
480,185,12173,6,0,B|441:156|441:156|290:173,1,200
139,187,12502,1,0,0:0:0:0:
207,20,12611,1,0,0:0:0:0:
277,176,12721,1,0,0:0:0:0:
88,8,12830,1,0,0:0:0:0:
156,270,12940,1,0,0:0:0:0:
220,27,13049,5,0,0:0:0:0:
6,183,13159,1,0,0:0:0:0:
264,180,13268,1,0,0:0:0:0:
68,7,13378,1,0,0:0:0:0:
29,340,13487,5,0,0:0:0:0:
144,20,13597,1,0,0:0:0:0:
321,313,13706,1,0,0:0:0:0:
382,0,13816,1,0,0:0:0:0:
158,224,13925,5,0,0:0:0:0:
148,236,14144,5,0,0:0:0:0:
338,116,14254,2,0,P|291:103|244:119,1,100,0|0,0:0|0:0,0:0:0:0:
295,239,14473,1,0,0:0:0:0:
473,218,14582,2,0,L|347:192,1,100,0|0,0:0|0:0,0:0:0:0:
171,156,14801,5,0,0:0:0:0:
341,42,14911,2,0,B|369:34|369:34|422:79,1,100,0|0,0:0|0:0,0:0:0:0:
207,61,15130,2,0,B|179:69|179:69|125:23,1,100,0|0,0:0|0:0,0:0:0:0:
283,167,15349,6,0,L|279:108,1,50,0|0,0:0|0:0,0:0:0:0:
269,0,15677,1,0,0:0:0:0:
258,8,15896,5,0,0:0:0:0:
103,119,16006,2,0,P|93:167|115:210,1,100,0|0,0:0|0:0,0:0:0:0:
244,255,16225,1,0,0:0:0:0:
130,374,16334,2,0,L|160:278,1,100,0|0,0:0|0:0,0:0:0:0:
203,111,16553,5,0,0:0:0:0:
366,137,16662,2,0,B|339:142|339:142|284:94,1,100,0|0,0:0|0:0,0:0:0:0:
408,238,16881,2,0,B|434:232|434:232|489:280,1,100,0|0,0:0|0:0,0:0:0:0:
452,106,17100,5,0,0:0:0:0:
272,298,17210,1,0,0:0:0:0:
285,80,17319,1,0,0:0:0:0:
395,338,17429,5,0,0:0:0:0:
167,158,17538,2,0,L|153:266,1,100,0|0,0:0|0:0,0:0:0:0:
362,264,17757,5,0,0:0:0:0:
134,84,17866,2,0,L|120:192,1,100,0|0,0:0|0:0,0:0:0:0:
329,190,18086,5,0,0:0:0:0:
101,10,18195,2,0,L|87:118,1,100,0|0,0:0|0:0,0:0:0:0:
117,338,18414,5,0,0:0:0:0:
345,158,18523,2,0,L|359:266,1,100,0|0,0:0|0:0,0:0:0:0:
150,264,18742,5,0,0:0:0:0:
378,84,18852,2,0,L|392:192,1,100
183,190,19071,5,0,0:0:0:0:
316,33,19181,1,0,0:0:0:0:
357,6,19235,1,0,0:0:0:0:
406,9,19290,1,0,0:0:0:0:
444,40,19345,1,0,0:0:0:0:
455,88,19400,5,0,0:0:0:0:
453,103,19454,1,0,0:0:0:0:
452,118,19509,1,0,0:0:0:0:
450,133,19564,1,0,0:0:0:0:
448,148,19618,1,0,0:0:0:0:
446,162,19673,1,0,0:0:0:0:
444,177,19728,1,0,0:0:0:0:
442,192,19783,1,0,0:0:0:0:
441,207,19837,1,0,0:0:0:0:
439,222,19892,1,0,0:0:0:0:
437,237,19947,1,0,0:0:0:0:
435,252,20002,1,0,0:0:0:0:
433,267,20057,5,0,0:0:0:0:
386,284,20111,1,0,0:0:0:0:
337,291,20166,1,0,0:0:0:0:
287,284,20221,1,0,0:0:0:0:
240,267,20275,1,0,0:0:0:0:
194,249,20330,1,0,0:0:0:0:
144,243,20385,1,0,0:0:0:0:
95,249,20440,1,0,0:0:0:0:
27,301,20494,5,0,0:0:0:0:
34,120,20933,6,0,L|22:219,1,100,0|0,0:0|0:0,0:0:0:0:
201,147,21152,2,0,P|170:108|123:95,1,100,0|0,0:0|0:0,0:0:0:0:
7,233,21371,1,0,0:0:0:0:
119,182,21480,1,0,0:0:0:0:
75,355,21590,2,0,L|87:256,1,100,0|0,0:0|0:0,0:0:0:0:
106,18,21808,6,0,P|62:42|45:91,1,100,0|0,0:0|0:0,0:0:0:0:
217,163,22027,5,0,0:0:0:0:
191,61,22137,2,0,P|190:110|224:149,1,100
383,81,22356,5,0,0:0:0:0:
280,54,22465,2,0,P|322:79|373:69,1,100,0|0,0:0|0:0,0:0:0:0:
494,14,22684,5,0,0:0:0:0:
349,165,22794,1,0,0:0:0:0:
480,100,22903,2,0,L|352:74,1,100,0|0,0:0|0:0,0:0:0:0:
334,250,23122,1,0,0:0:0:0:
280,54,23232,1,0,0:0:0:0:
205,176,23341,2,0,L|302:156,1,100,0|0,0:0|0:0,0:0:0:0:
494,188,23560,6,0,P|450:212|432:257,1,100,0|0,0:0|0:0,0:0:0:0:
360,352,23779,5,0,0:0:0:0:
334,250,23889,2,0,P|333:299|367:338,1,100,0|0,0:0|0:0,0:0:0:0:
241,325,24108,5,0,0:0:0:0:
138,298,24217,2,0,P|180:323|231:313,1,100,0|0,0:0|0:0,0:0:0:0:
308,175,24436,5,0,0:0:0:0:
194,248,24546,1,0,0:0:0:0:
221,69,24655,2,0,L|225:168,1,100,0|0,0:0|0:0,0:0:0:0:
274,11,24874,1,0,0:0:0:0:
84,102,24984,1,0,0:0:0:0:
165,219,25093,2,0,P|115:216|74:243,1,100,0|0,0:0|0:0,0:0:0:0:
84,102,25312,6,0,B|66:145|66:145|20:171,1,100,0|0,0:0|0:0,0:0:0:0:
141,319,25531,5,0,0:0:0:0:
165,219,25641,2,0,B|178:266|178:266|155:312,1,100,0|0,0:0|0:0,0:0:0:0:
358,332,25859,5,0,0:0:0:0:
305,244,25969,2,0,B|347:267|347:267|364:316,1,100,0|0,0:0|0:0,0:0:0:0:
220,377,26188,5,0,0:0:0:0:
165,219,26298,1,0,0:0:0:0:
350,178,26407,2,0,P|306:165|250:184,1,100,0|0,0:0|0:0,0:0:0:0:
284,325,26626,1,0,0:0:0:0:
430,353,26735,2,0,P|438:305|417:261,1,100,0|0,0:0|0:0,0:0:0:0:
289,101,26954,1,0,0:0:0:0:
276,327,27064,6,0,L|282:227,1,100,0|0,0:0|0:0,0:0:0:0:
297,12,27283,1,0,0:0:0:0:
53,246,27392,1,0,0:0:0:0:
193,183,27502,1,0,0:0:0:0:
78,101,27611,1,0,0:0:0:0:
214,384,27721,1,0,0:0:0:0:
379,79,27830,1,0,0:0:0:0:
126,218,27940,6,0,L|141:320,1,100,0|0,0:0|0:0,0:0:0:0:
314,352,28159,2,0,P|294:308|248:284,1,100,0|0,0:0|0:0,0:0:0:0:
74,380,28378,1,0,0:0:0:0:
205,220,28487,1,0,0:0:0:0:
83,107,28597,2,0,L|98:209,1,100,0|0,0:0|0:0,0:0:0:0:
30,49,28816,6,0,B|71:27|71:27|123:37,1,100,0|0,0:0|0:0,0:0:0:0:
234,109,29035,5,0,0:0:0:0:
258,9,29145,2,0,B|271:56|271:56|248:102,1,100,0|0,0:0|0:0,0:0:0:0:
484,74,29363,5,0,0:0:0:0:
381,48,29473,2,0,B|426:38|426:38|474:60,1,100,0|0,0:0|0:0,0:0:0:0:
443,315,29692,5,0,0:0:0:0:
425,128,29801,1,0,0:0:0:0:
351,308,29911,2,0,P|366:261|407:233,1,100
505,379,30130,1,0,0:0:0:0:
478,191,30239,1,0,0:0:0:0:
344,329,30349,2,0,L|443:315,1,100
239,381,30568,6,0,B|117:363,1,100
200,110,30787,5,0,0:0:0:0:
186,276,30896,2,0,B|149:183,1,100
398,97,31115,5,0,0:0:0:0:
251,178,31225,2,0,B|313:99,1,100
182,0,31444,5,0,0:0:0:0:
149,173,31553,1,0,0:0:0:0:
0,140,31662,2,0,P|-6:182|14:241,1,100
150,163,31881,1,0,0:0:0:0:
7,127,31991,1,0,0:0:0:0:
107,273,32100,1,0,0:0:0:0:
97,72,32210,1,0,0:0:0:0:
40,319,32319,6,0,P|26:271|41:224,1,100
253,122,32538,5,0,0:0:0:0:
150,163,32648,2,0,P|184:127|232:117,1,100
429,248,32866,5,0,0:0:0:0:
340,180,32976,2,0,P|387:192|420:228,1,100
374,381,33195,5,0,0:0:0:0:
358,383,33414,6,0,B|265:374|265:374|260:379|260:379|255:374|255:374|162:365,1,200
64,202,33743,1,0,0:0:0:0:
323,287,33852,1,0,0:0:0:0:
98,312,33962,1,0,0:0:0:0:
201,99,34071,1,0,0:0:0:0:
241,263,34181,1,0,0:0:0:0:
134,150,34290,1,0,0:0:0:0:
277,174,34400,1,0,0:0:0:0:
142,247,34509,1,0,0:0:0:0:
207,110,34619,1,0,0:0:0:0:
203,196,34728,6,0,B|256:223|311:196|311:196|365:169|419:196,1,225.000008583069
476,263,35165,2,0,P|457:230|464:194,1,75.0000028610231
449,45,35384,2,0,P|455:81|437:113,1,75.0000028610231
364,270,35603,6,0,P|394:370|498:360,1,225.000008583069
304,224,36041,2,0,P|287:258|280:294,1,75.0000028610231
155,370,36260,2,0,P|138:336|131:299,1,75.0000028610231
130,84,36479,6,0,P|113:191|18:244,1,225.000008583069
59,30,36917,2,0,P|160:3|218:91,1,225.000008583069
195,268,37355,5,0,0:0:0:0:
26,136,37465,1,0,0:0:0:0:
123,325,37574,1,0,0:0:0:0:
168,151,37684,1,0,0:0:0:0:
298,270,37793,1,0,0:0:0:0:
106,221,37903,1,0,0:0:0:0:
226,354,38012,2,0,L|218:277,1,75.0000028610231
460,205,38231,6,0,B|509:210|509:210|385:334,1,225.000008583069
466,132,38669,2,0,P|430:128|401:150,1,75.0000028610231
247,112,38888,2,0,P|281:125|315:111,1,75.0000028610231
216,40,39107,6,0,B|180:22|180:22|163:205,1,225.000008583069
78,311,39545,2,0,P|67:278|36:247,1,75.0000028610231
227,317,39764,2,0,P|247:287|280:267,1,75.0000028610231
150,377,39983,6,0,P|258:351|365:381,1,225.000008583069
507,255,40421,2,0,P|400:263|361:362,1,225.000008583069
481,366,40859,5,0,0:0:0:0:
419,173,40968,1,0,0:0:0:0:
276,273,41078,1,0,0:0:0:0:
440,290,41187,1,0,0:0:0:0:
298,123,41297,1,0,0:0:0:0:
244,356,41406,1,0,0:0:0:0:
338,232,41516,2,0,P|312:205|273:200,1,75.0000028610231
67,331,41735,6,0,B|127:343|174:302|174:302|220:261|275:272,1,225.000008583069
211,154,42173,2,0,P|197:187|202:224,1,75.0000028610231
273,360,42392,2,0,P|287:326|282:289,1,75.0000028610231
174,87,42611,6,0,P|124:171|170:302,1,225.000008583069
230,37,43049,2,0,B|212:14|212:14|166:12,1,75.0000028610231
303,112,43268,2,0,B|321:135|321:135|366:136,1,75.0000028610231
0,0,43487,5,0,0:0:0:0:
512,192,43925,5,0,0:0:0:0:
0,384,44363,5,0,0:0:0:0:
174,293,44691,5,0,0:0:0:0:
88,232,44800,2,0,B|97:241|97:241|99:265,2,37.5
160,332,45457,5,0,0:0:0:0:
248,317,45785,1,0,0:0:0:0:
336,302,46113,1,0,0:0:0:0:
423,216,46771,5,0,0:0:0:0:
299,195,47099,1,0,0:0:0:0:
176,174,47427,1,0,0:0:0:0:
70,106,48085,5,0,0:0:0:0:
218,80,48413,1,0,0:0:0:0:
366,55,48741,1,0,0:0:0:0:
366,55,49179,5,0,0:0:0:0:
407,133,49398,1,0,0:0:0:0:
407,250,49617,1,0,0:0:0:0:
321,355,49836,1,0,0:0:0:0:
159,326,50055,1,0,0:0:0:0:
227,169,50274,5,0,0:0:0:0:
217,193,50328,1,0,0:0:0:0:
214,217,50383,1,0,0:0:0:0:
217,242,50438,1,0,0:0:0:0:
225,266,50492,1,0,0:0:0:0:
234,289,50547,1,0,0:0:0:0:
238,314,50602,1,0,0:0:0:0:
236,338,50657,1,0,0:0:0:0:
213,384,50712,5,0,0:0:0:0:
25,78,52464,6,0,B|70:41|70:41|327:102,1,300.000011444092
95,375,52792,2,0,P|91:300|115:230,1,150.000005722046
384,126,53011,1,0,0:0:0:0:
28,186,53121,2,0,P|84:140|156:147,1,150.000005722046
97,374,53340,5,0,0:0:0:0:
20,78,53449,1,0,0:0:0:0:
233,178,53559,1,0,0:0:0:0:
26,267,53668,1,0,0:0:0:0:
247,14,53778,2,0,P|261:88|245:160,1,150.000005722046
27,345,53997,6,0,P|169:302|318:316,1,300.000011444092
503,371,54325,1,0,0:0:0:0:
383,82,54435,1,0,0:0:0:0:
306,348,54544,1,0,0:0:0:0:
505,31,54654,1,0,0:0:0:0:
304,198,54763,1,0,0:0:0:0:
426,13,54873,2,0,P|353:5|305:59,1,150.000005722046
84,267,55092,6,0,B|153:232|227:268|227:268|300:305|373:268,1,300.000011444092
227,9,55420,2,0,P|198:77|205:156,1,150.000005722046
452,357,55639,2,0,P|481:289|473:210,1,150.000005722046
369,24,55858,1,0,0:0:0:0:
338,350,55967,6,0,B|328:309|328:309|450:82,1,300.000011444092
134,229,56296,2,0,P|114:126|168:51,1,150.000005722046
464,71,56515,1,0,0:0:0:0:
353,349,56625,2,0,P|402:293|474:275,1,150.000005722046
195,342,56843,5,0,0:0:0:0:
121,18,56953,1,0,0:0:0:0:
332,184,57062,1,0,0:0:0:0:
69,243,57172,1,0,0:0:0:0:
354,20,57281,2,0,L|333:188,1,150.000005722046
115,345,57500,2,0,P|210:258|266:374,1,300.000011444092
26,322,57829,5,0,0:0:0:0:
250,184,57938,2,0,P|312:224|353:287,1,150.000005722046
472,370,58157,1,0,0:0:0:0:
370,28,58267,1,0,0:0:0:0:
396,375,58376,1,0,0:0:0:0:
294,33,58486,1,0,0:0:0:0:
320,380,58595,6,0,L|234:61,1,300.000011444092
81,157,58924,1,0,0:0:0:0:
214,346,59033,1,0,0:0:0:0:
146,40,59143,1,0,0:0:0:0:
100,369,59252,1,0,0:0:0:0:
301,43,59362,1,0,0:0:0:0:
2,93,59471,6,0,P|17:228|154:222,1,300.000011444092
159,46,59800,1,0,0:0:0:0:
6,314,59909,1,0,0:0:0:0:
228,135,60019,1,0,0:0:0:0:
13,84,60128,2,0,P|-11:157|20:222,1,150.000005722046
212,345,60347,6,0,P|338:270|476:315,1,300.000011444092
512,0,60675,2,0,P|418:114|402:261,1,300.000011444092
131,298,61004,2,0,P|191:256|263:267,1,150.000005722046
476,312,61223,5,0,0:0:0:0:
212,345,61332,1,0,0:0:0:0:
333,128,61442,1,0,0:0:0:0:
357,377,61551,1,0,0:0:0:0:
206,122,61661,1,0,0:0:0:0:
498,133,61770,1,0,0:0:0:0:
264,269,61880,2,0,P|264:195|311:138,1,150.000005722046
211,344,62099,6,0,P|182:201|261:78,1,300.000011444092
357,377,62427,1,0,0:0:0:0:
87,265,62537,1,0,0:0:0:0:
394,219,62646,1,0,0:0:0:0:
165,53,62756,1,0,0:0:0:0:
265,245,62865,1,0,0:0:0:0:
311,138,62975,6,0,L|421:131,1,100
165,53,63303,2,0,L|275:46,1,100
276,235,63632,2,0,L|165:241,1,100
68,280,63851,5,0,0:0:0:0:
104,187,63960,1,0,0:0:0:0:
181,252,64070,2,0,P|199:298|186:346,1,100
5,180,64289,2,0,P|-12:134|0:86,1,100
282,150,64508,1,0,0:0:0:0:
71,272,64617,1,0,0:0:0:0:
165,20,64727,5,0,0:0:0:0:
281,268,64836,1,0,0:0:0:0:
78,73,64946,1,0,0:0:0:0:
366,89,65055,1,0,0:0:0:0:
165,325,65165,1,0,0:0:0:0:
254,30,65274,1,0,0:0:0:0:
361,325,65384,1,0,0:0:0:0:
88,83,65493,1,0,0:0:0:0:
439,62,65602,5,0,0:0:0:0:
77,293,65712,1,0,0:0:0:0:
343,11,65821,1,0,0:0:0:0:
263,372,65931,1,0,0:0:0:0:
137,4,66040,1,0,0:0:0:0:
506,233,66150,1,0,0:0:0:0:
33,352,66259,1,0,0:0:0:0:
335,24,66369,1,0,0:0:0:0:
494,377,66478,6,0,P|326:327|207:375,1,300
103,165,66807,2,0,L|123:16,1,150.000005722046
321,57,67026,1,0,0:0:0:0:
158,232,67135,2,0,P|87:251|28:209,1,150.000005722046
214,11,67354,5,0,0:0:0:0:
224,284,67464,1,0,0:0:0:0:
17,80,67573,1,0,0:0:0:0:
354,129,67683,1,0,0:0:0:0:
60,331,67792,2,0,L|208:295,1,150.000005722046
374,18,68011,6,0,P|256:91|301:223,1,300.000011444092
430,84,68340,1,0,0:0:0:0:
88,18,68449,1,0,0:0:0:0:
301,224,68559,1,0,0:0:0:0:
254,0,68668,1,0,0:0:0:0:
87,208,68778,1,0,0:0:0:0:
384,194,68887,2,0,P|335:141|262:142,1,150.000005722046
120,355,69106,6,0,P|260:357|301:222,1,300.000011444092
166,0,69435,2,0,P|144:68|181:131,1,150.000005722046
398,254,69654,1,0,0:0:0:0:
372,0,69763,2,0,L|227:57,1,150.000005722046
98,240,69982,6,0,B|214:204|214:204|282:243|282:243|378:215,1,300.000011444092
500,11,70311,1,0,0:0:0:0:
430,350,70420,1,0,0:0:0:0:
348,127,70529,1,0,0:0:0:0:
495,319,70639,2,0,P|435:277|365:312,1,150.000005722046
235,365,70858,6,0,P|162:381|50:198,1,300.000011444092
269,80,71186,2,0,B|240:112|240:112|134:124,1,150.000005722046
3,0,71405,1,0,0:0:0:0:
261,7,71515,2,0,P|327:34|339:104,1,150.000005722046
216,271,71734,5,0,0:0:0:0:
268,79,71843,1,0,0:0:0:0:
405,273,71953,1,0,0:0:0:0:
231,192,72062,1,0,0:0:0:0:
438,40,72172,1,0,0:0:0:0:
365,195,72281,1,0,0:0:0:0:
332,26,72391,5,0,0:0:0:0:
486,298,72500,1,0,0:0:0:0:
155,219,72610,1,0,0:0:0:0:
454,18,72719,1,0,0:0:0:0:
286,302,72829,1,0,0:0:0:0:
75,25,72938,1,0,0:0:0:0:
484,157,73048,5,0,0:0:0:0:
71,373,73157,1,0,0:0:0:0:
258,15,73267,1,0,0:0:0:0:
433,374,73376,1,0,0:0:0:0:
59,12,73486,6,0,L|73:138,1,100
147,257,73705,1,0,0:0:0:0:
203,189,73814,2,0,P|159:166|111:177,1,100
17,317,74033,1,0,0:0:0:0:
102,331,74142,2,0,P|100:282|66:246,1,100
197,330,74362,6,0,P|268:296|403:347,1,200
512,384,74690,2,0,L|492:184,1,200
357,61,75019,2,0,B|397:76|397:76|402:133,1,100
197,330,75238,1,0,0:0:0:0:
131,59,75457,6,0,L|103:169,1,100
197,330,75675,1,0,0:0:0:0:
119,326,75785,2,0,P|134:279|177:255,1,100
308,369,76004,1,0,0:0:0:0:
272,299,76114,2,0,P|319:289|361:314,1,100
512,376,76332,1,0,0:0:0:0:
432,373,76442,2,0,P|447:326|490:302,1,100
188,193,76770,5,0,0:0:0:0:
256,192,76989,12,0,78741,0:0:0:0:
89,48,78960,6,0,L|111:246,1,200
423,48,79289,2,0,L|400:246,1,200
256,384,79617,2,0,L|256:176,1,200
176,80,79836,5,0,0:0:0:0:
336,80,79946,1,0,0:0:0:0:
208,144,80055,1,0,0:0:0:0:
304,144,80165,1,0,0:0:0:0:
240,208,80274,1,0,0:0:0:0:
272,208,80384,1,0,0:0:0:0:
256,277,80493,5,0,0:0:0:0:
