osu file format v14

[General]
AudioFilename: audio.mp3
AudioLeadIn: 0
PreviewTime: -1
Countdown: 1
SampleSet: Normal
StackLeniency: 0.7
Mode: 0
LetterboxInBreaks: 0
WidescreenStoryboard: 1

[Editor]
DistanceSpacing: 0.9
BeatDivisor: 4
GridSize: 16
TimelineZoom: 2.2

[Metadata]
Title:Francium
TitleUnicode:Francium
Artist:nanahira
ArtistUnicode:ななひら
Creator:Mimasu
Version:TAG4
Source:
Tags:
BeatmapID:1725963
BeatmapSetID:821484

[Difficulty]
HPDrainRate:5
CircleSize:4
OverallDifficulty:5
ApproachRate:9
SliderMultiplier:1.4
SliderTickRate:1

[Events]
//Background and Video events
0,0,"BG.jpg",0,0
//Break Periods
//Storyboard Layer 0 (Background)
//Storyboard Layer 1 (Fail)
//Storyboard Layer 2 (Pass)
//Storyboard Layer 3 (Foreground)
//Storyboard Sound Samples

[TimingPoints]
652,333.333333333333,4,1,0,70,1,0
15651,-50,4,1,0,70,0,0
16318,-100,4,1,0,70,0,0
19985,-66.6666666666667,4,1,0,70,0,0
20985,-100,4,1,0,70,0,0
21985,-50,4,1,0,70,0,0
23651,-40,4,1,0,70,0,0
26318,-100,4,1,0,70,0,0
37318,-66.6666666666667,4,1,0,70,0,0
37651,-100,4,1,0,70,0,0
42318,-66.6666666666667,4,1,0,70,0,0
42985,-133.333333333333,4,1,0,70,0,0
43651,-28.5714285714286,4,1,0,70,0,0
46651,-66.6666666666667,4,1,0,70,0,0
94985,-222.222222222222,4,1,0,70,0,0
113651,-66.6666666666667,4,1,0,70,0,0
168318,-25,4,1,0,70,0,0
168985,-66.6666666666667,4,1,0,70,0,0

[HitObjects]
208,144,9985,5,0,0:0:0:0:
304,144,10068,5,0,0:0:0:0:
304,240,10151,5,0,0:0:0:0:
208,240,10235,5,0,0:0:0:0:
80,192,10318,6,0,L|80:96,1,70
432,192,10651,6,0,L|432:256,1,35
432,256,10818,1,0,0:0:0:0:
432,288,10901,1,0,0:0:0:0:
128,336,10985,6,0,L|128:240,1,70
384,48,11318,6,0,L|384:144,1,70
400,320,11651,6,0,L|304:320,1,70
80,122,11985,5,0,0:0:0:0:
80,122,12068,1,0,0:0:0:0:
80,122,12151,1,0,0:0:0:0:
80,122,12235,1,0,0:0:0:0:
186,368,12318,5,0,0:0:0:0:
186,368,12402,1,0,0:0:0:0:
186,368,12485,1,0,0:0:0:0:
186,368,12568,1,0,0:0:0:0:
326,16,12651,5,0,0:0:0:0:
326,16,12735,1,0,0:0:0:0:
326,16,12818,1,0,0:0:0:0:
326,16,12901,1,0,0:0:0:0:
330,320,12985,6,0,L|330:224,1,70
400,320,13235,5,0,0:0:0:0:
260,250,13318,2,2,L|356:250,1,70
182,64,13651,6,0,L|182:160,1,70
112,32,13901,5,0,0:0:0:0:
252,134,13984,2,2,L|156:134,1,70,0|0,0:0|0:0,0:0:0:0:
112,304,14318,2,0,L|112:240,1,35
112,224,14485,1,0,0:0:0:0:
112,176,14568,1,0,0:0:0:0:
112,128,14651,1,0,0:0:0:0:
256,64,14818,5,2,0:0:0:0:
400,80,14985,6,0,L|400:144,1,35
400,160,15152,1,0,0:0:0:0:
400,208,15235,1,0,0:0:0:0:
400,256,15318,1,0,0:0:0:0:
256,320,15485,5,2,0:0:0:0:
128,192,15651,6,0,P|64:256|64:272,2,70
384,192,15985,6,0,P|448:128|448:112,2,70
240,289,16318,6,0,L|256:321,1,35
272,95,16485,6,0,L|256:63,1,35
353,208,16651,6,0,L|385:192,1,35
159,176,16818,6,0,L|127:192,1,35
272,96,16985,5,0,0:0:0:0:
352,208,17151,5,0,0:0:0:0:
240,288,17318,5,0,0:0:0:0:
160,176,17485,5,0,0:0:0:0:
256,63,17651,6,0,L|288:32,2,35
256,321,17985,6,0,L|224:352,2,35
172,57,18318,5,0,0:0:0:0:
145,73,18401,1,0,0:0:0:0:
133,102,18485,1,0,0:0:0:0:
135,133,18568,1,0,0:0:0:0:
340,327,18651,5,0,0:0:0:0:
367,311,18734,1,0,0:0:0:0:
379,282,18818,1,0,0:0:0:0:
377,251,18901,1,0,0:0:0:0:
315,71,18985,5,0,0:0:0:0:
346,69,19068,1,0,0:0:0:0:
375,81,19152,1,0,0:0:0:0:
391,108,19235,1,0,0:0:0:0:
197,313,19318,5,0,0:0:0:0:
166,315,19401,1,0,0:0:0:0:
137,303,19485,1,0,0:0:0:0:
121,276,19568,1,0,0:0:0:0:
288,160,19651,5,0,0:0:0:0:
288,224,19735,5,0,0:0:0:0:
224,224,19818,5,0,0:0:0:0:
224,160,19902,5,0,0:0:0:0:
416,0,19985,6,0,B|448:48|448:48|416:128,1,105.000004005432
96,384,20318,6,0,B|64:336|64:336|96:256,1,105.000004005432
430,91,20651,5,0,0:0:0:0:
357,366,20735,5,0,0:0:0:0:
82,293,20818,5,0,0:0:0:0:
155,18,20901,5,0,0:0:0:0:
288,80,20985,6,0,P|336:48|368:64,1,70
256,224,21318,1,2,0:0:0:0:
192,128,21485,1,0,0:0:0:0:
144,240,21651,2,0,L|128:304,2,35
304,80,21985,2,0,P|368:96|400:176,1,140
144,160,22318,6,0,P|112:112|128:80,1,70
64,192,22485,1,2,0:0:0:0:
368,224,22651,6,0,P|400:272|384:304,1,70
448,192,22818,1,2,0:0:0:0:
288,80,22985,6,0,P|336:48|368:64,1,70
256,0,23152,1,2,0:0:0:0:
224,304,23318,6,0,P|176:336|144:320,1,70
256,384,23485,1,2,0:0:0:0:
288,80,23651,6,2,P|368:144|352:224,1,175
288,160,23985,1,0,0:0:0:0:
398,49,24151,1,0,0:0:0:0:
