osu file format v14

[General]
AudioFilename: audio.mp3
AudioLeadIn: 0
PreviewTime: -1
Countdown: 1
SampleSet: None
StackLeniency: 0.7
Mode: 0
LetterboxInBreaks: 0
WidescreenStoryboard: 1

[Editor]
DistanceSpacing: 0.3
BeatDivisor: 4
GridSize: 16
TimelineZoom: 2.2

[Metadata]
Title:Francium
TitleUnicode:Francium
Artist:nanahira
ArtistUnicode:ななひら
Creator:Mimasu
Version:AR 9.4
Source:
Tags:
BeatmapID:1725962
BeatmapSetID:821484

[Difficulty]
HPDrainRate:5
CircleSize:4
OverallDifficulty:9
ApproachRate:9.4
SliderMultiplier:1.4
SliderTickRate:1

[Events]
//Background and Video events
0,0,"BG.jpg",0,0
//Break Periods
2,84518,89051
//Storyboard Layer 0 (Background)
//Storyboard Layer 1 (Fail)
//Storyboard Layer 2 (Pass)
//Storyboard Layer 3 (Foreground)
//Storyboard Sound Samples

[TimingPoints]
652,333.333333333333,4,1,0,70,1,0
22651,-66.6666666666667,4,1,0,70,0,0
23651,-40,4,1,0,70,0,0
26318,-100,4,1,0,70,0,0
37318,-66.6666666666667,4,1,0,70,0,0
37651,-100,4,1,0,70,0,0
42318,-66.6666666666667,4,1,0,70,0,0
42985,-133.333333333333,4,1,0,70,0,0
43651,-28.5714285714286,4,1,0,70,0,0
46651,-66.6666666666667,4,1,0,70,0,0
94985,-222.222222222222,4,1,0,70,0,0
113651,-66.6666666666667,4,1,0,70,0,0
168318,-25,4,1,0,70,0,0
168985,-66.6666666666667,4,1,0,70,0,0

[HitObjects]
256,192,9985,5,0,0:0:0:0:
256,192,10068,1,0,0:0:0:0:
256,192,10151,1,0,0:0:0:0:
256,192,10235,1,0,0:0:0:0:
256,192,10318,1,0,0:0:0:0:
256,80,10485,1,0,0:0:0:0:
147,192,10651,2,0,L|112:192,1,35
365,192,10818,2,0,L|400:192,1,35
256,301,10985,2,0,L|256:384,1,70
256,83,11318,2,0,L|256:0,1,70
256,240,11651,6,0,L|256:320,1,70
256,192,11985,1,0,0:0:0:0:
256,176,12068,1,0,0:0:0:0:
256,160,12151,1,0,0:0:0:0:
256,144,12235,1,0,0:0:0:0:
256,128,12318,2,0,L|256:80,2,35
256,192,12568,1,0,0:0:0:0:
256,256,12651,2,0,L|256:304,2,35
256,192,12901,1,0,0:0:0:0:
320,192,12985,6,0,L|336:144,1,35
192,192,13151,2,0,L|176:144,1,35
256,96,13318,1,0,0:0:0:0:
256,288,13485,1,0,0:0:0:0:
80,112,13651,5,0,0:0:0:0:
96,112,13735,1,0,0:0:0:0:
96,128,13818,1,0,0:0:0:0:
80,128,13901,1,0,0:0:0:0:
80,112,13985,1,0,0:0:0:0:
192,128,14151,1,0,0:0:0:0:
432,272,14318,5,0,0:0:0:0:
416,272,14402,1,0,0:0:0:0:
416,256,14485,1,0,0:0:0:0:
432,256,14568,1,0,0:0:0:0:
432,272,14652,1,0,0:0:0:0:
320,256,14818,1,0,0:0:0:0:
208,144,14985,5,0,0:0:0:0:
304,144,15068,1,0,0:0:0:0:
304,240,15151,1,0,0:0:0:0:
208,240,15234,1,0,0:0:0:0:
160,192,15318,2,0,L|112:192,1,35
352,192,15485,2,0,L|400:192,1,35
256,64,15651,5,0,0:0:0:0:
272,80,15734,1,0,0:0:0:0:
256,96,15817,1,0,0:0:0:0:
240,80,15901,1,0,0:0:0:0:
256,112,15985,2,0,L|256:208,1,70
256,272,16318,2,0,L|256:202,1,70
256,192,16568,1,0,0:0:0:0:
256,192,16818,1,2,0:0:0:0:
192,128,16985,5,2,0:0:0:0:
320,128,17151,5,2,0:0:0:0:
320,256,17318,5,2,0:0:0:0:
192,256,17484,5,2,0:0:0:0:
256,80,17651,5,2,0:0:0:0:
256,80,17735,1,2,0:0:0:0:
256,80,17818,2,2,P|256:32|288:32,1,70
256,192,18068,5,2,0:0:0:0:
256,304,18151,2,2,P|256:352|224:352,1,70
256,240,18401,1,0,0:0:0:0:
256,192,18485,1,0,0:0:0:0:
256,144,18568,1,0,0:0:0:0:
256,96,18651,1,0,0:0:0:0:
256,192,18818,1,0,0:0:0:0:
192,192,18985,6,0,L|160:240,1,35
320,192,19151,2,0,L|336:224,1,35
336,288,19318,1,0,0:0:0:0:
176,96,19485,1,0,0:0:0:0:
256,192,19651,5,0,0:0:0:0:
256,192,19735,1,0,0:0:0:0:
256,192,19818,1,0,0:0:0:0:
256,192,19901,1,0,0:0:0:0:
256,192,19985,6,0,L|256:256,1,35
256,192,20151,6,0,L|256:144,1,35
256,192,20318,6,0,L|304:192,1,35
256,192,20485,6,0,L|208:192,1,35
256,64,20651,1,2,0:0:0:0:
256,352,20985,6,4,L|256:256,1,70
256,192,21318,1,0,0:0:0:0:
256,64,21485,1,0,0:0:0:0:
192,112,21651,1,0,0:0:0:0:
176,128,21735,1,0,0:0:0:0:
160,144,21818,1,0,0:0:0:0:
112,192,21985,6,0,P|112:240|144:240,1,70
256,304,22318,1,2,0:0:0:0:
256,304,22401,1,2,0:0:0:0:
256,304,22485,1,2,0:0:0:0:
400,192,22651,6,2,P|400:240|368:240,2,52.5000020027161
352,144,22985,1,2,0:0:0:0:
336,128,23068,1,2,0:0:0:0:
320,112,23152,1,2,0:0:0:0:
256,160,23318,5,2,0:0:0:0:
256,224,23401,1,2,0:0:0:0:
256,288,23485,1,2,0:0:0:0:
336,256,23651,6,0,P|368:224|352:176,2,87.5
256,352,23985,1,0,0:0:0:0:
256,240,24152,1,0,0:0:0:0:
176,256,24318,6,0,P|144:224|160:176,2,87.5
256,176,24651,1,0,0:0:0:0:
256,288,24818,1,0,0:0:0:0:
160,256,24985,1,0,0:0:0:0:
160,256,25068,1,0,0:0:0:0:
160,256,25151,1,0,0:0:0:0:
160,256,25235,1,0,0:0:0:0:
160,256,25318,1,0,0:0:0:0:
256,256,25485,1,0,0:0:0:0:
352,256,25651,1,0,0:0:0:0:
352,256,25734,1,0,0:0:0:0:
352,256,25817,1,0,0:0:0:0:
352,256,25901,1,0,0:0:0:0:
352,256,25984,1,0,0:0:0:0:
256,128,26151,1,0,0:0:0:0:
176,192,26318,6,2,P|176:240|208:272,1,70
336,192,26651,2,2,P|336:240|304:272,1,70
256,128,26985,2,2,L|256:272,1,140
192,224,27651,6,0,L|160:208,1,35
320,224,27817,2,0,L|352:208,1,35
256,144,27985,1,0,0:0:0:0:
256,240,28151,1,0,0:0:0:0:
256,96,28318,1,0,0:0:0:0:
256,288,28485,1,0,0:0:0:0:
256,64,28651,1,0,0:0:0:0:
256,320,28818,1,0,0:0:0:0:
128,192,28985,5,0,0:0:0:0:
128,192,29068,1,0,0:0:0:0:
128,192,29151,1,0,0:0:0:0:
128,192,29235,1,0,0:0:0:0:
128,192,29318,2,0,P|112:160|128:112,1,70
384,192,29651,1,0,0:0:0:0:
384,192,29734,1,0,0:0:0:0:
384,192,29817,1,0,0:0:0:0:
384,192,29901,1,0,0:0:0:0:
384,192,29984,2,0,P|400:160|384:112,1,70
128,192,30318,2,2,P|112:208|128:224,1,35
384,192,30485,2,2,P|400:208|384:224,1,35
192,128,30651,2,2,P|192:80|208:48,1,70
320,256,30985,2,2,P|320:304|304:336,1,70
256,230,31318,2,2,L|256:160,1,70
256,352,31651,5,4,0:0:0:0:
256,336,31985,5,4,0:0:0:0:
256,304,32318,5,4,0:0:0:0:
256,256,32651,5,4,0:0:0:0:
256,32,32985,5,4,0:0:0:0:
256,48,33319,5,4,0:0:0:0:
256,80,33652,5,4,0:0:0:0:
256,128,33985,5,4,0:0:0:0:
96,192,34318,6,4,L|112:192,1,8.75
160,288,34651,6,4,L|160:272,1,8.75
256,320,34985,6,4,L|256:304,1,8.75
352,279,35318,6,4,L|352:288,1,8.75
407,192,35651,6,12,L|416:192,1,8.75
256,192,35985,6,4,L|256:176,1,8.75
256,128,36318,5,0,0:0:0:0:
256,192,36485,1,0,0:0:0:0:
256,224,36569,1,0,0:0:0:0:
256,256,36652,1,0,0:0:0:0:
256,336,36819,1,0,0:0:0:0:
160,240,36985,6,0,P|128:224|144:192,1,70
352,240,37318,2,2,P|384:224|384:192,1,52.5000020027161
160,240,37485,2,2,P|128:224|128:192,1,52.5000020027161
304,288,37651,2,2,P|336:320|320:368,1,70
208,96,37985,2,2,P|176:64|192:16,1,70
256,224,38318,2,2,L|256:128,1,70
256,96,38651,5,0,0:0:0:0:
256,96,38735,1,0,0:0:0:0:
256,96,38818,1,0,0:0:0:0:
256,96,38901,1,0,0:0:0:0:
192,192,38985,5,0,0:0:0:0:
192,192,39068,1,0,0:0:0:0:
192,192,39151,1,0,0:0:0:0:
192,192,39235,1,0,0:0:0:0:
320,192,39318,5,0,0:0:0:0:
320,192,39401,1,0,0:0:0:0:
320,192,39484,1,0,0:0:0:0:
320,192,39568,1,0,0:0:0:0:
256,288,39651,1,0,0:0:0:0:
128,288,39818,5,0,0:0:0:0:
160,288,39901,1,0,0:0:0:0:
192,288,39985,1,0,0:0:0:0:
48,288,40151,1,0,0:0:0:0:
256,96,40318,1,0,0:0:0:0:
384,96,40485,5,0,0:0:0:0:
352,96,40568,1,0,0:0:0:0:
320,96,40652,1,0,0:0:0:0:
464,96,40818,1,0,0:0:0:0:
176,240,40985,1,0,0:0:0:0:
176,192,41151,5,0,0:0:0:0:
176,144,41234,1,0,0:0:0:0:
176,64,41318,1,0,0:0:0:0:
176,320,41485,1,0,0:0:0:0:
368,192,41651,6,0,L|368:128,1,35
368,192,41818,2,0,L|368:240,1,35
368,64,41985,2,0,L|368:80,1,8.75
368,320,42151,2,0,L|368:304,1,8.75
192,224,42318,6,2,L|160:176,1,52.5000020027161
240,288,42485,1,2,0:0:0:0:
320,224,42651,2,2,L|352:176,1,52.5000020027161
272,288,42818,1,2,0:0:0:0:
256,48,42985,2,2,L|256:112,1,52.5000020027161
192,240,43235,2,2,L|224:208,1,26.2500010013581
320,240,43401,2,2,L|288:208,1,26.2500010013581
384,288,43651,6,8,P|352:368|208:368,1,245.000002336502
160,320,43985,2,8,P|80:288|80:144,1,245.000002336502
128,96,44318,2,8,P|160:16|304:16,1,245.000002336502
352,64,44652,2,8,P|432:96|432:240,1,245.000002336502
433,237,44985,5,0,0:0:0:0:
433,237,45068,1,0,0:0:0:0:
433,237,45151,1,0,0:0:0:0:
304,16,45318,1,0,0:0:0:0:
304,16,45401,1,0,0:0:0:0:
304,16,45485,1,0,0:0:0:0:
80,144,45651,1,0,0:0:0:0:
80,144,45735,1,0,0:0:0:0:
80,144,45818,1,0,0:0:0:0:
208,368,45985,1,0,0:0:0:0:
208,368,46068,1,0,0:0:0:0:
208,368,46151,1,0,0:0:0:0:
256,240,46318,5,0,0:0:0:0:
256,192,46401,1,0,0:0:0:0:
256,144,46485,1,0,0:0:0:0:
192,144,46651,2,2,P|160:224|176:272,1,105.000004005432
320,240,46985,2,2,P|352:160|336:112,1,105.000004005432
256,80,47318,2,2,L|256:208,1,105.000004005432
256,304,47651,6,2,L|256:176,1,105.000004005432
256,144,48151,1,0,0:0:0:0:
80,144,48318,2,0,L|16:144,2,52.5000020027161
432,144,48651,2,0,L|496:144,2,52.5000020027161
192,208,48985,6,2,L|144:256,1,52.5000020027161
304,112,49151,1,2,0:0:0:0:
320,208,49318,2,2,L|357:245,1,52.5000020027161
208,112,49484,1,2,0:0:0:0:
192,176,49651,2,2,L|144:128,1,52.5000020027161
304,272,49817,1,2,0:0:0:0:
320,176,49984,2,2,L|357:138,1,52.5000020027161
208,272,50150,1,0,0:0:0:0:
256,80,50318,6,2,L|256:304,1,210.000008010865
256,336,50818,1,0,0:0:0:0:
256,80,50985,1,0,0:0:0:0:
256,112,51068,1,0,0:0:0:0:
256,144,51151,1,0,0:0:0:0:
144,192,51318,2,0,L|256:192,1,105.000004005432
256,304,51651,1,0,0:0:0:0:
256,272,51734,1,0,0:0:0:0:
256,240,51817,1,0,0:0:0:0:
368,192,51985,2,0,L|256:192,1,105.000004005432
256,304,52318,1,0,0:0:0:0:
144,192,52485,1,0,0:0:0:0:
256,80,52651,1,0,0:0:0:0:
368,192,52818,1,0,0:0:0:0:
144,192,52985,6,2,P|96:240|112:272,1,105.000004005432
256,80,53318,2,2,P|208:32|176:48,1,105.000004005432
368,192,53651,2,2,P|416:144|400:112,1,105.000004005432
256,304,53984,2,2,P|304:352|336:336,1,105.000004005432
405,117,54318,5,0,0:0:0:0:
405,117,54401,1,0,0:0:0:0:
405,117,54485,1,0,0:0:0:0:
405,117,54568,1,0,0:0:0:0:
405,117,54651,1,0,0:0:0:0:
181,42,54818,1,0,0:0:0:0:
106,266,54985,1,0,0:0:0:0:
330,341,55151,1,0,0:0:0:0:
405,117,55318,1,0,0:0:0:0:
256,192,55485,1,0,0:0:0:0:
176,192,55651,2,0,P|192:256|240:288,1,105.000004005432
256,288,55901,1,0,0:0:0:0:
291,280,55985,2,0,P|327:243|336:192,1,105.000004005432
176,192,56318,2,0,P|192:128|240:96,1,105.000004005432
256,96,56568,1,0,0:0:0:0:
291,103,56652,2,0,P|327:140|336:192,1,105.000004005432
176,192,56985,6,2,L|112:192,1,52.5000020027161
336,192,57151,2,2,L|400:192,1,52.5000020027161
256,256,57318,2,2,L|256:384,1,105.000004005432
256,128,57651,2,2,L|256:0,1,105.000004005432
256,64,57985,2,2,L|256:192,1,105.000004005432
256,320,58318,1,4,0:0:0:0:
256,192,62985,6,4,P|288:144|336:176,1,105.000004005432
292,261,63318,1,0,0:0:0:0:
292,261,63401,1,0,0:0:0:0:
292,261,63485,1,0,0:0:0:0:
292,261,63568,1,0,0:0:0:0:
292,261,63651,1,0,0:0:0:0:
256,192,63818,2,0,P|304:224|272:272,1,105.000004005432
186,228,64151,1,0,0:0:0:0:
256,192,64318,2,0,P|224:240|176:208,1,105.000004005432
219,122,64651,1,0,0:0:0:0:
219,122,64735,1,0,0:0:0:0:
219,122,64818,1,0,0:0:0:0:
219,122,64901,1,0,0:0:0:0:
256,192,64985,2,0,P|208:160|240:112,1,105.000004005432
256,192,65318,2,0,P|304:160|272:112,1,105.000004005432
256,192,65651,6,0,L|256:304,1,105.000004005432
256,297,65901,1,0,0:0:0:0:
256,192,65985,1,0,0:0:0:0:
256,80,66151,1,0,0:0:0:0:
256,192,66318,1,0,0:0:0:0:
64,192,66485,2,0,L|144:192,1,52.5000020027161
96,112,66651,1,0,0:0:0:0:
96,272,66818,1,0,0:0:0:0:
256,192,66985,1,0,0:0:0:0:
448,192,67152,2,0,L|368:192,1,52.5000020027161
416,112,67318,1,0,0:0:0:0:
416,272,67485,1,0,0:0:0:0:
96,112,67651,1,0,0:0:0:0:
96,112,67735,1,0,0:0:0:0:
96,112,67818,1,0,0:0:0:0:
96,112,67901,1,0,0:0:0:0:
96,112,67985,1,0,0:0:0:0:
256,192,68151,1,0,0:0:0:0:
416,272,68318,5,0,0:0:0:0:
416,272,68401,1,0,0:0:0:0:
416,272,68485,1,0,0:0:0:0:
96,272,68651,1,0,0:0:0:0:
96,272,68735,1,0,0:0:0:0:
96,272,68818,1,0,0:0:0:0:
416,112,68985,1,0,0:0:0:0:
416,112,69151,1,0,0:0:0:0:
416,112,69235,1,0,0:0:0:0:
416,112,69485,1,0,0:0:0:0:
192,128,69651,5,2,0:0:0:0:
320,128,69818,1,2,0:0:0:0:
320,256,69985,1,2,0:0:0:0:
192,256,70152,1,2,0:0:0:0:
357,90,70318,6,2,L|320:128,1,52.5000020027161
357,293,70485,6,2,L|320:256,1,52.5000020027161
154,293,70651,6,2,L|192:256,1,52.5000020027161
154,90,70818,6,2,L|192:128,1,52.5000020027161
256,192,70985,1,0,0:0:0:0:
256,192,71151,1,0,0:0:0:0:
256,192,71235,1,0,0:0:0:0:
256,192,71318,2,0,P|304:144|352:160,1,105.000004005432
335,148,71568,1,0,0:0:0:0:
335,148,71651,2,0,P|400:160|384:128,1,105.000004005432
399,161,71901,1,0,0:0:0:0:
400,160,71985,2,0,P|464:160|464:208,1,105.000004005432
256,192,72318,2,0,P|208:240|160:224,1,105.000004005432
176,235,72568,1,0,0:0:0:0:
176,235,72651,2,0,P|112:224|128:256,1,105.000004005432
112,222,72901,1,0,0:0:0:0:
112,224,72985,2,0,P|48:224|48:176,1,105.000004005432
256,80,73318,1,0,0:0:0:0:
256,256,73651,6,2,L|256:368,1,105.000004005432
256,128,74151,1,0,0:0:0:0:
192,192,74318,1,0,0:0:0:0:
192,192,74401,1,0,0:0:0:0:
192,192,74485,1,0,0:0:0:0:
320,192,74651,2,0,P|384:208|368:240,1,105.000004005432
320,192,74985,1,2,0:0:0:0:
320,192,75068,1,2,0:0:0:0:
320,192,75152,1,2,0:0:0:0:
131,158,75318,1,2,0:0:0:0:
131,158,75401,1,2,0:0:0:0:
131,158,75485,1,2,0:0:0:0:
320,192,75651,1,2,0:0:0:0:
320,192,75734,1,2,0:0:0:0:
320,192,75818,1,2,0:0:0:0:
131,225,75984,1,2,0:0:0:0:
131,225,76067,1,2,0:0:0:0:
131,225,76151,1,2,0:0:0:0:
256,336,76318,6,2,P|336:336|384:224,1,210.000008010865
256,192,76818,1,0,0:0:0:0:
256,48,76985,1,2,0:0:0:0:
256,80,77068,1,2,0:0:0:0:
256,112,77151,1,2,0:0:0:0:
176,192,77318,1,0,0:0:0:0:
336,192,77485,1,0,0:0:0:0:
256,336,77651,5,2,0:0:0:0:
256,304,77734,1,2,0:0:0:0:
256,272,77817,1,2,0:0:0:0:
256,112,77985,1,0,0:0:0:0:
336,192,78151,1,0,0:0:0:0:
256,272,78318,1,2,0:0:0:0:
176,192,78485,1,2,0:0:0:0:
256,0,78651,2,2,L|256:112,1,105.000004005432
256,384,78985,6,0,L|256:272,1,105.000004005432
448,192,79318,2,0,L|336:192,1,105.000004005432
64,192,79652,2,0,L|176:192,1,105.000004005432
256,192,79985,1,0,0:0:0:0:
176,128,80318,5,2,0:0:0:0:
176,128,80401,1,2,0:0:0:0:
176,128,80485,1,2,0:0:0:0:
176,128,80568,1,2,0:0:0:0:
176,128,80651,1,2,0:0:0:0:
256,128,80818,1,0,0:0:0:0:
336,128,80985,1,0,0:0:0:0:
176,128,81151,1,0,0:0:0:0:
336,128,81318,1,0,0:0:0:0:
176,128,81485,1,0,0:0:0:0:
256,304,81651,6,2,L|256:176,1,105.000004005432
256,144,81901,1,0,0:0:0:0:
256,80,81985,2,2,L|256:208,1,105.000004005432
256,336,82318,2,2,L|256:224,1,105.000004005432
256,176,82568,1,0,0:0:0:0:
256,48,82651,2,2,L|256:160,1,105.000004005432
160,192,82985,6,2,P|144:176|160:144,1,52.5000020027161
256,96,83151,6,2,P|272:80|304:96,1,52.5000020027161
352,192,83318,6,2,P|368:208|352:240,1,52.5000020027161
256,288,83485,6,2,P|240:304|208:288,1,52.5000020027161
256,96,83651,6,2,P|272:80|304:96,1,52.5000020027161
323,124,83818,6,2,P|346:124|357:158,1,52.5000020027161
323,259,83984,6,2,P|323:282|289:293,1,52.5000020027161
188,259,84151,6,2,P|165:259|154:225,1,52.5000020027161
256,192,84318,5,6,0:0:0:0:
256,192,89651,6,0,L|256:80,1,105.000004005432
256,128,89985,2,0,L|256:240,1,105.000004005432
256,288,90318,1,0,0:0:0:0:
256,192,90485,1,0,0:0:0:0:
256,96,90651,1,0,0:0:0:0:
80,192,90985,6,0,L|208:192,1,105.000004005432
432,192,91318,2,0,L|304:192,1,105.000004005432
176,192,91651,2,0,L|176:80,1,105.000004005432
336,192,91985,2,0,L|336:304,1,105.000004005432
176,80,92318,1,0,0:0:0:0:
432,192,92485,1,0,0:0:0:0:
80,192,92651,1,0,0:0:0:0:
336,288,92818,1,0,0:0:0:0:
144,272,92985,1,0,0:0:0:0:
256,16,93152,1,0,0:0:0:0:
256,368,93318,1,0,0:0:0:0:
352,112,93485,1,0,0:0:0:0:
256,16,93651,2,0,P|192:32|192:64,1,105.000004005432
352,112,93985,2,0,P|416:96|416:64,1,105.000004005432
80,192,94318,2,0,P|96:256|128:256,1,105.000004005432
176,96,94652,2,0,P|160:32|128:32,1,105.000004005432
256,32,94985,6,0,L|256:96,1,62.9999980773926
256,160,95485,1,0,0:0:0:0:
256,224,95651,1,0,0:0:0:0:
256,288,95818,1,0,0:0:0:0:
256,352,95985,1,0,0:0:0:0:
144,192,96318,2,0,L|176:192,1,31.4999990386963
368,192,96651,2,0,L|336:192,1,31.4999990386963
176,96,96985,1,0,0:0:0:0:
336,288,97318,1,0,0:0:0:0:
160,272,97651,2,0,L|182:249,1,31.4999990386963
352,112,97985,2,0,L|329:134,1,31.4999990386963
176,96,98318,2,0,P|176:80|192:80,1,31.4999990386963
256,192,98568,1,4,0:0:0:0:
336,288,98651,2,0,P|336:304|320:304,1,31.4999990386963
256,128,98985,2,0,L|256:96,1,31.4999990386963
256,256,99318,2,0,L|256:288,1,31.4999990386963
320,192,99651,2,0,L|352:192,1,31.4999990386963
192,192,99984,2,0,L|160:192,1,31.4999990386963
352,112,100318,6,0,L|330:135,1,31.4999990386963
160,272,100652,2,0,L|183:250,1,31.4999990386963
336,288,100985,2,0,P|336:302|322:305,1,31.4999990386963
175,95,101318,2,0,P|175:81|189:78,1,31.4999990386963
256,256,101652,2,0,L|256:288,1,31.4999990386963
256,128,101985,2,0,L|256:96,1,31.4999990386963
192,192,102318,2,0,L|160:192,1,31.4999990386963
320,192,102651,2,0,L|352:192,1,31.4999990386963
192,160,102985,6,0,L|192:192,1,31.4999990386963
320,224,103318,2,0,L|320:192,1,31.4999990386963
224,256,103651,2,0,L|256:256,1,31.4999990386963
288,128,103984,2,0,L|256:128,1,31.4999990386963
256,192,104318,2,0,L|288:192,1,31.4999990386963
256,192,104651,2,0,L|224:192,1,31.4999990386963
256,192,104985,2,0,L|256:160,1,31.4999990386963
256,192,105318,2,0,L|256:224,1,31.4999990386963
256,176,105651,6,2,L|256:144,1,31.4999990386963
256,192,105985,2,4,L|256:208,1,15.7499995193482
256,176,106151,2,0,L|256:160,1,15.7499995193482
96,112,106318,2,0,L|96:144,1,31.4999990386963
416,272,106651,2,0,L|416:240,1,31.4999990386963
256,191,106985,6,0,L|256:223,1,31.4999990386963
288,144,107318,2,0,L|304:128,1,15.7499995193482
304,224,107485,2,0,L|320:240,1,15.7499995193482
224,240,107651,2,0,L|208:256,1,15.7499995193482
208,160,107818,2,0,L|192:144,1,15.7499995193482
196,148,107985,2,0,L|208:160,1,15.7499995193482
256,192,108151,5,0,0:0:0:0:
256,192,108235,1,0,0:0:0:0:
256,144,108318,1,0,0:0:0:0:
256,96,108485,1,0,0:0:0:0:
256,96,108568,1,0,0:0:0:0:
256,96,108651,1,0,0:0:0:0:
256,256,108818,2,0,L|256:288,1,31.4999990386963
256,192,109151,1,0,0:0:0:0:
256,192,109235,1,0,0:0:0:0:
256,192,109318,1,0,0:0:0:0:
160,272,109485,1,0,0:0:0:0:
256,144,109651,6,0,L|256:112,1,31.4999990386963
256,96,109901,1,0,0:0:0:0:
256,80,109985,1,0,0:0:0:0:
256,224,110151,1,0,0:0:0:0:
352,272,110318,1,0,0:0:0:0:
352,272,110401,1,0,0:0:0:0:
352,272,110485,1,0,0:0:0:0:
352,272,110568,1,0,0:0:0:0:
352,272,110651,1,0,0:0:0:0:
256,192,110818,1,0,0:0:0:0:
208,112,110985,6,2,L|224:112,2,15.7499995193482
304,112,111318,2,2,L|288:112,2,15.7499995193482
256,176,111651,2,2,L|256:208,1,31.4999990386963
256,128,111901,1,2,0:0:0:0:
256,240,111985,1,2,0:0:0:0:
256,32,112151,1,10,0:0:0:0:
256,72,112318,6,10,L|256:64,1,8.75
256,320,112485,6,10,L|256:304,1,8.75
256,104,112651,6,10,L|256:96,1,8.75
256,279,112818,6,10,L|256:288,1,8.75
336,192,112985,6,10,L|336:176,1,8.75
336,192,113068,6,10,L|352:192,1,8.75
336,192,113151,6,10,L|320:192,1,8.75
176,192,113318,6,10,L|176:208,1,8.75
176,192,113401,6,10,L|160:192,1,8.75
176,192,113484,6,10,L|192:192,1,8.75
16,160,113651,2,2,L|16:32,1,105.000004005432
16,64,113901,1,0,0:0:0:0:
16,224,113985,2,2,L|16:336,1,105.000004005432
16,336,114235,1,0,0:0:0:0:
496,160,114318,2,2,L|496:32,1,105.000004005432
496,64,114568,1,0,0:0:0:0:
496,224,114652,2,2,L|496:336,1,105.000004005432
496,336,114902,1,0,0:0:0:0:
256,192,114985,2,2,L|256:80,1,105.000004005432
256,192,115318,2,10,L|256:304,1,105.000004005432
256,192,115651,2,10,L|144:192,1,105.000004005432
256,192,115985,2,10,L|368:192,1,105.000004005432
160,144,116318,6,4,P|160:64|176:64,1,105.000004005432
256,80,116651,1,0,0:0:0:0:
256,192,116818,1,0,0:0:0:0:
352,240,116985,1,0,0:0:0:0:
352,240,117068,1,0,0:0:0:0:
352,240,117151,1,0,0:0:0:0:
352,240,117318,2,0,P|352:320|336:320,1,105.000004005432
256,192,117651,5,0,0:0:0:0:
256,192,117735,1,0,0:0:0:0:
208,144,117818,2,2,P|160:80|144:80,1,105.000004005432
143,80,118068,1,0,0:0:0:0:
143,80,118151,2,2,P|191:144|207:144,1,105.000004005432
256,192,118401,1,0,0:0:0:0:
304,240,118485,2,2,P|352:304|368:304,1,105.000004005432
368,303,118735,1,0,0:0:0:0:
369,304,118818,2,2,P|321:240|305:240,1,105.000004005432
256,192,119318,5,0,0:0:0:0:
256,192,119485,1,0,0:0:0:0:
128,160,119651,1,2,0:0:0:0:
128,192,119735,1,2,0:0:0:0:
128,224,119818,1,2,0:0:0:0:
256,224,119985,1,0,0:0:0:0:
256,176,120151,1,0,0:0:0:0:
384,160,120318,1,2,0:0:0:0:
384,176,120401,1,2,0:0:0:0:
384,192,120484,1,2,0:0:0:0:
384,208,120568,1,2,0:0:0:0:
384,224,120651,1,2,0:0:0:0:
256,320,120818,1,0,0:0:0:0:
320,128,120985,1,2,0:0:0:0:
320,128,121068,1,2,0:0:0:0:
320,256,121151,1,2,0:0:0:0:
192,256,121318,1,0,0:0:0:0:
192,128,121485,1,0,0:0:0:0:
352,240,121651,6,0,P|400:208|400:160,1,105.000004005432
160,144,121985,2,0,P|112:176|112:224,1,105.000004005432
208,288,122318,2,0,P|240:336|288:336,1,105.000004005432
304,96,122652,2,0,P|272:48|224:48,1,105.000004005432
283,337,122985,5,2,0:0:0:0:
288,336,123068,1,2,0:0:0:0:
288,336,123151,1,2,0:0:0:0:
288,336,123235,1,2,0:0:0:0:
288,336,123318,1,2,0:0:0:0:
110,219,123485,1,0,0:0:0:0:
401,164,123651,1,0,0:0:0:0:
208,288,123818,1,0,0:0:0:0:
228,46,123985,1,0,0:0:0:0:
352,240,124151,1,0,0:0:0:0:
208,288,124318,6,2,P|144:288|112:240,1,105.000004005432
112,240,124568,1,0,0:0:0:0:
352,240,124651,2,2,P|352:304|304:336,1,105.000004005432
304,96,124985,2,2,P|368:96|400:144,1,105.000004005432
400,144,125235,1,0,0:0:0:0:
160,144,125318,2,2,P|160:80|208:48,1,105.000004005432
288,160,125651,6,2,P|320:208|304:224,1,52.5000020027161
224,224,125818,2,2,P|192:176|208:160,1,52.5000020027161
368,128,125985,2,2,P|400:176|384:224,1,105.000004005432
144,256,126318,2,2,P|112:208|128:160,1,105.000004005432
416,80,126651,2,2,P|448:128|448:192,1,105.000004005432
256,272,126985,2,6,B|256:208|256:208|240:192|240:192|272:192|272:192|256:192|256:160|256:160|256:80,1,210.000008010865
256,112,127485,5,0,0:0:0:0:
128,128,127651,1,0,0:0:0:0:
128,128,127735,1,0,0:0:0:0:
128,128,127818,1,0,0:0:0:0:
128,233,127985,2,0,L|128:128,1,105.000004005432
384,128,128318,5,0,0:0:0:0:
384,128,128402,1,0,0:0:0:0:
384,128,128485,1,0,0:0:0:0:
384,233,128652,2,2,L|384:128,1,105.000004005432
297,64,128985,2,2,L|192:64,1,105.000004005432
215,320,129318,2,2,L|320:320,1,105.000004005432
352,96,129651,5,0,0:0:0:0:
160,288,129985,1,0,0:0:0:0:
160,288,130151,1,0,0:0:0:0:
160,96,130318,1,2,0:0:0:0:
160,96,130401,1,2,0:0:0:0:
160,96,130485,1,2,0:0:0:0:
352,288,130651,1,0,0:0:0:0:
256,192,130818,1,0,0:0:0:0:
256,32,130985,1,2,0:0:0:0:
256,48,131068,1,2,0:0:0:0:
256,64,131151,2,2,L|256:176,1,105.000004005432
256,192,131485,1,0,0:0:0:0:
256,352,131651,1,2,0:0:0:0:
256,336,131734,1,2,0:0:0:0:
256,320,131817,2,2,L|256:208,1,105.000004005432
256,192,132151,1,0,0:0:0:0:
304,128,132318,6,0,P|320:208|320:256,1,105.000004005432
208,128,132651,2,0,P|192:208|192:256,1,105.000004005432
352,256,132985,2,0,P|368:176|368:128,1,105.000004005432
160,256,133318,2,0,P|144:176|144:128,1,105.000004005432
320,224,133651,5,0,0:0:0:0:
320,224,133735,1,0,0:0:0:0:
320,224,133818,1,0,0:0:0:0:
320,224,133901,1,0,0:0:0:0:
320,224,133985,1,0,0:0:0:0:
208,128,134151,1,0,0:0:0:0:
304,128,134318,1,0,0:0:0:0:
160,256,134485,1,0,0:0:0:0:
352,256,134651,1,0,0:0:0:0:
144,144,134818,1,0,0:0:0:0:
320,192,134985,6,2,P|384:224|384:256,1,105.000004005432
368,272,135235,1,0,0:0:0:0:
336,288,135318,2,2,B|240:288|240:288|224:256,1,105.000004005432
192,192,135651,6,2,P|142:201|126:249,1,105.000004005432
144,272,135901,1,0,0:0:0:0:
176,288,135984,2,2,B|272:288|272:288|276:279,1,105.000004005432
320,112,136318,6,2,P|352:160|336:176,1,52.5000020027161
192,272,136485,2,2,P|160:224|176:208,1,52.5000020027161
352,64,136651,2,2,P|400:128|400:176,1,105.000004005432
160,320,136985,2,2,P|112:256|112:208,1,105.000004005432
256,32,137318,2,2,L|256:160,1,105.000004005432
256,208,137651,5,4,0:0:0:0:
256,224,137985,5,4,0:0:0:0:
256,256,138318,5,4,0:0:0:0:
256,272,138485,5,4,0:0:0:0:
256,288,138651,5,4,0:0:0:0:
256,304,138818,5,4,0:0:0:0:
256,320,138985,5,4,0:0:0:0:
256,336,139151,5,4,0:0:0:0:
256,352,139318,5,4,0:0:0:0:
256,192,139485,5,4,0:0:0:0:
176,320,139651,6,6,L|144:336,1,26.2500010013581
128,112,139735,6,6,L|112:80,1,26.2500010013581
336,64,139818,6,6,L|368:48,1,26.2500010013581
384,272,139901,6,6,L|400:304,1,26.2500010013581
256,64,139985,5,6,0:0:0:0:
256,64,140068,5,6,0:0:0:0:
256,64,140151,5,6,0:0:0:0:
256,64,140235,5,6,0:0:0:0:
256,64,140318,5,6,0:0:0:0:
256,80,140651,5,0,0:0:0:0:
256,112,140985,5,0,0:0:0:0:
256,160,141318,5,0,0:0:0:0:
256,192,141651,6,4,B|240:240|240:240|256:240|252:236|252:236|256:320,1,105.000004005432
256,112,141985,1,0,0:0:0:0:
256,272,142151,1,0,0:0:0:0:
128,192,142318,1,0,0:0:0:0:
128,192,142401,1,0,0:0:0:0:
128,192,142485,1,0,0:0:0:0:
384,192,142651,2,0,L|304:192,1,52.5000020027161
128,192,142985,6,2,L|208:192,1,52.5000020027161
256,192,143151,1,0,0:0:0:0:
384,192,143318,1,2,0:0:0:0:
384,192,143401,1,2,0:0:0:0:
384,192,143485,2,2,L|272:192,1,105.000004005432
128,192,143735,1,2,0:0:0:0:
128,192,143818,1,2,0:0:0:0:
128,192,143901,1,2,0:0:0:0:
128,192,143985,2,0,L|240:192,1,105.000004005432,2|0,0:0|0:0,0:0:0:0:
256,144,144318,6,0,L|256:272,1,105.000004005432
160,192,144651,1,0,0:0:0:0:
352,192,144818,1,0,0:0:0:0:
112,128,144985,1,2,0:0:0:0:
112,128,145068,1,2,0:0:0:0:
112,128,145151,1,2,0:0:0:0:
320,48,145318,1,0,0:0:0:0:
400,256,145485,1,0,0:0:0:0:
192,336,145651,1,2,0:0:0:0:
192,336,145735,1,2,0:0:0:0:
192,336,145818,1,2,0:0:0:0:
192,336,145901,1,2,0:0:0:0:
192,336,145985,1,2,0:0:0:0:
128,192,146151,1,0,0:0:0:0:
320,288,146318,5,2,0:0:0:0:
320,288,146401,1,2,0:0:0:0:
320,288,146485,1,2,0:0:0:0:
256,144,146651,5,0,0:0:0:0:
192,336,146818,1,0,0:0:0:0:
256,96,146985,1,0,0:0:0:0:
256,64,147151,1,0,0:0:0:0:
256,48,147234,1,0,0:0:0:0:
256,32,147318,1,0,0:0:0:0:
256,128,147485,1,0,0:0:0:0:
192,144,147651,6,0,L|192:256,1,105.000004005432
320,144,147985,2,0,L|320:256,1,105.000004005432
128,192,148318,6,2,L|160:240,1,52.5000020027161
384,192,148485,2,2,L|352:144,1,52.5000020027161
256,64,148651,2,2,L|160:128,1,105.000004005432
256,320,148985,2,2,L|352:256,1,105.000004005432
256,64,149318,2,2,L|256:176,1,105.000004005432
256,320,149651,6,2,L|256:192,1,105.000004005432
256,192,149901,1,0,0:0:0:0:
256,160,149985,2,2,L|256:272,1,105.000004005432
256,64,150318,2,2,L|256:192,1,105.000004005432
256,192,150568,1,0,0:0:0:0:
256,224,150652,2,2,L|256:112,1,105.000004005432
144,224,150985,6,2,L|144:160,1,52.5000020027161
368,160,151151,2,2,L|368:224,1,52.5000020027161
304,256,151318,2,2,B|256:288|256:288|208:256,1,105.000004005432
208,128,151651,2,2,B|256:96|256:96|304:128,1,105.000004005432
304,256,151985,1,0,0:0:0:0:
144,171,152151,1,0,0:0:0:0:
368,160,152318,1,4,0:0:0:0:
208,128,152485,1,0,0:0:0:0:
144,224,152651,1,2,0:0:0:0:
144,224,152735,1,2,0:0:0:0:
144,224,152818,1,2,0:0:0:0:
144,224,152901,1,2,0:0:0:0:
256,80,152985,2,2,L|256:192,1,105.000004005432
256,237,153318,2,2,L|256:173,1,52.5000020027161
256,160,153485,1,2,0:0:0:0:
256,336,153651,6,2,L|256:192,1,105.000004005432
352,112,153985,2,2,L|384:176,1,52.5000020027161
160,272,154151,2,2,L|128:208,1,52.5000020027161
376,159,154318,2,2,L|443:142,1,52.5000020027161
223,72,154485,2,2,L|206:5,1,52.5000020027161
289,312,154651,2,2,L|306:379,1,52.5000020027161
136,225,154818,2,2,L|69:242,1,52.5000020027161
210,21,154985,1,0,0:0:0:0:
160,272,155151,5,2,0:0:0:0:
160,288,155235,1,2,0:0:0:0:
160,304,155318,1,2,0:0:0:0:
426,146,155485,1,0,0:0:0:0:
85,237,155651,1,0,0:0:0:0:
352,112,155818,5,2,0:0:0:0:
352,96,155901,1,2,0:0:0:0:
352,80,155985,1,2,0:0:0:0:
301,362,156151,1,0,0:0:0:0:
136,225,156318,1,0,0:0:0:0:
376,159,156485,5,2,0:0:0:0:
376,178,156568,1,2,0:0:0:0:
376,193,156651,1,2,0:0:0:0:
223,72,156818,1,0,0:0:0:0:
136,225,156985,5,2,0:0:0:0:
136,209,157068,1,2,0:0:0:0:
137,193,157151,1,2,0:0:0:0:
137,175,157235,1,2,0:0:0:0:
137,159,157318,1,2,0:0:0:0:
289,312,157485,5,0,0:0:0:0:
289,312,157568,1,0,0:0:0:0:
193,115,157651,2,0,L|225:67,1,52.5000020027161
319,269,157818,2,0,L|287:317,1,52.5000020027161
179,255,157985,2,0,L|96:192,1,105.000004005432
333,129,158318,2,0,L|416:192,1,105.000004005432
256,336,158651,5,0,0:0:0:0:
256,256,158735,1,0,0:0:0:0:
256,176,158818,1,0,0:0:0:0:
256,96,158901,1,0,0:0:0:0:
256,16,158985,1,4,0:0:0:0:
144,144,159151,5,0,0:0:0:0:
304,80,159318,1,0,0:0:0:0:
368,240,159485,1,0,0:0:0:0:
208,304,159651,1,0,0:0:0:0:
208,304,159735,1,0,0:0:0:0:
208,304,159818,2,0,P|160:336|160:352,1,52.5000020027161
368,240,159985,1,0,0:0:0:0:
368,240,160069,1,0,0:0:0:0:
368,240,160152,2,0,P|400:288|416:288,1,52.5000020027161
304,80,160318,5,0,0:0:0:0:
240,112,160401,1,0,0:0:0:0:
176,144,160485,1,0,0:0:0:0:
112,176,160568,1,0,0:0:0:0:
80,112,160651,5,0,0:0:0:0:
112,176,160735,1,0,0:0:0:0:
144,240,160818,1,0,0:0:0:0:
176,304,160901,1,0,0:0:0:0:
112,336,160985,5,0,0:0:0:0:
176,304,161068,1,0,0:0:0:0:
240,272,161151,1,0,0:0:0:0:
304,240,161235,1,0,0:0:0:0:
336,304,161318,5,0,0:0:0:0:
304,240,161401,1,0,0:0:0:0:
272,176,161485,1,0,0:0:0:0:
240,112,161568,1,0,0:0:0:0:
176,144,161651,5,0,0:0:0:0:
240,112,161735,1,0,0:0:0:0:
304,80,161818,1,0,0:0:0:0:
368,48,161901,1,0,0:0:0:0:
176,144,161985,6,2,P|112:128|112:80,1,105.000004005432
336,240,162318,2,2,P|400:256|400:304,1,105.000004005432
105,97,162651,1,2,0:0:0:0:
256,192,162985,2,4,P|320:192|320:224,1,105.000004005432
322,217,163318,1,0,0:0:0:0:
230,258,163485,1,0,0:0:0:0:
189,166,163651,5,0,0:0:0:0:
189,166,163735,1,0,0:0:0:0:
189,166,163818,1,0,0:0:0:0:
281,125,163985,2,0,P|238:147|256:192,1,105.000004005432
384,304,164318,5,2,0:0:0:0:
384,240,164401,1,2,0:0:0:0:
384,176,164485,1,2,0:0:0:0:
128,80,164651,1,2,0:0:0:0:
128,144,164734,1,2,0:0:0:0:
128,208,164818,1,2,0:0:0:0:
464,336,164985,1,2,0:0:0:0:
464,240,165068,1,2,0:0:0:0:
464,144,165151,1,2,0:0:0:0:
48,48,165318,1,2,0:0:0:0:
48,144,165401,1,2,0:0:0:0:
48,240,165484,1,2,0:0:0:0:
144,304,165568,1,2,0:0:0:0:
256,336,165651,6,0,L|256:224,1,105.000004005432
464,240,165985,1,0,0:0:0:0:
48,144,166151,1,0,0:0:0:0:
200,358,166318,5,0,0:0:0:0:
256,302,166401,1,0,0:0:0:0:
311,247,166485,1,0,0:0:0:0:
366,192,166568,1,0,0:0:0:0:
422,247,166651,5,0,0:0:0:0:
366,192,166735,1,0,0:0:0:0:
311,136,166818,1,0,0:0:0:0:
256,81,166901,1,0,0:0:0:0:
311,25,166985,5,0,0:0:0:0:
256,81,167068,1,0,0:0:0:0:
200,136,167151,1,0,0:0:0:0:
145,192,167235,1,0,0:0:0:0:
89,136,167318,5,0,0:0:0:0:
145,192,167401,1,0,0:0:0:0:
200,247,167485,1,0,0:0:0:0:
256,302,167568,1,0,0:0:0:0:
192,352,167651,5,0,0:0:0:0:
256,304,167735,1,0,0:0:0:0:
320,256,167818,1,0,0:0:0:0:
256,368,167985,5,4,0:0:0:0:
256,304,168068,1,4,0:0:0:0:
256,224,168151,1,4,0:0:0:0:
256,128,168235,1,4,0:0:0:0:
80,112,168318,6,0,B|32:272|32:272|160:336,1,280
432,272,168651,2,0,B|480:112|480:112|352:48,1,280
144,144,168985,2,0,P|144:224|256:288,1,210.000008010865
352,96,169651,6,2,L|304:48,1,52.5000020027161
160,288,169818,2,2,L|208:336,1,52.5000020027161
352,288,169985,2,2,L|432:208,1,105.000004005432
160,96,170318,2,2,L|80:176,1,105.000004005432
314,58,170651,5,2,0:0:0:0:
352,288,170818,1,2,0:0:0:0:
85,170,170985,1,0,0:0:0:0:
426,213,171151,1,0,0:0:0:0:
197,325,171318,1,0,0:0:0:0:
352,96,171485,1,0,0:0:0:0:
256,352,171651,1,0,0:0:0:0:
256,32,171818,1,0,0:0:0:0:
352,288,171985,1,0,0:0:0:0:
160,96,172151,1,0,0:0:0:0:
416,224,172318,6,2,P|416:160|400:160,1,52.5000020027161
96,160,172485,2,2,P|96:224|112:224,1,52.5000020027161
224,352,172651,2,2,B|288:368|288:368|320:320,1,105.000004005432
288,32,172985,2,2,B|224:16|224:16|192:64,1,105.000004005432
309,335,173318,1,2,0:0:0:0:
202,48,173485,1,2,0:0:0:0:
