osu file format v14

[General]
AudioFilename: audio.mp3
AudioLeadIn: 0
PreviewTime: 54730
Countdown: 0
SampleSet: Soft
StackLeniency: 0.3
Mode: 0
LetterboxInBreaks: 0
WidescreenStoryboard: 1

[Editor]
Bookmarks: 200516,203213
DistanceSpacing: 1.2
BeatDivisor: 4
GridSize: 8
TimelineZoom: 1

[Metadata]
Title:chameleon
TitleUnicode:chameleon
Artist:nana(Sevencolors)
ArtistUnicode:nana(Sevencolors)
Creator:RVMathew
Version:Normal
Source:
Tags:Renumi 鹿乃 Kano 有坂あこ Arisaka Aco TechnoBreakerz Techno Breakerz feat. featuring 初音ミク Hatsune Miku Append Sweet Dance VOCALOMUSIC ★ Volume Vol. 02 -Funky Drum'n'Bass- and & DnB Works 2010-2011 Best Vocaloid Pop Electronic Japanese
BeatmapID:2197449
BeatmapSetID:1046876

[Difficulty]
HPDrainRate:4
CircleSize:3
OverallDifficulty:4
ApproachRate:5
SliderMultiplier:1
SliderTickRate:1

[Events]
//Background and Video events
0,0,"stretched-1920-1080-689941.jpg",0,0
//Break Periods
2,76471,86058
2,130604,137294
//Storyboard Layer 0 (Background)
//Storyboard Layer 1 (Fail)
//Storyboard Layer 2 (Pass)
//Storyboard Layer 3 (Foreground)
//Storyboard Layer 4 (Overlay)
//Storyboard Sound Samples

[TimingPoints]
966,337.078651685393,4,2,1,60,1,0
22539,-100,4,2,2,60,0,0
22623,-100,4,2,1,60,0,0
33325,-100,4,2,2,60,0,0
33409,-100,4,2,1,60,0,0
43100,-100,4,2,1,30,0,0
43185,-100,4,2,1,32,0,0
43269,-100,4,2,1,36,0,0
43353,-100,4,2,1,38,0,0
43437,-100,4,2,1,40,0,0
43522,-100,4,2,1,42,0,0
43606,-100,4,2,1,46,0,0
43690,-100,4,2,1,48,0,0
43774,-100,4,2,1,54,0,0
43859,-100,4,2,1,52,0,0
43943,-100,4,2,1,50,0,0
44027,-100,4,2,1,48,0,0
44112,-100,4,2,1,60,0,0
44449,-100,4,2,3,60,0,0
44533,-100,4,2,1,60,0,0
49842,-100,4,2,3,60,0,0
49926,-100,4,2,1,60,0,0
52201,-100,4,2,1,60,0,0
52539,-100,4,2,3,60,0,0
52623,-100,4,2,1,60,0,0
53044,-100,4,2,1,60,0,0
53550,-100,4,2,1,60,0,0
54224,-100,4,2,1,30,0,0
54308,-100,4,2,1,34,0,0
54392,-100,4,2,1,38,0,0
54477,-100,4,2,1,42,0,0
54561,-100,4,2,1,46,0,0
54730,-100,4,2,1,30,0,0
54898,-100,4,2,1,60,0,1
60291,-100,4,2,2,60,0,1
62988,-100,4,2,1,60,0,1
65516,-100,4,2,1,60,0,0
65685,-100,4,2,1,60,0,1
71078,-100,4,2,2,60,0,1
73774,-100,4,2,1,60,0,1
75797,-100,4,2,1,60,0,1
75881,-100,4,2,1,60,0,1
75965,-100,4,2,1,60,0,1
76050,-100,4,2,1,60,0,1
76134,-100,4,2,1,60,0,1
76218,-100,4,2,1,60,0,1
76303,-100,4,2,1,60,0,1
76387,-100,4,2,1,60,0,1
76471,-100,4,2,1,60,0,0
87258,-100,4,2,1,60,0,0
88943,-100,4,2,3,60,0,0
89027,-100,4,2,1,60,0,0
94336,-100,4,2,3,60,0,0
94421,-100,4,2,1,60,0,0
96949,-100,4,2,1,30,0,0
97033,-100,4,2,1,34,0,0
97117,-100,4,2,1,36,0,0
97201,-100,4,2,1,40,0,0
97286,-100,4,2,1,42,0,0
97370,-100,4,2,1,44,0,0
97454,-100,4,2,1,42,0,0
97539,-100,4,2,1,40,0,0
97623,-100,4,2,1,38,0,0
97707,-100,4,2,1,42,0,0
97791,-100,4,2,1,38,0,0
97876,-100,4,2,1,36,0,0
97960,-100,4,2,1,34,0,0
98044,-100,4,2,1,60,0,0
105965,-100,4,2,1,60,0,0
106471,-100,4,2,3,60,0,0
106555,-100,4,2,1,60,0,0
107145,-100,4,2,3,60,0,0
107230,-100,4,2,1,60,0,0
107482,-100,4,2,1,60,0,0
107567,-100,4,2,1,49,0,0
107651,-100,4,2,1,38,0,0
107735,-100,4,2,1,25,0,0
107819,-100,4,2,1,25,0,0
108157,-100,4,2,1,15,0,0
108241,-100,4,2,1,26,0,0
108325,-100,4,2,1,38,0,0
108409,-100,4,2,1,49,0,0
108494,-100,4,2,1,60,0,0
108831,-100,4,2,1,60,0,0
129055,-100,4,2,1,30,0,0
129140,-100,4,2,1,32,0,0
129224,-100,4,2,1,36,0,0
129392,-100,4,2,1,38,0,0
129477,-100,4,2,1,40,0,0
129561,-100,4,2,1,44,0,0
129645,-100,4,2,1,46,0,0
129730,-100,4,2,1,50,0,0
129814,-100,4,2,1,54,0,0
129898,-100,4,2,1,58,0,0
129982,-100,4,2,1,60,0,0
130067,-100,4,2,1,64,0,0
130151,-100,4,2,1,60,0,0
130235,-100,4,2,1,54,0,0
130319,-100,4,2,1,50,0,0
130404,-100,4,2,1,60,0,0
138494,-100,4,2,1,60,0,0
138831,-100,4,2,3,60,0,0
138915,-100,4,2,1,60,0,0
139336,-100,4,2,1,60,0,0
140516,-100,4,2,1,30,0,0
140600,-100,4,2,1,34,0,0
140685,-100,4,2,1,38,0,0
140769,-100,4,2,1,42,0,0
140853,-100,4,2,1,46,0,0
141022,-100,4,2,1,30,0,0
141190,-100,4,2,1,60,0,1
146583,-100,4,2,2,60,0,1
149280,-100,4,2,1,60,0,1
151808,-100,4,2,1,60,0,0
151977,-100,4,2,1,60,0,1
157370,-100,4,2,2,60,0,1
160067,-100,4,2,1,60,0,1
162089,-100,4,2,1,60,0,1
162173,-100,4,2,1,60,0,1
162258,-100,4,2,1,60,0,1
162342,-100,4,2,1,60,0,1
162426,-100,4,2,1,60,0,1
162510,-100,4,2,1,60,0,1
162595,-100,4,2,1,60,0,0
162679,-100,4,2,1,60,0,0
162763,-100,4,2,1,60,0,1
168157,-100,4,2,2,60,0,1
170853,-100,4,2,1,60,0,1
173381,-100,4,2,1,60,0,0
173550,-100,4,2,1,60,0,1
178943,-100,4,2,2,60,0,1
181640,-100,4,2,1,60,0,1
183662,-100,4,2,1,60,0,1
183746,-100,4,2,1,60,0,1
183831,-100,4,2,1,60,0,1
183915,-100,4,2,1,60,0,1
183999,-100,4,2,1,60,0,1
184083,-100,4,2,1,60,0,1
184168,-100,4,2,1,60,0,1
184252,-100,4,2,1,60,0,1
184336,-100,4,2,1,60,0,0
193943,-100,4,2,1,60,0,0
194027,-100,4,2,1,60,0,0
194112,-100,4,2,1,60,0,0
194196,-100,4,2,1,60,0,0
194280,-100,4,2,1,60,0,0
194364,-100,4,2,1,60,0,0
194449,-100,4,2,1,60,0,0
194533,-100,4,2,1,60,0,0
194617,-100,4,2,1,60,0,0
194701,-100,4,2,1,60,0,0
194786,-100,4,2,1,60,0,0
194954,-100,4,2,1,60,0,0
195123,-100,4,2,1,60,0,0
195207,-100,4,2,1,60,0,0
195460,-100,4,2,1,50,0,0
200516,-100,4,2,1,40,0,0
203213,-100,4,2,1,30,0,0
204898,-100,4,2,1,15,0,0
205235,-100,4,2,1,10,0,0

[Colours]
Combo1 : 255,255,0
Combo2 : 111,111,111
Combo3 : 255,0,128
Combo4 : 128,0,255
Combo5 : 0,255,255
Combo6 : 183,183,183

[HitObjects]
256,192,19842,12,0,21864,0:0:0:0:
0,192,22539,6,0,L|114:192,1,100,6|2,0:0|0:3,0:0:0:0:
210,192,23213,2,0,L|276:192,1,50,0|2,0:0|0:3,0:0:0:0:
367,235,23718,1,2,0:3:0:0:
367,235,23887,2,0,P|377:282|365:331,1,100,2|0,0:0|0:0,0:0:0:0:
316,357,24392,2,0,P|269:367|220:355,1,100,2|0,0:0|0:0,0:0:0:0:
170,330,24898,1,2,0:0:0:0:
76,272,25235,6,0,L|76:171,1,100,2|2,0:0|0:3,0:0:0:0:
76,62,25909,2,0,L|132:62,1,50,0|2,0:0|0:3,0:0:0:0:
240,66,26415,1,2,0:3:0:0:
240,66,26583,2,0,P|264:114|251:169,1,100,2|0,0:0|0:0,0:0:0:0:
230,206,27089,2,0,P|279:201|335:236,1,100,2|0,0:0|0:0,0:0:0:0:
355,268,27595,1,2,0:0:0:0:
454,221,27932,6,0,L|454:118,1,100,2|2,0:0|0:3,0:0:0:0:
454,11,28606,2,0,L|382:11,1,50,0|2,0:0|0:3,0:0:0:0:
324,86,29112,5,2,0:3:0:0:
324,86,29280,2,0,P|277:71|226:87,1,100,2|0,0:0|0:0,0:0:0:0:
193,126,29786,2,0,P|145:112|98:127,1,100,2|0,0:0|0:0,0:0:0:0:
55,161,30291,1,2,0:0:0:0:
73,269,30628,6,0,B|119:292|119:292|180:281,1,100,2|2,0:0|0:3,0:0:0:0:
259,223,31303,2,0,L|251:159,2,50,2|2|0,0:0|0:0|0:0,0:0:0:0:
286,330,31977,2,0,P|334:338|391:319,1,100,2|0,0:0|0:0,0:0:0:0:
396,271,32482,2,0,L|385:169,1,100,2|0,0:0|0:0,0:0:0:0:
354,126,32988,1,2,0:0:0:0:
393,23,33325,6,0,P|442:14|493:48,1,100,6|10,1:2|0:0,0:0:0:0:
511,91,33831,1,2,0:0:0:0:
511,91,33999,2,0,L|505:153,1,50,0|2,0:0|1:2,0:0:0:0:
414,199,34505,1,2,0:0:0:0:
414,199,34673,2,0,L|434:310,1,100,2|10,1:0|0:0,0:0:0:0:
444,351,35179,2,0,P|399:373|349:369,1,100,2|2,0:1|1:2,0:0:0:0:
303,341,35685,1,10,0:1:0:0:
214,275,36022,6,0,L|213:162,1,100,2|10,1:3|0:0,0:0:0:0:
252,136,36527,1,2,0:0:0:0:
252,136,36696,2,0,L|252:66,1,50,0|2,0:0|1:2,0:0:0:0:
162,33,37201,1,2,0:0:0:0:
162,33,37370,2,0,L|62:33,1,100,2|10,1:0|0:0,0:0:0:0:
19,67,37876,2,0,P|1:112|14:162,1,100,2|2,0:1|1:2,0:0:0:0:
48,203,38381,1,10,0:1:0:0:
15,308,38718,6,0,P|66:294|127:315,1,100,2|10,1:3|0:0,0:0:0:0:
156,345,39224,1,2,0:0:0:0:
156,345,39392,2,0,L|215:345,1,50,0|2,0:0|1:2,0:0:0:0:
299,284,39898,1,2,0:0:0:0:
299,284,40067,2,0,P|312:232|294:184,1,100,2|10,1:0|0:0,0:0:0:0:
264,146,40572,2,0,P|319:157|369:136,1,100,2|2,0:1|1:2,0:0:0:0:
403,109,41078,1,10,0:1:0:0:
500,160,41415,6,0,P|515:217|506:279,1,100,2|10,1:3|0:0,0:0:0:0:
454,351,42089,2,0,P|423:345|396:349,1,50,2|2,0:3|1:3,0:0:0:0:
356,367,42426,1,8,0:0:0:0:
356,367,42595,2,0,B|254:367,1,100,2|2,1:3|1:0,0:0:0:0:
200,272,43269,2,0,B|304:272,1,100,2|2,1:0|1:0,0:0:0:0:
292,107,44112,6,0,P|354:81|451:107,2,150,6|2|10,1:2|0:0|0:0,0:0:0:0:
210,181,45460,1,2,1:3:0:0:
320,216,45797,1,8,0:0:0:0:
320,216,45965,2,0,P|376:231|431:216,1,100,2|2,0:0|1:2,0:0:0:0:
417,58,46808,6,0,P|468:50|521:77,2,100,2|8|2,1:2|0:0|0:3,0:0:0:0:
367,81,47651,1,2,1:3:0:0:
267,48,47988,1,0,0:0:0:0:
267,48,48157,2,0,P|220:33|165:48,1,100,2|8,1:2|0:0,0:0:0:0:
139,88,48662,2,0,P|41:87|-4:123,1,150,2|8,0:0|0:0,0:0:0:0:
90,195,49505,6,0,B|77:278|77:278|117:342,2,150,6|2|10,1:2|0:0|0:0,0:0:0:0:
106,86,50853,1,2,1:3:0:0:
205,35,51190,1,8,0:0:0:0:
205,35,51359,2,0,P|251:24|307:35,1,100,2|2,0:0|1:2,0:0:0:0:
418,150,52201,6,0,P|429:248|377:331,1,200,2|0,1:2|1:0,0:0:0:0:
329,357,53044,2,0,B|281:342|281:342|216:356,1,100,2|2,0:0|0:0,0:0:0:0:
179,367,53550,1,2,1:2:0:0:
138,271,53887,1,2,1:2:0:0:
138,271,54055,1,2,1:2:0:0:
278,101,54730,1,2,3:2:0:0:
278,101,54898,6,0,P|224:115|164:101,1,100,6|10,1:3|0:0,0:0:0:0:
96,38,55572,2,0,P|46:31|0:45,1,100,2|10,0:0|1:2,0:0:0:0:
53,140,56246,2,0,L|39:244,1,100,2|10,1:0|0:1,0:0:0:0:
29,293,56752,1,2,0:0:0:0:
136,319,57089,2,0,L|130:369,2,50,2|8|2,0:3|0:0|0:0,0:0:0:0:
165,272,57595,6,0,P|218:266|265:289,1,100,6|10,1:3|0:0,0:0:0:0:
361,326,58269,2,0,L|351:218,1,100,2|10,0:0|1:2,0:0:0:0:
266,157,58943,2,0,P|264:111|307:54,1,100,2|10,1:2|0:0,0:0:0:0:
332,29,59449,1,2,0:3:0:0:
431,76,59786,2,0,L|446:24,2,50,2|10|2,0:3|0:0|0:0,0:0:0:0:
414,128,60291,6,0,P|398:179|423:231,1,100,2|10,1:2|0:0,0:0:0:0:
439,270,60797,2,0,P|389:253|335:268,1,100,2|2,0:0|0:3,0:0:0:0:
298,293,61303,1,10,0:0:0:0:
243,204,61640,1,2,1:2:0:0:
243,204,61808,2,0,P|256:152|238:100,1,100,2|2,1:2|0:3,0:0:0:0:
208,66,62314,2,0,P|163:56|106:72,1,100,2|8,0:0|0:0,0:0:0:0:
47,158,62988,6,0,P|15:152|-7:159,2,50,2|2|10,1:2|1:2|0:1,0:0:0:0:
97,193,63494,1,0,0:0:0:0:
97,193,63662,2,0,L|113:301,1,100,2|8,0:0|0:1,0:0:0:0:
217,322,64336,2,0,L|203:229,2,75,2|0|2,1:2|0:0|0:3,0:0:0:0:
269,340,65010,1,2,0:0:0:0:
432,299,65516,1,2,0:0:0:0:
432,299,65685,6,0,P|451:250|442:193,1,100,6|10,1:3|0:0,0:0:0:0:
415,98,66359,2,0,P|366:79|309:88,1,100,2|10,0:0|1:2,0:0:0:0:
221,133,67033,2,0,P|208:156|216:233,1,100,2|10,1:0|0:1,0:0:0:0:
244,273,67539,1,2,0:0:0:0:
348,310,67876,2,0,L|343:363,2,50,2|8|2,0:3|0:0|0:0,0:0:0:0:
374,262,68381,6,0,L|362:160,1,100,6|10,1:3|0:0,0:0:0:0:
465,124,69055,2,0,L|477:223,1,100,2|10,0:0|1:2,0:0:0:0:
374,262,69730,2,0,L|276:282,1,100,2|10,1:2|0:0,0:0:0:0:
223,295,70235,1,2,0:3:0:0:
162,203,70572,2,0,P|142:211|112:211,2,50,2|10|2,0:3|0:0|0:0,0:0:0:0:
212,180,71078,6,0,L|227:78,1,100,2|10,1:2|0:0,0:0:0:0:
186,44,71583,2,0,P|143:25|88:31,1,100,2|2,0:0|0:3,0:0:0:0:
45,60,72089,1,10,0:0:0:0:
84,168,72426,1,2,1:2:0:0:
84,168,72595,2,0,P|65:211|71:266,1,100,2|2,1:2|0:3,0:0:0:0:
107,303,73100,2,0,P|156:308|201:288,1,100,2|8,0:0|0:0,0:0:0:0:
273,204,73774,6,0,L|261:153,2,50,6|2|8,1:2|1:2|0:1,0:0:0:0:
308,254,74280,1,0,0:0:0:0:
308,254,74449,2,0,P|354:270|412:262,1,100,2|8,0:0|0:1,0:0:0:0:
472,178,75123,2,0,L|463:96,2,75,2|0|2,1:2|0:0|0:3,0:0:0:0:
510,218,75797,1,2,3:2:0:0:
471,29,87258,6,0,P|420:26|373:55,1,100,6|10,1:2|0:0,0:0:0:0:
256,161,88100,1,2,1:2:0:0:
158,111,88437,2,0,P|108:95|52:111,2,100,2|0|2,0:0|1:0|0:3,0:0:0:0:
256,161,89449,2,0,L|256:89,2,50,2|10|2,0:3|0:0|0:0,0:0:0:0:
256,216,89954,6,0,L|256:329,1,100,2|10,1:2|0:0,0:0:0:0:
97,269,90797,1,2,1:2:0:0:
41,173,91134,2,0,P|29:122|46:69,1,100,2|0,0:0|0:0,0:0:0:0:
143,130,91808,1,2,0:3:0:0:
143,130,91977,2,0,L|143:80,2,50,2|2|10,0:0|0:3|0:0,0:0:0:0:
220,208,92651,6,0,L|339:208,1,100,2|10,1:2|0:0,0:0:0:0:
467,132,93494,1,2,1:2:0:0:
385,58,93831,2,0,P|333:37|284:42,2,100,2|0|2,0:0|0:0|0:3,0:0:0:0:
467,132,94842,2,0,L|467:74,2,50,2|10|2,0:3|0:0|0:0,0:0:0:0:
467,187,95348,6,0,L|467:333,1,100,2|10,1:2|0:0,0:0:0:0:
312,345,96190,1,2,1:2:0:0:
213,295,96527,2,0,P|167:315|119:306,1,100,2|2,0:0|0:0,0:0:0:0:
54,225,97201,1,2,3:0:0:0:
54,225,97370,2,0,L|-11:225,2,50,2|2|10,3:0|3:3|0:0,0:0:0:0:
119,149,98044,6,0,P|167:140|212:159,1,100,6|10,1:0|0:0,0:0:0:0:
325,280,98887,2,0,L|325:333,2,50,2|10|2,1:3|0:0|0:3,0:0:0:0:
367,245,99392,2,0,P|396:224|403:162,1,100,0|8,1:0|0:0,0:0:0:0:
380,113,99898,2,0,P|432:122|492:93,2,100,2|2|2,0:0|1:2|0:0,0:0:0:0:
344,71,100741,5,6,1:3:0:0:
256,137,101078,1,10,0:0:0:0:
340,278,101583,2,0,L|210:284,1,100,2|2,1:3|0:3,0:0:0:0:
204,324,102089,2,0,L|104:319,1,100,0|8,1:0|0:0,0:0:0:0:
57,290,102595,2,0,P|37:243|51:181,1,100,2|2,0:0|1:2,0:0:0:0:
75,151,103100,1,8,0:0:0:0:
152,72,103437,6,0,L|267:83,1,100,2|10,1:3|0:0,0:0:0:0:
415,100,104280,2,0,L|424:199,1,100,2|2,1:3|0:3,0:0:0:0:
451,248,104786,2,0,P|426:298|371:311,1,100,0|8,1:0|0:0,0:0:0:0:
332,314,105291,1,2,0:0:0:0:
228,350,105628,1,2,1:2:0:0:
118,350,105965,6,0,B|75:240|195:192|195:192|75:136|123:32,1,400,2|2,0:0|3:0,0:0:0:0:
177,27,107482,2,0,P|229:19|290:51,1,100,2|2,0:0|0:0,0:0:0:0:
362,99,108157,2,0,P|408:82|457:90,1,100,2|10,0:0|0:0,0:0:0:0:
488,196,108831,6,0,P|497:245|463:296,1,100,6|10,1:2|0:0,0:0:0:0:
437,328,109336,1,0,0:0:0:0:
437,328,109505,2,0,L|375:322,1,50,2|2,0:0|1:3,0:0:0:0:
292,280,110010,1,2,0:3:0:0:
292,280,110179,2,0,L|181:300,1,100,2|8,1:2|0:0,0:0:0:0:
140,287,110685,2,0,P|118:242|122:192,1,100,2|2,0:0|1:2,0:0:0:0:
154,149,111190,1,10,0:0:0:0:
230,69,111527,6,0,P|189:41|139:40,1,100,2|10,1:2|0:0,0:0:0:0:
95,69,112033,1,0,0:0:0:0:
95,69,112201,2,0,P|64:64|30:75,1,50,2|2,0:0|1:3,0:0:0:0:
4,171,112707,1,2,0:0:0:0:
4,171,112876,2,0,L|4:271,1,100,2|8,1:2|0:0,0:0:0:0:
35,316,113381,2,0,P|80:334|130:321,1,100,2|2,0:0|1:2,0:0:0:0:
172,288,113887,1,10,0:0:0:0:
255,216,114224,6,0,P|306:202|367:223,1,100,2|10,1:2|0:0,0:0:0:0:
396,253,114730,1,0,0:0:0:0:
396,253,114898,2,0,L|455:253,1,50,2|2,0:0|1:3,0:0:0:0:
474,149,115404,1,2,0:3:0:0:
474,149,115572,2,0,P|461:97|479:49,1,100,2|8,1:2|0:0,0:0:0:0:
505,8,116078,2,0,L|400:18,1,100,2|2,0:0|1:2,0:0:0:0:
351,25,116583,1,10,0:0:0:0:
250,70,116921,6,0,P|240:127|278:193,1,100,2|10,1:2|0:0,0:0:0:0:
329,245,117595,2,0,P|343:292|332:340,1,100,2|10,0:0|0:0,0:0:0:0:
226,369,118269,2,0,P|174:371|123:328,1,100,2|8,1:2|0:0,0:0:0:0:
114,295,118774,2,0,L|94:176,1,100,2|2,0:0|1:2,0:0:0:0:
117,145,119280,1,10,0:0:0:0:
152,41,119617,6,0,P|101:35|52:60,1,100,6|10,1:2|0:0,0:0:0:0:
25,100,120123,1,0,0:0:0:0:
25,100,120291,2,0,L|22:161,1,50,2|2,0:0|1:3,0:0:0:0:
77,252,120797,1,2,0:3:0:0:
77,252,120965,2,0,P|130:240|178:269,1,100,2|8,1:2|0:0,0:0:0:0:
213,294,121471,2,0,L|198:176,1,100,2|2,0:0|1:2,0:0:0:0:
195,140,121977,1,10,0:0:0:0:
256,48,122314,6,0,P|305:68|376:44,1,100,2|10,1:2|0:0,0:0:0:0:
398,32,122819,1,0,0:0:0:0:
398,32,122988,2,0,P|432:28|471:39,1,50,2|2,0:0|1:3,0:0:0:0:
501,132,123494,1,2,0:3:0:0:
501,132,123662,2,0,L|501:232,1,100,2|8,1:2|0:0,0:0:0:0:
468,276,124168,2,0,P|423:258|373:271,1,100,2|2,0:0|1:2,0:0:0:0:
330,302,124673,1,10,0:0:0:0:
241,237,125010,6,0,P|190:251|129:230,1,100,2|10,1:2|0:0,0:0:0:0:
107,208,125516,1,0,0:0:0:0:
107,208,125685,2,0,P|78:214|48:208,1,50,2|2,0:0|1:3,0:0:0:0:
11,118,126190,1,2,0:3:0:0:
11,118,126359,2,0,P|63:105|111:123,1,100,2|8,1:2|0:0,0:0:0:0:
153,92,126864,2,0,P|208:103|258:82,1,100,2|2,0:0|1:2,0:0:0:0:
290,53,127370,1,10,0:0:0:0:
385,108,127707,6,0,L|360:224,1,100,2|10,1:3|0:0,0:0:0:0:
313,297,128381,2,0,P|341:291|376:303,1,50,2|2,0:0|1:3,0:0:0:0:
406,336,128718,1,10,0:0:0:0:
406,336,128887,2,0,L|539:321,1,100,2|2,1:3|1:2,0:0:0:0:
510,215,129561,2,0,L|410:226,1,100,2|2,1:2|1:2,0:0:0:0:
356,233,130067,1,10,0:0:0:0:
237,249,130404,5,6,0:0:0:0:
311,20,138494,6,0,P|301:117|213:155,1,200,2|0,1:2|1:0,0:0:0:0:
167,129,139337,2,0,P|119:129|78:161,1,100,2|2,0:0|0:0,0:0:0:0:
47,205,139843,1,2,1:2:0:0:
121,294,140180,1,2,1:2:0:0:
121,294,140348,1,2,1:2:0:0:
332,223,141022,1,2,3:2:0:0:
332,223,141190,6,0,P|282:216|233:239,1,100,6|10,1:3|0:0,0:0:0:0:
139,284,141864,2,0,L|166:163,1,100,2|10,0:0|1:2,0:0:0:0:
188,79,142539,2,0,L|86:79,1,100,2|10,1:0|0:1,0:0:0:0:
33,80,143044,1,2,0:0:0:0:
27,190,143381,2,0,P|-5:187|-36:198,2,50,2|8|2,0:3|0:0|0:0,0:0:0:0:
81,202,143887,6,0,L|100:311,1,100,6|10,1:3|0:0,0:0:0:0:
190,361,144561,2,0,P|245:369|309:345,1,100,2|10,0:0|1:2,0:0:0:0:
235,260,145235,2,0,L|232:141,1,100,2|10,1:2|0:0,0:0:0:0:
234,105,145741,1,2,0:3:0:0:
344,98,146078,2,0,L|347:147,1,50,2|10,0:3|0:0,0:0:0:0:
354,207,146415,1,2,0:0:0:0:
354,207,146583,6,0,P|408:196|463:223,1,100,2|10,1:2|0:0,0:0:0:0:
486,252,147089,1,2,0:0:0:0:
427,346,147426,1,2,0:3:0:0:
427,346,147595,1,10,0:0:0:0:
331,303,147932,1,2,1:2:0:0:
331,303,148100,2,0,P|316:253|336:196,1,100,2|2,1:2|0:3,0:0:0:0:
360,163,148606,2,0,P|354:111|313:66,1,100,2|8,0:0|0:0,0:0:0:0:
222,37,149280,6,0,L|144:39,1,50,2|2,1:2|1:2,0:0:0:0:
123,64,149617,2,0,L|45:66,1,50,10|0,0:1|0:0,0:0:0:0:
28,97,149954,2,0,P|13:150|42:206,1,100,2|8,0:0|0:1,0:0:0:0:
128,236,150628,2,0,L|112:326,2,75,2|0|2,1:2|0:0|0:3,0:0:0:0:
162,192,151303,1,2,0:0:0:0:
314,125,151808,1,2,0:0:0:0:
314,125,151977,6,0,L|286:27,1,100,6|10,1:3|0:0,0:0:0:0:
192,86,152651,2,0,L|219:182,1,100,2|10,0:0|1:2,0:0:0:0:
121,232,153325,2,0,L|155:338,1,100,2|10,1:0|0:1,0:0:0:0:
185,371,153831,1,2,0:0:0:0:
267,297,154168,2,0,L|316:303,2,50,2|8|2,0:3|0:0|0:0,0:0:0:0:
232,255,154673,6,0,P|216:204|230:147,1,100,6|10,1:3|0:0,0:0:0:0:
294,74,155348,2,0,P|343:56|403:72,1,100,2|10,0:0|1:2,0:0:0:0:
487,115,156022,2,0,L|466:221,1,100,2|10,1:2|0:0,0:0:0:0:
457,267,156527,1,2,0:3:0:0:
361,321,156864,2,0,L|273:333,1,50,2|10,0:3|0:0,0:0:0:0:
263,314,157201,1,2,0:0:0:0:
263,314,157370,6,0,P|243:221|251:203,1,100,2|10,1:2|0:0,0:0:0:0:
274,175,157876,1,2,0:0:0:0:
179,131,158213,1,2,0:3:0:0:
179,131,158381,1,10,0:0:0:0:
76,158,158718,1,2,1:2:0:0:
76,158,158887,2,0,L|88:269,1,100,2|2,1:2|0:3,0:0:0:0:
94,312,159392,2,0,P|145:336|203:319,1,100,2|8,0:0|0:0,0:0:0:0:
277,266,160067,6,0,L|366:289,2,50,6|2|10,1:2|1:2|0:1,0:0:0:0:
241,233,160572,1,0,0:0:0:0:
241,233,160741,2,0,P|228:179|247:135,1,100,2|8,0:0|0:1,0:0:0:0:
348,104,161415,2,0,L|326:18,2,75,2|0|2,1:2|0:0|0:3,0:0:0:0:
400,123,162089,1,2,3:2:0:0:
353,284,162595,1,0,0:0:0:0:
353,284,162763,6,0,P|299:298|239:284,1,100,6|10,1:3|0:0,0:0:0:0:
223,186,163437,2,0,P|173:179|126:193,1,100,2|10,0:0|1:2,0:0:0:0:
27,241,164112,2,0,L|58:341,1,100,2|10,1:0|0:1,0:0:0:0:
100,370,164617,1,2,0:0:0:0:
141,268,164954,2,0,L|125:220,2,50,2|8|2,0:3|0:0|0:0,0:0:0:0:
183,304,165460,6,0,P|236:298|283:321,1,100,6|10,1:3|0:0,0:0:0:0:
371,259,166134,2,0,P|416:278|465:271,1,100,2|10,0:0|1:2,0:0:0:0:
433,166,166808,2,0,P|445:119|419:62,1,100,2|10,1:2|0:0,0:0:0:0:
379,46,167314,1,2,0:3:0:0:
272,72,167651,2,0,L|287:20,2,50,2|10|2,0:3|0:0|0:0,0:0:0:0:
253,123,168157,6,0,P|202:107|150:132,1,100,2|10,1:2|0:0,0:0:0:0:
119,159,168662,2,0,L|132:277,1,100,2|2,0:0|0:3,0:0:0:0:
136,313,169168,1,10,0:0:0:0:
243,278,169505,1,2,1:2:0:0:
243,278,169673,2,0,P|295:291|347:273,1,100,2|2,1:2|0:3,0:0:0:0:
378,240,170179,2,0,P|388:195|372:138,1,100,2|8,0:0|0:0,0:0:0:0:
294,69,170853,6,0,P|300:37|296:13,2,50,2|2|10,1:2|1:2|0:1,0:0:0:0:
261,114,171359,1,0,0:0:0:0:
261,114,171527,2,0,L|154:101,1,100,2|8,0:0|0:1,0:0:0:0:
98,191,172201,2,0,L|7:180,2,75,2|0|2,1:2|0:0|0:3,0:0:0:0:
132,235,172876,1,2,0:0:0:0:
246,361,173381,1,2,0:0:0:0:
246,361,173550,6,0,P|298:365|350:341,1,100,6|10,1:3|0:0,0:0:0:0:
375,242,174224,2,0,P|322:238|270:262,1,100,2|10,0:0|1:2,0:0:0:0:
180,207,174898,2,0,P|154:213|76:200,1,100,2|10,1:0|0:1,0:0:0:0:
41,166,175404,1,2,0:0:0:0:
113,83,175741,2,0,L|101:26,2,50,2|8|2,0:3|0:0|0:0,0:0:0:0:
166,97,176246,6,0,P|214:87|253:57,1,100,6|10,1:3|0:0,0:0:0:0:
348,113,176921,2,0,P|331:159|338:208,1,100,2|10,0:0|1:2,0:0:0:0:
432,265,177595,2,0,L|414:369,1,100,2|10,1:2|0:0,0:0:0:0:
360,367,178100,1,2,0:3:0:0:
261,318,178437,2,0,L|310:300,2,50,2|10|2,0:3|0:0|0:0,0:0:0:0:
210,339,178943,6,0,P|218:284|192:237,1,100,2|10,1:2|0:0,0:0:0:0:
162,205,179449,2,0,B|147:155|147:155|163:94,1,100,2|2,0:0|0:3,0:0:0:0:
188,62,179954,1,10,0:0:0:0:
297,33,180291,1,2,1:2:0:0:
297,33,180460,2,0,P|340:14|395:20,1,100,2|2,1:2|0:3,0:0:0:0:
427,61,180965,2,0,P|446:104|437:158,1,100,2|8,0:0|0:0,0:0:0:0:
383,251,181640,6,0,L|446:247,2,50,2|2|10,1:2|1:2|0:1,0:0:0:0:
356,300,182145,1,0,0:0:0:0:
356,300,182314,2,0,P|303:296|263:266,1,100,2|8,0:0|0:1,0:0:0:0:
214,172,182988,2,0,P|175:182|123:175,2,75,2|0|2,1:2|0:0|0:3,0:0:0:0:
247,128,183662,1,2,3:2:0:0:
466,144,184336,6,0,P|474:99|444:40,2,100,6|10|0,1:2|0:0|0:0,0:0:0:0:
428,184,185179,2,0,L|325:173,1,100,2|2,1:2|0:0,0:0:0:0:
285,207,185685,2,0,P|270:255|291:320,1,100,0|8,1:0|0:0,0:0:0:0:
377,353,186359,1,2,0:3:0:0:
456,276,186696,1,8,0:0:0:0:
412,175,187033,6,0,P|466:183|505:156,2,100,2|10|0,1:2|0:0|0:0,0:0:0:0:
370,139,187876,2,0,P|370:92|343:45,1,100,2|2,1:2|0:0,0:0:0:0:
296,21,188382,2,0,P|246:17|199:41,1,100,0|8,1:0|0:0,0:0:0:0:
141,129,189055,1,2,0:3:0:0:
176,233,189392,1,8,0:0:0:0:
68,209,189730,6,0,P|65:259|91:309,2,100,2|10|0,1:2|0:0|0:0,0:0:0:0:
101,165,190573,2,0,P|72:123|77:67,1,100,2|2,1:2|0:0,0:0:0:0:
110,35,191078,1,0,1:0:0:0:
194,106,191415,1,8,0:0:0:0:
256,15,191752,1,2,0:3:0:0:
318,106,192089,1,8,0:0:0:0:
402,35,192426,6,0,P|455:29|506:57,2,100,2|10|0,1:2|0:0|0:0,0:0:0:0:
357,67,193269,2,0,L|373:183,1,100,2|2,1:2|0:0,0:0:0:0:
346,215,193774,1,0,0:0:0:0:
248,264,194111,1,10,3:0:0:0:
149,313,194448,1,2,3:0:0:0:
49,359,194785,1,8,3:2:0:0:
29,250,195123,6,0,P|10:204|25:137,1,100,4|2,0:0|0:3,0:0:0:0:
149,58,195965,1,2,0:0:0:0:
248,117,196303,1,2,0:0:0:0:
248,117,196471,2,0,P|273:164|265:217,1,100,0|2,0:0|0:0,0:0:0:0:
178,271,197145,1,2,0:3:0:0:
250,354,197482,1,0,0:0:0:0:
343,295,197819,6,0,L|478:279,1,100,2|2,0:0|0:0,0:0:0:0:
502,129,198661,1,2,0:0:0:0:
427,56,198999,1,2,0:0:0:0:
427,56,199168,2,0,L|327:67,1,100,0|0,0:0|0:0,0:0:0:0:
219,85,199841,1,2,0:3:0:0:
126,26,200178,1,0,0:0:0:0:
36,89,200516,6,0,L|56:186,1,100,2|2,0:0|0:0,0:0:0:0:
95,347,201358,1,2,0:0:0:0:
183,280,201696,1,2,0:0:0:0:
183,280,201864,2,0,L|162:182,1,100,0|0,0:0|0:0,0:0:0:0:
238,102,202538,1,2,0:0:0:0:
311,20,202875,1,2,0:0:0:0:
409,70,203213,6,0,P|461:59|527:76,1,100,2|2,0:0|0:0,0:0:0:0:
508,231,204055,2,0,P|456:242|390:225,1,100,2|2,0:0|0:0,0:0:0:0:
315,99,204898,1,2,0:0:0:0:
256,192,205235,1,2,0:0:0:0:
