osu file format v14

[General]
AudioFilename: audio.mp3
AudioLeadIn: 0
PreviewTime: 54730
Countdown: 0
SampleSet: Soft
StackLeniency: 0.3
Mode: 0
LetterboxInBreaks: 0
WidescreenStoryboard: 0

[Editor]
Bookmarks: 65769,173634,194196,200516,203213
DistanceSpacing: 1.6
BeatDivisor: 4
GridSize: 8
TimelineZoom: 1

[Metadata]
Title:chameleon
TitleUnicode:chameleon
Artist:nana(Sevencolors)
ArtistUnicode:nana(Sevencolors)
Creator:RVMathew
Version:Insane
Source:
Tags:Renumi 鹿乃 Kano 有坂あこ Arisaka Aco TechnoBreakerz Techno Breakerz feat. featuring 初音ミク Hatsune Miku Append Sweet Dance VOCALOMUSIC ★ Volume Vol. 02 -Funky Drum'n'Bass- and & DnB Works 2010-2011 Best Vocaloid Pop Electronic Japanese
BeatmapID:2200330
BeatmapSetID:1046876

[Difficulty]
HPDrainRate:6
CircleSize:4.2
OverallDifficulty:7
ApproachRate:8
SliderMultiplier:1.2
SliderTickRate:1

[Events]
//Background and Video events
0,0,"stretched-1920-1080-689941.jpg",0,0
//Break Periods
2,76471,86508
//Storyboard Layer 0 (Background)
//Storyboard Layer 1 (Fail)
//Storyboard Layer 2 (Pass)
//Storyboard Layer 3 (Foreground)
//Storyboard Layer 4 (Overlay)
//Storyboard Sound Samples

[TimingPoints]
966,337.078651685393,4,2,1,60,1,0
22539,-125,4,2,2,60,0,0
22623,-125,4,2,1,60,0,0
33325,-111.111111111111,4,2,2,60,0,0
33409,-111.111111111111,4,2,1,60,0,0
43100,-111.111111111111,4,2,1,30,0,0
43185,-111.111111111111,4,2,1,32,0,0
43269,-111.111111111111,4,2,1,36,0,0
43353,-111.111111111111,4,2,1,38,0,0
43437,-111.111111111111,4,2,1,40,0,0
43522,-111.111111111111,4,2,1,42,0,0
43606,-111.111111111111,4,2,1,46,0,0
43690,-111.111111111111,4,2,1,48,0,0
43774,-111.111111111111,4,2,1,54,0,0
43859,-111.111111111111,4,2,1,52,0,0
43943,-111.111111111111,4,2,1,50,0,0
44027,-111.111111111111,4,2,1,48,0,0
44112,-100,4,2,1,60,0,0
52201,-133.333333333333,4,2,1,60,0,0
52539,-133.333333333333,4,2,3,60,0,0
52623,-133.333333333333,4,2,1,60,0,0
53044,-100,4,2,1,60,0,0
53550,-100,4,2,1,60,0,0
54224,-100,4,2,1,30,0,0
54308,-100,4,2,1,34,0,0
54392,-100,4,2,1,38,0,0
54477,-100,4,2,1,42,0,0
54561,-100,4,2,1,46,0,0
54730,-100,4,2,1,30,0,0
54898,-100,4,2,1,60,0,1
60291,-100,4,2,2,60,0,1
62988,-100,4,2,1,60,0,1
65516,-100,4,2,1,60,0,0
65685,-100,4,2,1,60,0,1
71078,-100,4,2,2,60,0,1
73774,-100,4,2,1,60,0,1
75797,-100,4,2,1,60,0,1
75881,-100,4,2,1,60,0,1
75965,-100,4,2,1,60,0,1
76050,-100,4,2,1,60,0,1
76134,-100,4,2,1,60,0,1
76218,-100,4,2,1,60,0,1
76303,-100,4,2,1,60,0,1
76387,-100,4,2,1,60,0,1
76471,-100,4,2,1,60,0,0
87258,-111.111111111111,4,2,1,60,0,0
96949,-111.111111111111,4,2,1,30,0,0
97033,-111.111111111111,4,2,1,34,0,0
97117,-111.111111111111,4,2,1,36,0,0
97201,-111.111111111111,4,2,1,40,0,0
97286,-111.111111111111,4,2,1,42,0,0
97370,-111.111111111111,4,2,1,44,0,0
97454,-111.111111111111,4,2,1,42,0,0
97539,-111.111111111111,4,2,1,40,0,0
97623,-111.111111111111,4,2,1,38,0,0
97707,-111.111111111111,4,2,1,42,0,0
97791,-111.111111111111,4,2,1,38,0,0
97876,-111.111111111111,4,2,1,36,0,0
97960,-111.111111111111,4,2,1,34,0,0
98044,-105.263157894737,4,2,1,60,0,0
105965,-133.333333333333,4,2,1,60,0,0
107482,-153.846153846154,4,2,1,60,0,0
107567,-153.846153846154,4,2,1,49,0,0
107651,-153.846153846154,4,2,1,38,0,0
107735,-153.846153846154,4,2,1,25,0,0
107819,-153.846153846154,4,2,1,25,0,0
108157,-153.846153846154,4,2,1,15,0,0
108241,-153.846153846154,4,2,1,26,0,0
108325,-153.846153846154,4,2,1,38,0,0
108409,-153.846153846154,4,2,1,49,0,0
108494,-153.846153846154,4,2,1,60,0,0
108831,-100,4,2,1,60,0,0
129055,-100,4,2,1,30,0,0
129140,-100,4,2,1,32,0,0
129224,-100,4,2,1,36,0,0
129392,-100,4,2,1,38,0,0
129477,-100,4,2,1,40,0,0
129561,-100,4,2,1,44,0,0
129645,-100,4,2,1,46,0,0
129730,-100,4,2,1,50,0,0
129814,-100,4,2,1,54,0,0
129898,-100,4,2,1,58,0,0
129982,-100,4,2,1,60,0,0
130067,-100,4,2,1,64,0,0
130151,-100,4,2,1,60,0,0
130235,-100,4,2,1,54,0,0
130319,-100,4,2,1,50,0,0
130404,-125,4,2,1,60,0,0
138494,-133.333333333333,4,2,1,60,0,0
138831,-133.333333333333,4,2,3,60,0,0
138915,-133.333333333333,4,2,1,60,0,0
139336,-100,4,2,1,60,0,0
140516,-100,4,2,1,30,0,0
140600,-100,4,2,1,34,0,0
140685,-100,4,2,1,38,0,0
140769,-100,4,2,1,42,0,0
140853,-100,4,2,1,46,0,0
141022,-100,4,2,1,30,0,0
141190,-100,4,2,1,60,0,1
146583,-100,4,2,2,60,0,1
149280,-100,4,2,1,60,0,1
151808,-100,4,2,1,60,0,0
151977,-100,4,2,1,60,0,1
157370,-100,4,2,2,60,0,1
160067,-100,4,2,1,60,0,1
162089,-100,4,2,1,60,0,1
162173,-100,4,2,1,60,0,1
162258,-100,4,2,1,60,0,1
162342,-100,4,2,1,60,0,1
162426,-100,4,2,1,60,0,1
162510,-100,4,2,1,60,0,1
162595,-100,4,2,1,60,0,0
162679,-100,4,2,1,60,0,0
162763,-100,4,2,1,60,0,1
168157,-100,4,2,2,60,0,1
170853,-100,4,2,1,60,0,1
173381,-100,4,2,1,60,0,0
173550,-100,4,2,1,60,0,1
178943,-100,4,2,2,60,0,1
181640,-100,4,2,1,60,0,1
183662,-100,4,2,1,60,0,1
183746,-100,4,2,1,60,0,1
183831,-100,4,2,1,60,0,1
183915,-100,4,2,1,60,0,1
183999,-100,4,2,1,60,0,1
184083,-100,4,2,1,60,0,1
184168,-100,4,2,1,60,0,1
184252,-100,4,2,1,60,0,1
184336,-100,4,2,1,60,0,0
193943,-100,4,2,1,30,0,0
194027,-100,4,2,1,32,0,0
194112,-100,4,2,1,36,0,0
194196,-100,4,2,1,38,0,0
194280,-100,4,2,1,42,0,0
194364,-100,4,2,1,46,0,0
194449,-100,4,2,1,50,0,0
194533,-100,4,2,1,54,0,0
194617,-100,4,2,1,58,0,0
194701,-100,4,2,1,62,0,0
194786,-100,4,2,1,66,0,0
194954,-100,4,2,1,60,0,0
195123,-125,4,2,1,60,0,0
195207,-125,4,2,1,60,0,0
195460,-125,4,2,1,50,0,0
200516,-125,4,2,1,40,0,0
203213,-125,4,2,1,30,0,0
204898,-125,4,2,1,15,0,0
205235,-125,4,2,1,10,0,0

[Colours]
Combo1 : 255,255,0
Combo2 : 111,111,111
Combo3 : 255,0,128
Combo4 : 128,0,255
Combo5 : 0,255,255
Combo6 : 183,183,183

[HitObjects]
256,192,19842,12,0,22201,0:0:0:0:
469,39,22539,5,6,0:0:0:0:
433,108,22707,1,2,0:0:0:0:
433,108,22876,2,0,L|441:164,1,48,2|2,0:3|0:0,0:0:0:0:
395,218,23213,2,0,L|403:274,1,48,0|2,0:0|0:3,0:0:0:0:
401,265,23718,1,2,0:3:0:0:
348,321,23887,6,0,P|303:297|252:310,1,96,2|0,0:0|0:0,0:0:0:0:
194,343,24392,2,0,P|153:319|106:326,1,96,2|0,0:0|0:0,0:0:0:0:
40,364,24898,1,2,0:0:0:0:
40,364,25235,5,2,0:0:0:0:
9,298,25404,1,2,0:0:0:0:
9,298,25572,2,0,L|2:236,1,48,2|2,0:3|0:0,0:0:0:0:
49,188,25909,2,0,L|43:133,1,48,0|2,0:0|0:3,0:0:0:0:
44,140,26415,1,2,0:3:0:0:
105,94,26583,6,0,B|154:104|154:104|200:78,1,96,2|0,0:0|0:0,0:0:0:0:
252,131,27089,2,0,B|301:141|301:141|347:115,1,96,2|0,0:0|0:0,0:0:0:0:
414,142,27595,1,2,0:0:0:0:
414,142,27932,5,2,0:0:0:0:
452,77,28100,1,2,0:0:0:0:
452,77,28269,2,0,P|451:49|439:25,1,48,2|2,0:3|0:0,0:0:0:0:
366,20,28606,2,0,P|367:48|379:72,1,48,0|2,0:0|0:3,0:0:0:0:
374,66,29112,1,2,0:3:0:0:
342,138,29280,6,0,B|292:142|292:142|256:177,1,96,2|0,0:0|0:0,0:0:0:0:
324,214,29786,2,0,L|278:107,1,96,2|0,0:0|0:0,0:0:0:0:
256,55,30291,1,2,0:0:0:0:
256,55,30628,5,2,0:0:0:0:
188,29,30797,1,2,0:0:0:0:
188,29,30965,2,0,P|163:24|134:29,1,48,2|2,0:3|0:0,0:0:0:0:
91,86,31303,2,0,P|65:88|39:100,1,48,2|2,0:0|0:0,0:0:0:0:
0,159,31640,1,0,0:0:0:0:
54,219,31808,1,2,0:3:0:0:
54,219,31977,6,0,P|77:263|67:312,1,96,2|0,0:0|0:0,0:0:0:0:
26,370,32482,2,0,L|133:354,1,96,2|0,0:0|0:0,0:0:0:0:
197,344,32988,1,2,0:0:0:0:
197,344,33325,5,6,1:2:0:0:
170,261,33494,1,0,0:0:0:0:
233,202,33662,2,0,L|221:131,1,53.9999983520508,10|2,0:0|0:0,0:0:0:0:
293,95,33999,1,0,0:0:0:0:
293,95,34168,2,0,L|281:24,1,53.9999983520508,2|8,1:2|0:0,0:0:0:0:
366,9,34505,1,2,0:0:0:0:
366,9,34673,6,0,B|448:9|448:9|418:46,1,107.999996704102,2|10,1:0|0:0,0:0:0:0:
388,104,35179,2,0,B|306:104|306:104|336:141,1,107.999996704102,2|2,0:1|1:2,0:0:0:0:
372,194,35685,1,10,0:1:0:0:
372,194,36022,5,2,1:3:0:0:
421,271,36190,1,0,0:0:0:0:
421,271,36359,2,0,L|366:271,1,53.9999983520508,10|2,0:0|0:0,0:0:0:0:
304,330,36696,1,0,0:0:0:0:
304,330,36864,2,0,L|249:330,1,53.9999983520508,2|8,1:2|0:0,0:0:0:0:
193,272,37201,1,2,0:0:0:0:
193,272,37370,6,0,P|165:228|176:165,1,107.999996704102,2|10,1:0|0:0,0:0:0:0:
234,116,37876,2,0,P|206:72|217:9,1,107.999996704102,2|2,0:1|1:2,0:0:0:0:
290,53,38381,1,10,0:1:0:0:
290,53,38718,5,2,1:3:0:0:
372,20,38887,1,0,0:0:0:0:
372,20,39055,2,0,P|377:54|367:90,1,53.9999983520508,10|2,0:0|0:0,0:0:0:0:
425,148,39392,1,0,0:0:0:0:
425,148,39561,2,0,P|409:178|379:201,1,53.9999983520508,2|8,1:2|0:0,0:0:0:0:
320,232,39898,1,2,0:0:0:0:
320,232,40067,6,0,P|352:280|346:341,1,107.999996704102,2|10,1:0|0:0,0:0:0:0:
283,382,40572,2,0,P|225:385|175:350,1,107.999996704102,2|2,0:1|1:2,0:0:0:0:
136,287,41078,1,10,0:1:0:0:
136,287,41415,5,2,1:3:0:0:
208,238,41583,1,0,0:0:0:0:
208,238,41752,2,0,P|240:241|272:231,1,53.9999983520508,10|2,0:0|0:0,0:0:0:0:
339,199,42089,1,2,0:3:0:0:
269,147,42258,1,2,1:3:0:0:
261,236,42426,1,8,0:0:0:0:
339,199,42595,1,2,1:3:0:0:
269,147,42763,6,0,L|282:97,3,26.9999991760254,2|0|2|0,3:0|0:0|1:0|0:0,0:0:0:0:
256,81,43100,2,0,L|269:31,3,26.9999991760254,10|0|2|0,0:0|0:0|1:0|0:0,0:0:0:0:
236,20,43437,1,2,0:3:0:0:
209,19,43521,1,0,3:0:0:0:
184,29,43605,1,2,1:0:0:0:
166,49,43689,1,0,3:0:0:0:
157,74,43774,2,0,P|149:106|158:139,1,53.9999983520508,10|0,1:2|0:0,0:0:0:0:
285,235,44112,6,0,B|373:261|373:261|343:214,1,120,6|8,1:2|0:0,0:0:0:0:
442,191,44617,2,0,P|455:128|435:69,1,120,2|2,0:0|1:3,0:0:0:0:
360,20,45123,1,10,0:0:0:0:
197,122,45460,5,2,1:3:0:0:
41,18,45797,1,8,0:0:0:0:
41,18,45965,2,0,P|80:66|71:135,1,120,2|2,0:0|1:2,0:0:0:0:
22,200,46471,2,0,L|38:274,1,60,8|0,0:0|0:0,0:0:0:0:
107,321,46808,6,0,P|57:354|-12:344,2,120,2|8|2,1:2|0:0|0:3,0:0:0:0:
162,242,47651,2,0,L|141:360,1,120,2|0,1:3|0:0,0:0:0:0:
230,306,48157,6,0,B|222:352|222:352|314:327,1,120,2|8,1:2|0:0,0:0:0:0:
385,308,48662,2,0,P|436:346|506:337,1,120,2|0,0:0|1:0,0:0:0:0:
463,251,49168,1,8,0:0:0:0:
385,308,49336,1,0,0:0:0:0:
271,216,49505,6,0,L|257:82,1,120,6|8,1:2|0:0,0:0:0:0:
333,36,50010,2,0,P|403:26|444:55,1,120,2|2,0:0|1:3,0:0:0:0:
374,121,50516,1,10,0:0:0:0:
497,268,50853,5,2,1:3:0:0:
332,363,51190,1,8,0:0:0:0:
332,363,51359,2,0,P|300:305|314:230,1,120,2|2,0:0|1:2,0:0:0:0:
376,191,51864,2,0,L|370:129,1,60,8|0,0:0|0:0,0:0:0:0:
290,64,52201,6,0,P|255:128|221:62,1,180.000006866455,2|0,1:2|1:0,0:0:0:0:
134,20,53044,6,0,P|117:85|135:143,1,120,2|2,0:0|0:0,0:0:0:0:
165,230,53550,5,2,1:2:0:0:
71,217,53718,1,2,1:2:0:0:
29,301,53887,1,2,1:2:0:0:
91,370,54055,1,2,1:2:0:0:
114,366,54139,1,0,0:0:0:0:
138,362,54223,1,0,3:0:0:0:
162,358,54307,1,0,3:0:0:0:
185,355,54392,1,0,3:0:0:0:
209,351,54476,1,0,3:0:0:0:
233,347,54560,1,4,3:0:0:0:
312,238,54730,1,2,3:2:0:0:
312,238,54898,6,0,B|362:202|362:202|419:212,1,120,6|10,1:3|0:0,0:0:0:0:
384,301,55404,1,0,0:0:0:0:
312,238,55572,2,0,P|301:209|310:168,1,60,2|2,0:0|0:3,0:0:0:0:
368,109,55909,2,0,P|374:78|402:49,1,60,10|2,1:2|0:3,0:0:0:0:
461,121,56246,5,2,1:0:0:0:
368,109,56415,1,0,1:0:0:0:
288,55,56583,1,10,0:1:0:0:
199,92,56752,1,2,0:0:0:0:
199,92,57089,2,0,L|192:28,2,60,2|8|2,0:3|0:0|0:0,0:0:0:0:
155,178,57595,6,0,P|126:167|85:177,1,60,6|0,1:3|1:0,0:0:0:0:
11,213,57932,1,10,0:0:0:0:
90,267,58100,1,0,0:0:0:0:
98,171,58269,2,0,L|91:107,1,60,2|2,0:0|0:3,0:0:0:0:
176,66,58606,1,10,1:2:0:0:
256,120,58774,1,2,0:3:0:0:
336,66,58943,6,0,L|343:2,2,60,2|0|10,1:2|1:0|0:0,0:0:0:0:
256,120,59449,1,2,0:3:0:0:
403,223,59786,1,2,0:3:0:0:
346,300,59954,1,10,0:0:0:0:
295,381,60123,1,2,0:0:0:0:
346,300,60291,6,0,P|409:319|462:296,1,120,2|10,1:2|0:0,0:0:0:0:
492,211,60797,2,0,L|501:91,1,120,2|2,0:0|0:3,0:0:0:0:
417,41,61303,2,0,L|410:122,1,60,10|2,0:0|0:3,0:0:0:0:
317,149,61640,5,2,1:2:0:0:
317,149,61808,2,0,B|235:141|235:141|263:181,1,120,2|2,1:2|0:3,0:0:0:0:
199,249,62314,2,0,P|230:301|217:363,1,120,2|8,0:0|0:0,0:0:0:0:
132,319,62819,1,2,0:0:0:0:
199,249,62988,5,2,1:2:0:0:
162,159,63157,1,2,1:2:0:0:
236,98,63325,1,10,0:1:0:0:
189,13,63494,1,0,0:0:0:0:
55,61,63662,2,0,L|114:73,1,60,2|2,0:0|1:3,0:0:0:0:
220,170,63999,2,0,L|161:158,1,60,8|2,0:1|0:3,0:0:0:0:
110,255,64336,6,0,P|62:252|15:287,2,90,2|2|2,1:2|0:0|0:3,0:0:0:0:
187,313,65010,2,0,L|203:379,2,60,2|0|8,0:0|1:0|0:1,0:0:0:0:
110,255,65516,1,2,0:0:0:0:
173,167,65685,6,0,L|158:108,1,60,6|0,1:3|1:0,0:0:0:0:
253,119,66022,2,0,L|238:60,1,60,10|0,0:0|0:0,0:0:0:0:
333,72,66359,2,0,L|318:13,2,60,2|2|10,0:0|0:3|1:2,0:0:0:0:
358,165,66864,1,2,0:3:0:0:
321,267,67033,5,2,1:0:0:0:
194,296,67201,1,0,1:0:0:0:
243,215,67370,1,10,0:1:0:0:
272,349,67539,1,2,0:0:0:0:
272,349,67876,1,2,0:3:0:0:
194,296,68044,2,0,L|121:296,1,60,8|2,0:0|0:0,0:0:0:0:
63,230,68381,6,0,P|29:233|-4:222,1,60,6|0,1:3|1:0,0:0:0:0:
38,136,68718,2,0,P|21:105|18:71,1,60,10|0,0:0|0:0,0:0:0:0:
113,82,69055,2,0,P|123:48|144:23,2,60,2|2|10,0:0|0:3|1:2,0:0:0:0:
173,157,69561,1,2,0:3:0:0:
261,118,69730,5,2,1:2:0:0:
300,204,69898,1,0,1:0:0:0:
212,245,70067,1,10,0:0:0:0:
173,157,70235,1,2,0:3:0:0:
17,53,70572,1,2,0:3:0:0:
43,242,70741,1,10,0:0:0:0:
30,148,70909,1,2,0:0:0:0:
57,337,71078,6,0,L|184:356,1,120,2|10,1:2|0:0,0:0:0:0:
269,373,71583,2,0,L|396:354,1,120,2|2,0:0|0:3,0:0:0:0:
456,286,72089,2,0,P|458:254|438:218,1,60,10|2,0:0|0:3,0:0:0:0:
374,155,72426,5,2,1:2:0:0:
374,155,72595,2,0,P|344:102|354:45,1,120,2|2,1:2|0:3,0:0:0:0:
439,88,73100,2,0,P|467:92|498:79,2,60,2|2|8,0:0|0:3|0:0,0:0:0:0:
353,46,73606,1,2,0:0:0:0:
269,147,73774,5,6,1:2:0:0:
117,129,73943,1,2,1:2:0:0:
199,83,74112,1,10,0:1:0:0:
135,220,74280,1,0,0:0:0:0:
246,323,74449,1,2,0:0:0:0:
93,306,74617,1,2,1:3:0:0:
230,232,74786,1,8,0:1:0:0:
164,369,74954,1,2,0:3:0:0:
135,220,75123,6,0,P|89:231|30:202,2,90,2|2|2,1:2|0:0|0:3,0:0:0:0:
138,50,75797,1,2,3:2:0:0:
176,136,75965,1,2,1:0:0:0:
46,33,76134,1,10,0:1:0:0:
46,33,87258,6,0,P|79:78|66:138,1,107.999996704102,6|10,1:2|0:0,0:0:0:0:
256,311,88100,1,2,1:2:0:0:
256,311,88437,6,0,L|378:312,1,107.999996704102,2|0,0:0|1:0,0:0:0:0:
508,216,89112,2,0,L|398:216,1,107.999996704102,2|2,0:3|0:3,0:0:0:0:
322,178,89617,2,0,P|311:150|312:118,1,53.9999983520508,10|2,0:0|0:0,0:0:0:0:
396,134,89954,6,0,P|394:79|429:29,1,107.999996704102,2|10,1:2|0:0,0:0:0:0:
256,225,90797,1,2,1:2:0:0:
256,225,91134,6,0,P|203:206|146:214,2,107.999996704102,2|0|2,0:0|0:0|0:3,0:0:0:0:
311,291,91977,1,2,0:0:0:0:
276,370,92145,1,2,0:3:0:0:
190,382,92314,1,10,0:0:0:0:
190,382,92651,6,0,L|203:269,1,107.999996704102,2|10,1:2|0:0,0:0:0:0:
50,64,93494,1,2,1:2:0:0:
50,64,93831,6,0,L|37:171,2,107.999996704102,2|0|2,0:0|0:0|0:3,0:0:0:0:
50,64,94842,1,2,0:3:0:0:
132,38,95010,1,10,0:0:0:0:
216,73,95179,1,2,0:0:0:0:
216,73,95348,6,0,B|300:73|300:73|273:104,1,107.999996704102,2|8,1:2|0:0,0:0:0:0:
162,319,96190,6,0,B|78:319|78:319|105:288,2,107.999996704102,2|2|2,1:2|0:0|0:0,0:0:0:0:
256,174,97201,1,2,3:0:0:0:
303,246,97370,1,2,3:0:0:0:
384,274,97539,1,2,3:3:0:0:
465,247,97707,1,10,0:0:0:0:
465,247,98044,6,0,P|474:195|445:132,2,113.999996955872,6|10|0,1:0|0:0|0:0,0:0:0:0:
431,332,98887,1,2,1:3:0:0:
351,287,99055,1,10,0:0:0:0:
268,322,99224,1,2,0:3:0:0:
268,322,99392,6,0,L|285:200,1,113.999996955872,0|8,1:0|0:0,0:0:0:0:
355,152,99898,2,0,L|372:30,1,113.999996955872,2|2,0:0|1:2,0:0:0:0:
160,114,100572,1,2,0:0:0:0:
160,114,100741,6,0,P|106:125|83:197,1,113.999996955872,6|10,1:3|0:0,0:0:0:0:
204,350,101415,1,0,0:0:0:0:
204,350,101583,2,0,B|115:365|115:365|142:327,1,113.999996955872,2|2,1:3|0:3,0:0:0:0:
177,268,102089,6,0,P|184:214|139:147,1,113.999996955872,0|8,1:0|0:0,0:0:0:0:
76,203,102595,2,0,L|50:70,1,113.999996955872,2|2,0:0|1:2,0:0:0:0:
113,22,103100,1,8,0:0:0:0:
198,70,103269,1,0,0:0:0:0:
198,70,103437,6,0,P|249:43|310:58,2,113.999996955872,2|10|0,1:3|0:0|0:0,0:0:0:0:
261,135,104280,2,0,L|274:197,2,56.9999984779358,2|10|2,1:3|0:0|0:3,0:0:0:0:
351,150,104786,6,0,L|378:278,1,113.999996955872,0|8,1:0|0:0,0:0:0:0:
315,330,105291,2,0,L|252:319,1,56.9999984779358,2|2,0:0|0:3,0:0:0:0:
182,370,105628,2,0,L|125:360,1,56.9999984779358,2|8,1:2|0:0,0:0:0:0:
52,301,105965,6,0,B|113:205|-9:126|52:39,1,270.000010299683,2|2,0:0|1:3,0:0:0:0:
187,101,107314,1,2,3:0:0:0:
187,101,107482,6,0,L|200:178,1,77.9999964294435,2|2,0:0|0:0,0:0:0:0:
73,137,108157,2,0,L|64:87,1,38.9999982147218,2|0,0:0|1:0,0:0:0:0:
115,39,108494,1,10,0:0:0:0:
192,18,108662,1,0,0:0:0:0:
278,27,108831,5,6,1:2:0:0:
361,82,108999,1,0,0:0:0:0:
361,82,109168,2,0,P|378:106|382:139,1,60,10|0,0:0|0:0,0:0:0:0:
462,197,109505,1,2,0:0:0:0:
462,197,109673,2,0,P|455:225|432:250,1,60,2|10,1:3|0:0,0:0:0:0:
356,301,110010,1,2,0:3:0:0:
356,301,110179,6,0,B|277:323|277:323|295:279,1,120,2|8,1:2|0:0,0:0:0:0:
322,196,110685,2,0,B|401:175|401:175|363:146,1,120,2|2,0:0|1:2,0:0:0:0:
294,94,111190,2,0,P|282:66|285:28,1,60,10|0,0:0|0:0,0:0:0:0:
378,46,111527,5,2,1:2:0:0:
463,101,111696,1,0,0:0:0:0:
463,101,111864,2,0,L|473:164,1,60,10|0,0:0|0:0,0:0:0:0:
421,243,112201,1,2,0:0:0:0:
421,243,112370,2,0,L|431:306,1,60,2|10,1:3|0:0,0:0:0:0:
358,363,112707,1,2,0:0:0:0:
358,363,112876,6,0,P|300:375|248:341,1,120,2|8,1:2|0:0,0:0:0:0:
191,269,113381,2,0,P|140:299|83:287,1,120,2|2,0:0|1:2,0:0:0:0:
22,212,113887,2,0,P|9:182|11:139,1,60,10|0,0:0|0:0,0:0:0:0:
75,86,114224,5,2,1:2:0:0:
155,147,114392,1,0,0:0:0:0:
155,147,114561,2,0,L|142:205,1,60,10|0,0:0|0:0,0:0:0:0:
225,263,114898,1,2,0:0:0:0:
225,263,115067,2,0,L|212:321,1,60,2|10,1:3|0:0,0:0:0:0:
302,367,115404,1,2,0:3:0:0:
302,367,115572,6,0,B|387:359|387:359|354:334,1,120,2|8,1:2|0:0,0:0:0:0:
428,271,116078,2,0,P|396:220|402:163,1,120,2|2,0:0|1:2,0:0:0:0:
481,108,116583,2,0,L|468:47,1,60,10|0,0:0|0:0,0:0:0:0:
377,18,116921,5,2,1:2:0:0:
290,53,117089,1,0,0:0:0:0:
290,53,117258,2,0,P|284:87|294:123,1,60,10|0,0:0|0:0,0:0:0:0:
206,157,117595,1,2,0:0:0:0:
206,157,117763,2,0,P|221:186|251:210,1,60,2|10,1:3|0:0,0:0:0:0:
321,265,118100,1,2,0:3:0:0:
321,265,118269,6,0,L|331:389,1,120,2|8,1:2|0:0,0:0:0:0:
416,342,118774,2,0,L|406:222,1,120,2|2,0:0|1:2,0:0:0:0:
495,259,119280,1,10,0:0:0:0:
495,259,119617,5,6,1:2:0:0:
476,169,119786,1,0,0:0:0:0:
476,169,119954,2,0,L|480:98,1,60,10|0,0:0|0:0,0:0:0:0:
386,84,120291,2,0,P|387:56|368:19,2,60,2|2|10,0:0|1:3|0:0,0:0:0:0:
315,148,120797,1,2,0:3:0:0:
315,148,120965,6,0,B|259:166|259:166|206:132,1,120,2|8,1:2|0:0,0:0:0:0:
134,195,121471,2,0,B|82:161|82:161|26:179,1,120,2|2,0:0|1:2,0:0:0:0:
64,267,121977,2,0,P|60:297|75:336,1,60,10|0,0:0|0:0,0:0:0:0:
152,371,122314,5,2,1:2:0:0:
240,330,122482,1,0,0:0:0:0:
240,330,122651,2,0,L|223:267,1,60,10|0,0:0|0:0,0:0:0:0:
270,189,122988,1,2,0:0:0:0:
270,189,123157,2,0,L|253:126,1,60,2|10,1:3|0:0,0:0:0:0:
315,57,123494,1,2,0:3:0:0:
315,57,123662,6,0,P|373:44|438:84,1,120,2|8,1:2|0:0,0:0:0:0:
479,149,124168,2,0,L|496:281,1,120,2|2,0:0|1:2,0:0:0:0:
420,328,124673,2,0,L|409:245,1,60,10|0,0:0|0:0,0:0:0:0:
336,210,125010,5,2,1:2:0:0:
250,249,125179,1,0,0:0:0:0:
250,249,125348,2,0,P|252:215|239:176,1,60,10|0,0:0|0:0,0:0:0:0:
154,221,125685,2,0,P|140:190|110:161,2,60,2|2|0,0:0|1:3|0:0,0:0:0:0:
83,285,126190,1,2,0:3:0:0:
83,285,126359,6,0,B|51:364|51:364|106:349,1,120,2|8,1:2|0:0,0:0:0:0:
178,374,126864,2,0,P|240:380|281:343,1,120,2|2,0:0|1:2,0:0:0:0:
334,264,127370,2,0,P|336:234|319:200,1,60,10|0,0:0|0:0,0:0:0:0:
257,138,127707,5,2,1:3:0:0:
183,199,127876,1,0,0:0:0:0:
87,188,128044,1,10,0:0:0:0:
127,275,128213,1,0,0:0:0:0:
183,199,128381,2,0,L|165:127,1,60,2|2,0:0|1:3,0:0:0:0:
196,48,128718,1,10,0:0:0:0:
102,72,128887,1,2,1:3:0:0:
168,141,129055,6,0,L|149:172,3,30,2|0|2|0,1:2|3:0|1:2|3:0,0:0:0:0:
160,214,129392,2,0,L|141:245,3,30,8|0|2|0,3:2|3:0|1:2|3:0,0:0:0:0:
156,287,129730,1,2,0:3:0:0:
181,302,129814,1,0,0:0:0:0:
210,308,129898,1,2,1:2:0:0:
240,306,129982,1,0,0:0:0:0:
267,292,130067,2,0,P|291:270|304:236,1,60,10|0,0:0|3:0,0:0:0:0:
295,118,130404,6,0,P|304:63|376:21,2,144,6|2|2,0:0|0:0|0:0,0:0:0:0:
155,182,131752,6,0,L|59:182,1,96,2|2,0:0|0:0,0:0:0:0:
59,259,132258,2,0,L|155:259,1,96,2|2,0:0|0:0,0:0:0:0:
384,281,133100,6,0,P|318:216|335:108,1,192,2|2,0:0|0:3,0:0:0:0:
361,55,133943,2,0,P|405:34|457:42,1,96,2|2,0:0|0:0,0:0:0:0:
510,88,134449,5,2,3:2:0:0:
442,227,134786,1,0,0:0:0:0:
442,227,134954,2,0,B|386:227|386:227|359:242|359:242|296:242,1,144,2|0,0:0|0:0,0:0:0:0:
302,242,135797,6,0,P|345:318|332:373,2,144,2|2|2,0:0|0:0|0:0,0:0:0:0:
172,158,137145,6,0,L|172:42,1,96,2|2,0:0|0:0,0:0:0:0:
100,35,137651,2,0,L|100:131,1,96,2|2,0:0|0:0,0:0:0:0:
222,319,138494,6,0,P|256:254|290:320,1,180.000006866455,2|0,1:2|1:0,0:0:0:0:
375,362,139336,6,0,P|392:297|374:239,1,120,2|2,0:0|0:0,0:0:0:0:
341,151,139842,5,2,1:2:0:0:
449,68,140010,1,2,1:2:0:0:
436,163,140179,1,2,1:2:0:0:
354,53,140348,1,2,1:2:0:0:
334,40,140432,1,0,0:0:0:0:
313,29,140516,1,0,3:0:0:0:
290,22,140600,1,0,3:0:0:0:
266,22,140685,1,0,3:0:0:0:
242,28,140769,1,0,3:0:0:0:
222,39,140853,1,4,3:0:0:0:
168,137,141022,1,2,3:2:0:0:
168,137,141190,6,0,P|138:129|109:133,1,60,6|0,1:3|1:0,0:0:0:0:
0,207,141527,2,0,P|27:215|57:214,1,60,10|0,0:0|0:0,0:0:0:0:
24,58,141864,2,0,P|31:87|29:117,1,60,2|2,0:0|0:3,0:0:0:0:
141,292,142201,2,0,P|134:263|136:234,1,60,10|2,1:2|0:3,0:0:0:0:
337,207,142539,5,2,1:0:0:0:
254,255,142707,1,0,1:0:0:0:
429,233,142876,1,10,0:1:0:0:
474,317,143044,1,2,0:0:0:0:
474,317,143381,2,0,L|483:392,2,60,2|8|2,0:3|0:0|0:0,0:0:0:0:
429,233,143887,6,0,L|421:173,1,60,6|0,1:3|1:0,0:0:0:0:
477,95,144224,1,10,0:0:0:0:
397,41,144392,1,0,0:0:0:0:
334,114,144561,2,0,P|304:107|270:113,1,60,2|2,0:0|0:3,0:0:0:0:
157,186,144898,2,0,P|187:191|217:187,1,60,10|2,1:2|0:3,0:0:0:0:
94,249,145235,5,2,1:2:0:0:
157,186,145404,1,0,1:0:0:0:
113,101,145572,1,10,0:0:0:0:
201,271,145741,1,2,0:3:0:0:
410,315,146078,1,2,0:3:0:0:
355,219,146246,1,10,0:0:0:0:
406,137,146415,1,2,0:0:0:0:
355,219,146583,6,0,P|411:237|473:204,1,120,2|10,1:2|0:0,0:0:0:0:
489,120,147089,2,0,L|459:-25,1,120,2|2,0:0|0:3,0:0:0:0:
368,0,147595,2,0,P|380:29|382:74,1,60,10|2,0:0|0:3,0:0:0:0:
283,108,147932,5,2,1:2:0:0:
283,108,148100,2,0,B|194:101|194:101|221:134,1,120,2|2,1:2|0:3,0:0:0:0:
147,186,148606,2,0,P|161:215|158:256,2,60,2|2|8,0:0|0:3|0:0,0:0:0:0:
72,237,149112,1,2,0:0:0:0:
209,376,149280,6,0,P|241:373|270:358,1,60,2|2,1:2|1:2,0:0:0:0:
161,242,149617,2,0,P|145:271|144:303,1,60,10|0,0:1|0:0,0:0:0:0:
295,265,149954,2,0,P|274:235|234:216,1,60,2|2,0:0|1:3,0:0:0:0:
348,175,150291,1,8,0:1:0:0:
438,206,150460,1,2,0:3:0:0:
485,109,150628,6,0,P|495:66|476:18,2,90,2|2|2,1:2|0:0|0:3,0:0:0:0:
395,71,151303,2,0,L|316:71,1,60,2|0,0:0|1:0,0:0:0:0:
257,127,151640,1,8,0:1:0:0:
183,187,151808,1,2,0:0:0:0:
183,187,151977,6,0,L|219:253,1,60,6|0,1:3|1:0,0:0:0:0:
172,384,152314,2,0,L|203:332,1,60,10|0,0:0|0:0,0:0:0:0:
353,298,152651,2,0,L|293:296,2,60,2|2|10,0:0|0:3|1:2,0:0:0:0:
449,301,153157,1,2,0:3:0:0:
395,191,153325,5,2,1:0:0:0:
494,61,153494,1,0,1:0:0:0:
485,157,153662,1,10,0:1:0:0:
419,0,153831,1,2,0:0:0:0:
419,0,154168,2,0,P|403:29|401:68,1,60,2|8,0:3|0:0,0:0:0:0:
476,143,154505,1,2,0:0:0:0:
476,143,154673,6,0,L|464:201,1,60,6|0,1:3|1:0,0:0:0:0:
387,260,155010,2,0,L|375:318,1,60,10|0,0:0|0:0,0:0:0:0:
286,278,155348,2,0,P|257:276|228:290,1,60,2|2,0:0|0:3,0:0:0:0:
164,359,155685,1,10,1:2:0:0:
256,383,155853,1,2,0:3:0:0:
230,288,156022,6,0,L|224:215,1,60,2|0,1:2|1:0,0:0:0:0:
280,149,156359,1,10,0:0:0:0:
336,72,156527,1,2,0:3:0:0:
62,39,156864,1,2,0:3:0:0:
98,128,157033,1,10,0:0:0:0:
41,205,157201,1,2,0:0:0:0:
98,128,157370,6,0,P|150:132|205:96,1,120,2|10,1:2|0:0,0:0:0:0:
256,177,157876,2,0,L|256:255,1,60,2|0,0:0|0:0,0:0:0:0:
313,320,158213,1,2,0:3:0:0:
313,320,158381,6,0,P|361:285|419:288,1,120,10|2,0:0|1:2,0:0:0:0:
505,332,158887,2,0,L|482:191,1,120,2|2,1:2|0:3,0:0:0:0:
472,118,159392,2,0,B|484:31|484:31|445:57,1,120,2|8,0:0|0:0,0:0:0:0:
376,101,159898,1,2,0:0:0:0:
287,64,160067,5,6,1:2:0:0:
364,7,160235,1,2,1:2:0:0:
376,101,160404,1,10,0:1:0:0:
287,64,160572,1,0,0:0:0:0:
182,141,160741,2,0,P|212:139|241:148,1,60,2|2,0:0|1:3,0:0:0:0:
328,187,161078,1,8,0:1:0:0:
358,277,161246,1,2,0:3:0:0:
281,351,161415,6,0,P|238:359|185:341,2,90,2|2|2,1:2|0:0|0:3,0:0:0:0:
358,277,162089,2,0,P|364:245|358:210,1,60,2|2,3:2|1:0,0:0:0:0:
301,141,162426,1,10,0:1:0:0:
206,108,162595,1,0,0:0:0:0:
206,108,162763,6,0,B|156:144|156:144|88:132,1,120,6|10,1:3|0:0,0:0:0:0:
135,45,163269,1,0,0:0:0:0:
206,108,163437,2,0,P|217:137|208:178,1,60,2|2,0:0|0:3,0:0:0:0:
156,242,163774,2,0,P|150:273|122:302,1,60,10|2,1:2|0:3,0:0:0:0:
53,240,164111,5,2,1:0:0:0:
156,242,164280,1,0,1:0:0:0:
217,322,164448,1,10,0:1:0:0:
308,291,164617,1,2,0:0:0:0:
308,291,164954,2,0,L|315:355,2,60,2|8|2,0:3|0:0|0:0,0:0:0:0:
364,213,165460,6,0,P|393:224|434:214,1,60,6|0,1:3|1:0,0:0:0:0:
504,172,165797,1,10,0:0:0:0:
422,122,165965,1,0,0:0:0:0:
421,220,166134,2,0,L|428:284,1,60,2|2,0:0|0:3,0:0:0:0:
338,316,166471,1,10,1:2:0:0:
256,264,166639,1,2,0:3:0:0:
174,316,166808,6,0,L|167:380,2,60,2|0|10,1:2|1:0|0:0,0:0:0:0:
256,264,167314,1,2,0:3:0:0:
91,164,167651,1,2,0:3:0:0:
150,88,167819,1,10,0:0:0:0:
208,11,167988,1,2,0:0:0:0:
150,88,168156,6,0,P|92:67|34:86,1,120,2|10,1:2|0:0,0:0:0:0:
91,164,168662,2,0,L|82:284,1,120,2|2,0:0|0:3,0:0:0:0:
168,345,169168,2,0,L|175:264,1,60,10|2,0:0|0:3,0:0:0:0:
256,215,169505,5,2,1:2:0:0:
256,215,169673,2,0,B|338:223|338:223|310:183,1,120,2|2,1:2|0:3,0:0:0:0:
383,123,170179,2,0,P|354:71|365:9,1,120,2|8,0:0|0:0,0:0:0:0:
449,53,170684,1,2,0:0:0:0:
383,123,170853,5,2,1:2:0:0:
318,194,171022,1,2,1:2:0:0:
367,275,171190,1,10,0:1:0:0:
288,330,171359,1,0,0:0:0:0:
184,230,171527,2,0,L|243:245,1,60,2|2,0:0|1:3,0:0:0:0:
376,208,171864,2,0,L|317:193,1,60,8|2,0:1|0:3,0:0:0:0:
249,98,172201,6,0,P|206:86|176:53,2,90,2|2|2,1:2|0:0|0:3,0:0:0:0:
335,56,172875,2,0,P|324:28|327:-8,2,60,2|0|8,0:0|1:0|0:1,0:0:0:0:
409,116,173381,1,2,0:0:0:0:
357,197,173550,6,0,L|372:256,1,60,6|0,1:3|1:0,0:0:0:0:
430,270,173887,2,0,L|371:255,1,60,10|0,0:0|0:0,0:0:0:0:
279,284,174224,2,0,L|294:343,1,60,2|2,0:0|0:3,0:0:0:0:
351,356,174561,2,0,L|292:341,1,60,10|2,1:2|0:3,0:0:0:0:
193,246,174898,5,2,1:0:0:0:
67,197,175066,1,0,1:0:0:0:
105,286,175235,1,10,0:1:0:0:
154,155,175404,1,2,0:0:0:0:
154,155,175741,1,2,0:3:0:0:
217,83,175909,2,0,L|290:83,1,60,8|2,0:0|0:0,0:0:0:0:
340,155,176246,6,0,P|374:152|407:163,1,60,6|0,1:3|1:0,0:0:0:0:
360,247,176583,2,0,P|377:278|380:312,1,60,10|0,0:0|0:0,0:0:0:0:
284,309,176920,2,0,P|274:343|253:368,2,60,2|2|10,0:0|0:3|1:2,0:0:0:0:
227,230,177426,1,2,0:3:0:0:
138,267,177595,5,2,1:2:0:0:
187,144,177763,1,0,1:0:0:0:
98,179,177932,1,10,0:0:0:0:
227,230,178100,1,2,0:3:0:0:
475,325,178437,1,2,0:3:0:0:
442,134,178606,1,10,0:0:0:0:
458,229,178774,1,2,0:0:0:0:
424,39,178943,6,0,L|297:20,1,120,2|10,1:2|0:0,0:0:0:0:
220,66,179449,2,0,L|93:47,1,120,2|2,0:0|0:3,0:0:0:0:
27,109,179954,2,0,P|25:141|43:176,1,60,10|2,0:0|0:3,0:0:0:0:
138,229,180291,5,2,1:2:0:0:
138,229,180460,2,0,P|168:282|158:339,1,120,2|2,1:2|0:3,0:0:0:0:
70,299,180965,2,0,P|35:296|11:308,2,60,2|2|8,0:0|0:3|0:0,0:0:0:0:
158,338,181471,1,2,0:0:0:0:
256,242,181639,5,2,1:2:0:0:
411,260,181808,1,2,1:2:0:0:
327,307,181977,1,10,0:1:0:0:
392,167,182145,1,0,0:0:0:0:
364,15,182314,1,2,0:0:0:0:
296,155,182482,1,2,1:3:0:0:
435,79,182651,1,8,0:1:0:0:
279,62,182819,1,2,0:3:0:0:
392,167,182988,6,0,P|438:155|499:185,2,90,2|2|2,1:2|0:0|0:3,0:0:0:0:
389,340,183662,1,2,3:2:0:0:
351,252,183830,1,2,1:0:0:0:
483,357,183999,1,10,0:1:0:0:
483,357,184336,6,0,P|506:292|492:239,2,120,6|10|0,1:2|0:0|0:0,0:0:0:0:
411,292,185179,2,0,L|282:292,1,120,2|2,1:2|0:0,0:0:0:0:
208,341,185685,6,0,L|79:341,1,120,0|8,1:0|0:0,0:0:0:0:
239,229,186359,2,0,L|179:229,1,60,2|0,0:3|1:0,0:0:0:0:
115,156,186696,2,0,L|129:78,1,60,8|0,0:0|0:0,0:0:0:0:
194,30,187033,6,0,P|219:89|207:143,2,120,2|10|0,1:2|0:0|0:0,0:0:0:0:
125,97,187876,2,0,B|133:179|133:179|101:231,1,120,2|2,1:2|0:0,0:0:0:0:
49,283,188382,6,0,P|105:259|160:276,1,120,0|8,1:0|0:0,0:0:0:0:
331,359,189055,2,0,P|331:328|318:298,1,60,2|0,0:3|1:0,0:0:0:0:
415,284,189392,2,0,P|415:253|428:223,1,60,8|0,0:0|0:0,0:0:0:0:
473,142,189730,6,0,B|485:87|485:87|455:18,2,120,2|10|0,1:2|0:0|0:0,0:0:0:0:
388,97,190572,2,0,P|341:123|271:109,1,120,2|2,1:2|0:0,0:0:0:0:
204,50,191078,6,0,P|157:76|87:62,1,120,0|8,1:0|0:0,0:0:0:0:
93,66,191752,2,0,L|111:136,1,60,2|0,0:3|1:0,0:0:0:0:
44,196,192089,2,0,L|58:254,1,60,8|0,0:0|0:0,0:0:0:0:
119,328,192426,6,0,B|66:301|66:301|-7:318,2,120,2|10|0,1:2|0:0|0:0,0:0:0:0:
207,289,193269,2,0,B|255:289|255:289|274:303|274:303|336:303,1,120,2|2,1:2|0:0,0:0:0:0:
405,255,193774,2,0,L|396:212,3,30,0|0|0|0,0:0|0:0|1:0|0:0,0:0:0:0:
407,177,194112,2,0,L|398:134,3,30,10|0|0|0,3:0|3:0|1:0|3:0,0:0:0:0:
374,134,194449,1,2,3:0:0:0:
374,134,194533,1,0,3:0:0:0:
374,134,194617,1,0,1:0:0:0:
374,134,194701,1,0,3:0:0:0:
374,134,194786,2,0,L|381:74,1,60,8|0,3:2|0:0,0:0:0:0:
256,170,195123,6,0,P|214:147|153:156,2,96,6|2|0,0:0|0:3|0:0,0:0:0:0:
295,237,195965,1,2,0:0:0:0:
377,112,196303,1,2,0:0:0:0:
377,112,196471,6,0,P|418:89|465:91,2,96,0|2|2,0:0|0:0|0:3,0:0:0:0:
256,16,197482,1,0,0:0:0:0:
135,112,197819,6,0,P|93:89|46:91,2,96,2|2|0,0:0|0:0|0:0,0:0:0:0:
188,166,198661,1,2,0:0:0:0:
129,310,198999,1,2,0:0:0:0:
129,310,199168,6,0,L|71:212,2,96,0|0|2,0:0|0:0|0:3,0:0:0:0:
256,224,200179,1,0,0:0:0:0:
383,310,200516,6,0,L|441:212,2,96,2|2|0,0:0|0:0|0:0,0:0:0:0:
343,370,201359,1,2,0:0:0:0:
260,247,201696,1,2,0:0:0:0:
260,247,201864,6,0,P|262:200|225:153,2,96,0|0|2,0:0|0:0|0:0,0:0:0:0:
174,374,202876,1,2,0:0:0:0:
49,284,203213,5,2,0:0:0:0:
49,284,203550,1,2,0:0:0:0:
463,284,204055,1,2,0:0:0:0:
463,284,204392,1,2,0:0:0:0:
256,192,204898,5,2,0:0:0:0:
256,192,205235,1,2,0:0:0:0:
