osu file format v14

[General]
AudioFilename: audio.mp3
AudioLeadIn: 0
PreviewTime: 54730
Countdown: 0
SampleSet: Soft
StackLeniency: 0.3
Mode: 0
LetterboxInBreaks: 0
WidescreenStoryboard: 1

[Editor]
Bookmarks: 138494,200516,203213
DistanceSpacing: 1.2
BeatDivisor: 2
GridSize: 8
TimelineZoom: 1

[Metadata]
Title:chameleon
TitleUnicode:chameleon
Artist:nana(Sevencolors)
ArtistUnicode:nana(Sevencolors)
Creator:RVMathew
Version:Hard
Source:
Tags:Renumi 鹿乃 Kano 有坂あこ Arisaka Aco TechnoBreakerz Techno Breakerz feat. featuring 初音ミク Hatsune Miku Append Sweet Dance VOCALOMUSIC ★ Volume Vol. 02 -Funky Drum'n'Bass- and & DnB Works 2010-2011 Best Vocaloid Pop Electronic Japanese
BeatmapID:2188427
BeatmapSetID:1046876

[Difficulty]
HPDrainRate:5
CircleSize:4.2
OverallDifficulty:6
ApproachRate:7
SliderMultiplier:1.1
SliderTickRate:1

[Events]
//Background and Video events
0,0,"stretched-1920-1080-689941.jpg",0,0
//Break Periods
2,76471,86358
//Storyboard Layer 0 (Background)
//Storyboard Layer 1 (Fail)
//Storyboard Layer 2 (Pass)
//Storyboard Layer 3 (Foreground)
//Storyboard Layer 4 (Overlay)
//Storyboard Sound Samples

[TimingPoints]
966,337.078651685393,4,2,1,60,1,0
22539,-111.111111111111,4,2,2,60,0,0
22623,-111.111111111111,4,2,1,60,0,0
33325,-105.263157894737,4,2,2,60,0,0
33409,-105.263157894737,4,2,1,60,0,0
43100,-105.263157894737,4,2,1,30,0,0
43185,-105.263157894737,4,2,1,32,0,0
43269,-105.263157894737,4,2,1,36,0,0
43353,-105.263157894737,4,2,1,38,0,0
43437,-105.263157894737,4,2,1,40,0,0
43522,-105.263157894737,4,2,1,42,0,0
43606,-105.263157894737,4,2,1,46,0,0
43690,-105.263157894737,4,2,1,48,0,0
43774,-105.263157894737,4,2,1,54,0,0
43859,-105.263157894737,4,2,1,52,0,0
43943,-105.263157894737,4,2,1,50,0,0
44027,-105.263157894737,4,2,1,48,0,0
44112,-100,4,2,1,60,0,0
52201,-117.647058823529,4,2,1,60,0,0
52539,-117.647058823529,4,2,3,60,0,0
52623,-117.647058823529,4,2,1,60,0,0
53044,-100,4,2,1,60,0,0
53550,-100,4,2,1,60,0,0
54224,-100,4,2,1,30,0,0
54308,-100,4,2,1,34,0,0
54392,-100,4,2,1,38,0,0
54477,-100,4,2,1,42,0,0
54561,-100,4,2,1,46,0,0
54730,-100,4,2,1,30,0,0
54898,-100,4,2,1,60,0,1
60291,-100,4,2,2,60,0,1
62988,-100,4,2,1,60,0,1
65516,-100,4,2,1,60,0,0
65685,-100,4,2,1,60,0,1
71078,-100,4,2,2,60,0,1
73774,-100,4,2,1,60,0,1
75797,-100,4,2,1,60,0,1
75881,-100,4,2,1,60,0,1
75965,-100,4,2,1,60,0,1
76050,-100,4,2,1,60,0,1
76134,-100,4,2,1,60,0,1
76218,-100,4,2,1,60,0,1
76303,-100,4,2,1,60,0,1
76387,-100,4,2,1,60,0,1
76471,-100,4,2,1,60,0,0
87258,-111.111111111111,4,2,1,60,0,0
96949,-111.111111111111,4,2,1,30,0,0
97033,-111.111111111111,4,2,1,34,0,0
97117,-111.111111111111,4,2,1,36,0,0
97201,-111.111111111111,4,2,1,40,0,0
97286,-111.111111111111,4,2,1,42,0,0
97370,-111.111111111111,4,2,1,44,0,0
97454,-111.111111111111,4,2,1,42,0,0
97539,-111.111111111111,4,2,1,40,0,0
97623,-111.111111111111,4,2,1,38,0,0
97707,-111.111111111111,4,2,1,42,0,0
97791,-111.111111111111,4,2,1,38,0,0
97876,-111.111111111111,4,2,1,36,0,0
97960,-111.111111111111,4,2,1,34,0,0
98044,-105.263157894737,4,2,1,60,0,0
105965,-133.333333333333,4,2,1,60,0,0
106471,-133.333333333333,4,2,3,60,0,0
106555,-133.333333333333,4,2,1,60,0,0
107482,-133.333333333334,4,2,1,60,0,0
107567,-133.333333333334,4,2,1,49,0,0
107651,-133.333333333334,4,2,1,38,0,0
107735,-133.333333333334,4,2,1,25,0,0
107819,-133.333333333334,4,2,1,25,0,0
108157,-133.333333333334,4,2,1,15,0,0
108241,-133.333333333334,4,2,1,26,0,0
108325,-133.333333333334,4,2,1,38,0,0
108409,-133.333333333334,4,2,1,49,0,0
108494,-133.333333333334,4,2,1,60,0,0
108831,-100,4,2,1,60,0,0
129055,-100,4,2,1,30,0,0
129140,-100,4,2,1,32,0,0
129224,-100,4,2,1,36,0,0
129392,-100,4,2,1,38,0,0
129477,-100,4,2,1,40,0,0
129561,-100,4,2,1,44,0,0
129645,-100,4,2,1,46,0,0
129730,-100,4,2,1,50,0,0
129814,-100,4,2,1,54,0,0
129898,-100,4,2,1,58,0,0
129982,-100,4,2,1,60,0,0
130067,-100,4,2,1,64,0,0
130151,-100,4,2,1,60,0,0
130235,-100,4,2,1,54,0,0
130319,-100,4,2,1,50,0,0
130404,-117.647058823529,4,2,1,60,0,0
138494,-117.647058823529,4,2,1,60,0,0
138831,-117.647058823529,4,2,3,60,0,0
138915,-117.647058823529,4,2,1,60,0,0
139336,-100,4,2,1,60,0,0
140516,-100,4,2,1,30,0,0
140600,-100,4,2,1,34,0,0
140685,-100,4,2,1,38,0,0
140769,-100,4,2,1,42,0,0
140853,-100,4,2,1,46,0,0
141022,-100,4,2,1,30,0,0
141190,-100,4,2,1,60,0,1
146583,-100,4,2,2,60,0,1
149280,-100,4,2,1,60,0,1
151808,-100,4,2,1,60,0,0
151977,-100,4,2,1,60,0,1
157370,-100,4,2,2,60,0,1
160067,-100,4,2,1,60,0,1
162089,-100,4,2,1,60,0,1
162173,-100,4,2,1,60,0,1
162258,-100,4,2,1,60,0,1
162342,-100,4,2,1,60,0,1
162426,-100,4,2,1,60,0,1
162510,-100,4,2,1,60,0,1
162595,-100,4,2,1,60,0,0
162679,-100,4,2,1,60,0,0
162763,-100,4,2,1,60,0,1
168157,-100,4,2,2,60,0,1
170853,-100,4,2,1,60,0,1
173381,-100,4,2,1,60,0,0
173550,-100,4,2,1,60,0,1
178943,-100,4,2,2,60,0,1
181640,-100,4,2,1,60,0,1
183662,-100,4,2,1,60,0,1
183746,-100,4,2,1,60,0,1
183831,-100,4,2,1,60,0,1
183915,-100,4,2,1,60,0,1
183999,-100,4,2,1,60,0,1
184083,-100,4,2,1,60,0,1
184168,-100,4,2,1,60,0,1
184252,-100,4,2,1,60,0,1
184336,-100,4,2,1,60,0,0
193943,-100,4,2,1,60,0,0
194027,-100,4,2,1,60,0,0
194112,-100,4,2,1,60,0,0
194196,-100,4,2,1,60,0,0
194280,-100,4,2,1,60,0,0
194364,-100,4,2,1,60,0,0
194449,-100,4,2,1,60,0,0
194533,-100,4,2,1,60,0,0
194617,-100,4,2,1,60,0,0
194701,-100,4,2,1,60,0,0
194786,-100,4,2,1,60,0,0
194954,-100,4,2,1,60,0,0
195123,-111.111111111111,4,2,1,60,0,0
195207,-111.111111111111,4,2,1,60,0,0
195460,-111.111111111111,4,2,1,50,0,0
200516,-111.111111111111,4,2,1,40,0,0
203213,-111.111111111111,4,2,1,30,0,0
204898,-111.111111111111,4,2,1,15,0,0
205235,-111.111111111111,4,2,1,10,0,0

[Colours]
Combo1 : 255,255,0
Combo2 : 111,111,111
Combo3 : 255,0,128
Combo4 : 128,0,255
Combo5 : 0,255,255
Combo6 : 183,183,183

[HitObjects]
256,192,19842,12,0,22201,0:0:0:0:
469,39,22539,5,6,0:0:0:0:
422,96,22707,1,2,0:0:0:0:
475,148,22876,2,0,P|486:177|483:210,2,49.4999984893799,2|2|0,0:3|0:0|0:0,0:0:0:0:
422,96,23381,1,2,0:3:0:0:
294,32,23718,1,2,0:3:0:0:
294,32,23887,6,0,L|314:140,1,98.9999969787599,2|0,0:0|0:0,0:0:0:0:
263,185,24392,2,0,L|245:282,1,98.9999969787599,2|0,0:0|0:0,0:0:0:0:
257,356,24898,1,2,0:0:0:0:
129,280,25235,5,2,0:0:0:0:
74,330,25404,1,2,0:0:0:0:
21,278,25572,2,0,P|7:252|10:219,2,49.4999984893799,2|2|0,0:3|0:0|0:0,0:0:0:0:
74,330,26078,1,2,0:3:0:0:
182,228,26415,1,2,0:3:0:0:
235,176,26583,6,0,P|239:127|207:81,1,98.9999969787599,2|0,0:0|0:0,0:0:0:0:
150,47,27089,2,0,P|100:43|55:76,1,98.9999969787599,2|0,0:0|0:0,0:0:0:0:
11,126,27595,1,2,0:0:0:0:
92,250,27932,5,2,0:0:0:0:
152,293,28100,1,2,0:0:0:0:
204,240,28269,2,0,P|214:213|212:182,2,49.4999984893799,2|2|0,0:3|0:0|0:0,0:0:0:0:
152,293,28774,1,2,0:3:0:0:
289,351,29112,1,2,0:3:0:0:
346,304,29280,6,0,P|395:313|451:276,1,98.9999969787599,2|0,0:0|0:0,0:0:0:0:
489,238,29786,2,0,L|477:125,1,98.9999969787599,2|0,0:0|0:0,0:0:0:0:
470,66,30291,1,2,0:0:0:0:
329,19,30628,5,2,0:0:0:0:
277,72,30797,1,2,0:0:0:0:
316,135,30965,2,0,P|321:160|316:189,1,49.4999984893799,2|2,0:3|0:0,0:0:0:0:
388,209,31303,2,0,P|383:234|388:263,1,49.4999984893799,2|2,0:0|0:0,0:0:0:0:
317,285,31640,2,0,P|322:310|317:339,1,49.4999984893799,0|2,0:0|0:0,0:0:0:0:
249,361,31977,6,0,P|205:338|156:348,1,98.9999969787599,2|0,0:0|0:0,0:0:0:0:
102,299,32482,2,0,P|54:307|11:284,1,98.9999969787599,2|0,0:0|0:0,0:0:0:0:
66,234,32988,1,2,0:0:0:0:
66,234,33325,5,6,1:2:0:0:
55,156,33494,1,0,0:0:0:0:
110,100,33662,2,0,P|143:109|185:107,1,52.2499986047745,10|2,0:0|0:0,0:0:0:0:
235,82,33999,1,0,0:0:0:0:
174,32,34168,1,2,1:2:0:0:
174,32,34505,1,2,0:0:0:0:
160,109,34673,6,0,B|179:221,1,104.499997209549,2|10,1:0|0:0,0:0:0:0:
228,272,35179,2,0,P|273:293|332:281,1,104.499997209549,2|2,0:1|1:2,0:0:0:0:
397,251,35685,1,10,0:1:0:0:
363,97,36022,5,2,1:3:0:0:
434,129,36190,1,0,0:0:0:0:
483,68,36359,2,0,L|474:9,2,52.2499986047745,10|2|0,0:0|0:0|0:0,0:0:0:0:
434,129,36864,1,2,1:2:0:0:
502,269,37201,1,2,0:0:0:0:
502,269,37370,6,0,P|458:241|395:252,1,104.499997209549,2|10,1:0|0:0,0:0:0:0:
347,296,37876,2,0,P|295:291|252:319,1,104.499997209549,2|2,0:1|1:2,0:0:0:0:
197,375,38381,1,10,0:1:0:0:
57,304,38718,5,2,1:3:0:0:
129,272,38887,1,0,0:0:0:0:
159,200,39055,2,0,P|164:166|154:130,1,52.2499986047745,10|2,0:0|0:0,0:0:0:0:
150,71,39392,1,0,0:0:0:0:
88,119,39561,1,2,1:2:0:0:
88,119,39898,1,2,0:0:0:0:
161,148,40067,6,0,L|272:148,1,104.499997209549,2|10,1:0|0:0,0:0:0:0:
321,203,40572,2,0,L|432:203,1,104.499997209549,2|2,0:1|1:2,0:0:0:0:
494,165,41078,1,10,0:1:0:0:
421,26,41415,5,2,1:3:0:0:
451,98,41583,1,0,0:0:0:0:
373,88,41752,2,0,P|370:120|380:152,1,52.2499986047745,10|2,0:0|0:0,0:0:0:0:
300,165,42089,2,0,P|304:190|301:216,2,52.2499986047745,2|2|8,0:3|1:3|0:0,0:0:0:0:
236,119,42595,6,0,P|184:104|127:120,3,104.499997209549,2|2|2|2,1:3|1:0|1:0|1:0,0:0:0:0:
136,115,44112,6,0,P|168:172|149:232,1,110,6|8,1:2|0:0,0:0:0:0:
136,292,44617,2,0,L|245:284,1,110,2|2,0:0|1:3,0:0:0:0:
317,327,45123,1,10,0:0:0:0:
414,193,45460,5,2,1:3:0:0:
329,57,45797,1,8,0:0:0:0:
329,57,45965,2,0,P|354:110|339:169,1,110,2|2,0:0|1:2,0:0:0:0:
281,211,46471,1,8,0:0:0:0:
134,135,46808,6,0,P|74:132|20:176,2,110,2|8|2,1:2|0:0|0:3,0:0:0:0:
203,180,47651,1,2,1:3:0:0:
203,180,47988,1,0,0:0:0:0:
183,261,48157,6,0,B|164:314|164:314|223:291,1,110,2|8,1:2|0:0,0:0:0:0:
296,294,48662,2,0,B|346:313|346:313|327:260,1,110,2|0,0:0|1:0,0:0:0:0:
309,180,49168,1,8,0:0:0:0:
309,180,49505,6,0,P|293:125|316:68,1,110,6|8,1:2|0:0,0:0:0:0:
372,130,50010,2,0,B|453:130|453:130|425:163,1,110,2|2,0:0|1:3,0:0:0:0:
383,217,50516,1,10,0:0:0:0:
256,323,50853,5,2,1:3:0:0:
133,221,51190,1,8,0:0:0:0:
133,221,51359,2,0,P|152:162|125:97,1,110,2|2,0:0|1:2,0:0:0:0:
100,45,51864,1,8,0:0:0:0:
100,45,52201,6,0,B|158:78|158:78|217:62|217:62|274:91,1,187.000003566742,2|0,1:2|1:0,0:0:0:0:
343,128,53044,6,0,P|353:77|319:22,1,110,2|2,0:0|0:0,0:0:0:0:
270,88,53550,6,0,P|270:166|301:199,1,110,2|2,1:2|1:2,0:0:0:0:
346,247,54055,2,0,L|331:300,1,55,2|0,1:2|3:0,0:0:0:0:
402,342,54392,2,0,L|417:289,1,55,0|4,3:0|3:0,0:0:0:0:
495,255,54730,1,2,3:2:0:0:
495,255,54898,6,0,P|497:198|475:152,1,110,6|10,1:3|0:0,0:0:0:0:
408,102,55404,1,0,0:0:0:0:
331,133,55572,2,0,P|302:122|261:131,1,55,2|2,0:0|0:3,0:0:0:0:
293,205,55909,2,0,P|262:211|233:239,1,55,10|2,1:2|0:3,0:0:0:0:
298,287,56246,6,0,P|313:309|317:336,1,55,2|0,1:0|1:0,0:0:0:0:
248,382,56583,1,10,0:1:0:0:
167,365,56752,1,2,0:0:0:0:
56,243,57089,2,0,P|31:247|-7:237,2,55,2|8|2,0:3|0:0|0:0,0:0:0:0:
120,191,57595,6,0,P|124:161|116:120,1,55,6|0,1:3|1:0,0:0:0:0:
183,82,57932,1,10,0:0:0:0:
256,120,58100,1,0,0:0:0:0:
329,81,58269,2,0,P|356:78|383:82,1,55,2|2,0:0|0:3,0:0:0:0:
464,102,58606,1,10,1:2:0:0:
441,23,58774,1,2,0:3:0:0:
383,82,58943,6,0,L|390:140,1,55,2|0,1:2|1:0,0:0:0:0:
327,191,59280,1,10,0:0:0:0:
362,265,59449,1,2,0:3:0:0:
362,265,59786,2,0,P|389:260|417:265,2,55,2|10|2,0:3|0:0|0:0,0:0:0:0:
297,315,60291,6,0,P|243:304|184:334,1,110,2|10,1:2|0:0,0:0:0:0:
140,262,60797,2,0,P|90:283|37:272,1,110,2|2,0:0|0:3,0:0:0:0:
82,203,61303,1,10,0:0:0:0:
82,203,61640,5,2,1:2:0:0:
23,146,61808,2,0,B|8:33,1,110,2|2,1:2|0:3,0:0:0:0:
87,11,62314,2,0,B|101:120,1,110,2|8,0:0|0:0,0:0:0:0:
172,172,62819,1,2,0:0:0:0:
172,172,62988,6,0,P|201:181|235:175,1,55,2|2,1:2|1:2,0:0:0:0:
291,128,63325,2,0,P|302:103|323:85,1,55,10|0,0:1|0:0,0:0:0:0:
367,154,63662,2,0,P|358:207|384:271,1,110,2|8,0:0|0:1,0:0:0:0:
426,325,64168,1,2,0:3:0:0:
355,367,64336,6,0,P|307:364|260:399,2,82.5,2|2|2,1:2|0:0|0:3,0:0:0:0:
426,325,65010,2,0,P|458:332|493:327,2,55,2|0|8,0:0|1:0|0:1,0:0:0:0:
375,259,65516,1,2,0:0:0:0:
425,193,65685,6,0,P|426:165|419:139,1,55,6|0,1:3|1:0,0:0:0:0:
348,97,66022,2,0,P|323:109|304:128,1,55,10|0,0:0|0:0,0:0:0:0:
244,186,66359,2,0,P|224:166|200:154,2,55,2|2|10,0:0|0:3|1:2,0:0:0:0:
285,257,66864,1,2,0:3:0:0:
241,327,67033,6,0,L|177:320,1,55,2|0,1:0|1:0,0:0:0:0:
114,361,67370,1,10,0:1:0:0:
38,330,67538,1,2,0:0:0:0:
174,236,67876,2,0,L|228:241,2,55,2|8|2,0:3|0:0|0:0,0:0:0:0:
98,204,68381,6,0,P|64:207|31:196,1,55,6|0,1:3|1:0,0:0:0:0:
77,126,68718,2,0,P|60:95|57:61,1,55,10|0,0:0|0:0,0:0:0:0:
139,71,69055,2,0,P|149:37|170:12,2,55,2|2|10,0:0|0:3|1:2,0:0:0:0:
204,122,69561,1,2,0:3:0:0:
281,92,69730,6,0,L|344:92,1,55,2|0,1:2|1:0,0:0:0:0:
384,160,70067,1,10,0:0:0:0:
462,134,70235,1,2,0:3:0:0:
462,134,70572,2,0,P|458:105|468:78,2,55,2|10|2,0:3|0:0|0:0,0:0:0:0:
502,206,71078,6,0,L|519:322,1,110,2|10,1:2|0:0,0:0:0:0:
450,361,71583,2,0,P|395:369|339:334,1,110,2|2,0:0|0:3,0:0:0:0:
410,290,72089,1,10,0:0:0:0:
410,290,72426,5,2,1:2:0:0:
358,226,72595,2,0,P|346:173|368:121,1,110,2|2,1:2|0:3,0:0:0:0:
420,61,73100,2,0,P|370:83|308:71,1,110,2|8,0:0|0:0,0:0:0:0:
259,23,73606,1,2,0:0:0:0:
259,23,73774,6,0,L|197:23,1,55,6|2,1:2|1:2,0:0:0:0:
143,80,74112,2,0,L|81:80,1,55,10|0,0:1|0:0,0:0:0:0:
25,134,74449,2,0,P|14:187|53:246,1,110,2|8,0:0|0:1,0:0:0:0:
101,288,74954,1,2,0:3:0:0:
175,251,75123,6,0,P|218:245|265:269,2,82.5,2|2|2,1:2|0:0|0:3,0:0:0:0:
101,288,75797,1,2,3:2:0:0:
169,334,75965,1,2,1:0:0:0:
239,378,76134,1,10,0:1:0:0:
26,192,87258,6,0,L|125:192,1,98.9999969787599,6|10,1:2|0:0,0:0:0:0:
347,192,88100,1,2,1:2:0:0:
347,192,88437,6,0,L|248:192,1,98.9999969787599,2|0,0:0|1:0,0:0:0:0:
147,82,89112,2,0,L|267:82,1,98.9999969787599,2|2,0:3|0:3,0:0:0:0:
314,111,89617,2,0,P|325:139|324:171,1,49.4999984893799,10|2,0:0|0:0,0:0:0:0:
277,214,89954,6,0,P|303:266|296:321,1,98.9999969787599,2|10,1:2|0:0,0:0:0:0:
86,366,90797,1,2,1:2:0:0:
86,366,91134,6,0,P|60:314|73:260,2,98.9999969787599,2|0|2,0:0|0:0|0:3,0:0:0:0:
133,308,91977,2,0,P|161:313|195:305,1,49.4999984893799,2|2,0:0|0:3,0:0:0:0:
241,265,92314,1,10,0:0:0:0:
241,265,92651,6,0,L|254:152,1,98.9999969787599,2|10,1:2|0:0,0:0:0:0:
444,54,93494,1,2,1:2:0:0:
444,54,93831,6,0,L|432:152,2,98.9999969787599,2|0|2,0:0|0:0|0:3,0:0:0:0:
352,170,94842,2,0,L|358:115,2,49.4999984893799,2|10|2,0:3|0:0|0:0,0:0:0:0:
337,243,95348,6,0,P|289:232|241:245,1,98.9999969787599,2|10,1:2|0:0,0:0:0:0:
68,105,96190,6,0,P|71:65|112:18,2,98.9999969787599,2|2|2,1:2|0:0|0:0,0:0:0:0:
77,257,97201,1,2,3:0:0:0:
77,257,97370,2,0,L|130:257,1,49.4999984893799,2|2,3:0|3:3,0:0:0:0:
196,230,97707,1,10,0:0:0:0:
196,230,98044,6,0,P|249:224|301:263,2,104.499997209549,6|10|0,1:0|0:0|0:0,0:0:0:0:
232,300,98887,1,2,1:3:0:0:
291,249,99055,2,0,L|284:186,1,52.2499986047745,10|2,0:0|0:3,0:0:0:0:
348,150,99392,6,0,P|359:99|404:64,1,104.499997209549,0|8,1:0|0:0,0:0:0:0:
425,140,99898,2,0,L|437:253,1,104.499997209549,2|2,0:0|1:2,0:0:0:0:
436,243,100572,6,0,P|360:243|313:184,1,156.749995814324,2|10,0:0|0:0,0:0:0:0:
106,295,101583,2,0,P|155:278|210:308,1,104.499997209549,2|2,1:3|0:3,0:0:0:0:
266,342,102089,6,0,L|245:226,1,104.499997209549,0|8,1:0|0:0,0:0:0:0:
290,173,102595,2,0,L|269:57,1,104.499997209549,2|2,0:0|1:2,0:0:0:0:
207,24,103100,1,8,0:0:0:0:
207,24,103437,6,0,P|150:45|97:24,2,104.499997209549,2|10|0,1:3|0:0|0:0,0:0:0:0:
271,70,104280,2,0,P|301:66|338:76,2,52.2499986047745,2|10|2,1:3|0:0|0:3,0:0:0:0:
220,130,104786,6,0,L|243:249,1,104.499997209549,0|8,1:0|0:0,0:0:0:0:
255,309,105291,2,0,L|306:317,1,52.2499986047745,2|2,0:0|0:3,0:0:0:0:
376,280,105628,2,0,L|427:289,1,52.2499986047745,2|8,1:2|0:0,0:0:0:0:
487,238,105965,6,0,P|492:129|363:72,1,247.500009441376,2|2,0:0|1:3,0:0:0:0:
280,137,107314,1,2,3:0:0:0:
280,137,107482,6,0,B|238:137|238:137|196:120,1,82.5000031471254,2|2,0:0|0:0,0:0:0:0:
125,220,108157,2,0,B|87:204|87:204|45:204,1,82.5000031471254,2|10,0:0|0:0,0:0:0:0:
46,204,108831,5,6,1:2:0:0:
87,132,109000,1,0,0:0:0:0:
164,159,109168,2,0,P|196:162|221:144,1,55,10|0,0:0|0:0,0:0:0:0:
256,79,109505,1,2,0:0:0:0:
297,151,109674,1,2,1:3:0:0:
297,151,110011,1,2,0:3:0:0:
335,224,110179,6,0,B|458:224,1,110,2|8,1:2|0:0,0:0:0:0:
501,163,110685,2,0,P|505:114|474:63,1,110,2|2,0:0|1:2,0:0:0:0:
401,26,111190,1,10,0:0:0:0:
256,104,111527,5,2,1:2:0:0:
214,175,111696,1,0,0:0:0:0:
256,246,111864,2,0,P|283:248|322:223,2,55,10|0|2,0:0|0:0|0:0,0:0:0:0:
214,175,112370,1,2,1:3:0:0:
106,300,112707,1,2,0:0:0:0:
106,300,112875,6,0,P|79:253|87:196,1,110,2|8,1:2|0:0,0:0:0:0:
153,152,113381,2,0,P|146:98|173:51,1,110,2|2,0:0|1:2,0:0:0:0:
228,114,113887,1,10,0:0:0:0:
381,52,114224,5,2,1:2:0:0:
440,110,114393,1,0,0:0:0:0:
406,185,114561,2,0,L|418:249,1,55,10|0,0:0|0:0,0:0:0:0:
432,320,114898,1,2,0:0:0:0:
370,375,115067,1,2,1:3:0:0:
370,375,115404,1,2,0:3:0:0:
292,349,115572,6,0,B|211:349|211:349|246:318,1,110,2|8,1:2|0:0,0:0:0:0:
281,262,116078,2,0,P|296:213|265:152,1,110,2|2,0:0|1:2,0:0:0:0:
225,94,116584,1,10,0:0:0:0:
369,13,116921,5,2,1:2:0:0:
425,73,117089,1,0,0:0:0:0:
425,73,117258,2,0,P|419:107|429:143,1,55,10|0,0:0|0:0,0:0:0:0:
349,165,117595,2,0,P|355:199|345:235,1,55,2|2,0:0|1:3,0:0:0:0:
291,275,117932,1,10,0:0:0:0:
332,352,118100,1,2,0:3:0:0:
332,352,118269,6,0,P|392:356|434:327,1,110,2|8,1:2|0:0,0:0:0:0:
485,267,118774,2,0,L|475:147,1,110,2|2,0:0|1:2,0:0:0:0:
420,96,119280,1,10,0:0:0:0:
420,96,119617,5,6,1:2:0:0:
345,131,119786,1,0,0:0:0:0:
279,82,119954,2,0,P|280:52|266:18,1,55,10|0,0:0|0:0,0:0:0:0:
191,13,120291,1,2,0:0:0:0:
126,64,120460,1,2,1:3:0:0:
264,163,120797,1,2,0:3:0:0:
264,163,120965,6,0,B|252:219|252:219|276:270,1,110,2|8,1:2|0:0,0:0:0:0:
344,312,121471,2,0,B|356:256|356:256|332:205,1,110,2|2,0:0|1:2,0:0:0:0:
274,266,121977,1,10,0:0:0:0:
127,191,122314,5,2,1:2:0:0:
59,145,122482,1,0,0:0:0:0:
101,74,122651,2,0,P|102:44|90:8,2,55,10|0|2,0:0|0:0|0:0,0:0:0:0:
59,145,123157,1,2,1:3:0:0:
105,308,123494,1,2,0:3:0:0:
105,308,123662,6,0,P|157:296|210:322,1,110,2|8,1:2|0:0,0:0:0:0:
273,269,124168,2,0,P|322:291|374:279,1,110,2|2,0:0|1:2,0:0:0:0:
439,228,124673,1,10,0:0:0:0:
474,66,125010,5,2,1:2:0:0:
419,128,125179,1,0,0:0:0:0:
419,128,125348,2,0,P|389:119|343:130,1,55,10|0,0:0|0:0,0:0:0:0:
306,178,125685,2,0,P|278:179|252:170,1,55,2|2,0:0|1:3,0:0:0:0:
253,170,126190,1,2,0:3:0:0:
183,215,126359,6,0,B|107:215|107:215|131:243,1,110,2|8,1:2|0:0,0:0:0:0:
178,307,126864,2,0,P|215:327|289:307,1,110,2|2,0:0|1:2,0:0:0:0:
354,280,127370,1,10,0:0:0:0:
508,338,127707,5,2,1:3:0:0:
434,302,127875,1,0,0:0:0:0:
464,225,128044,2,0,P|461:193|469:161,1,55,10|0,0:0|0:0,0:0:0:0:
399,121,128381,2,0,P|403:93|400:63,2,55,2|2|10,0:0|1:3|0:0,0:0:0:0:
320,146,128887,6,0,P|261:139|209:172,1,110,2|2,1:3|1:2,0:0:0:0:
181,323,129561,2,0,P|240:330|292:297,1,110,2|2,1:2|1:2,0:0:0:0:
345,252,130067,1,10,0:0:0:0:
345,252,130404,6,0,B|374:341|374:341|414:370,2,140.250002675057,6|2|2,0:0|0:0|0:0,0:0:0:0:
231,170,131752,6,0,L|264:271,1,93.500001783371,2|2,0:0|0:0,0:0:0:0:
281,326,132258,2,0,L|180:293,1,93.500001783371,2|2,0:0|0:0,0:0:0:0:
0,211,133100,6,0,P|88:227|149:162,1,187.000003566742,2|2,0:0|0:3,0:0:0:0:
123,98,133943,2,0,P|165:119|226:110,1,93.500001783371,2|2,0:0|0:0,0:0:0:0:
256,63,134449,5,2,3:2:0:0:
309,198,134786,1,0,0:0:0:0:
309,198,134954,2,0,B|363:198|363:198|395:180|395:180|445:180,1,140.250002675057,2|0,0:0|0:0,0:0:0:0:
388,51,135797,6,0,P|467:6|528:21,2,140.250002675057,2|2|2,0:0|0:0|0:0,0:0:0:0:
252,17,137145,6,0,L|269:116,1,93.500001783371,2|2,0:0|0:0,0:0:0:0:
233,170,137651,2,0,L|250:269,1,93.500001783371,2|2,0:0|0:0,0:0:0:0:
249,262,138494,6,0,P|155:249|212:207,1,187.000003566742,2|0,1:2|1:0,0:0:0:0:
250,178,139336,6,0,P|257:115|231:68,1,110,2|2,0:0|0:0,0:0:0:0:
161,42,139842,6,0,P|103:41|60:78,1,110,2|2,1:2|1:2,0:0:0:0:
25,145,140348,2,0,L|39:197,1,55,2|0,1:2|3:0,0:0:0:0:
115,232,140685,2,0,L|129:284,1,55,0|4,3:0|3:0,0:0:0:0:
198,340,141022,1,2,3:2:0:0:
198,340,141190,6,0,P|174:354|128:353,2,55,6|0|10,1:3|1:0|0:0,0:0:0:0:
256,281,141696,1,0,0:0:0:0:
313,340,141864,2,0,P|363:353|424:327,1,110,2|10,0:0|1:2,0:0:0:0:
475,275,142370,1,2,0:3:0:0:
424,210,142539,6,0,P|431:182|420:139,1,55,2|0,1:0|1:0,0:0:0:0:
396,85,142876,1,10,0:1:0:0:
396,85,143044,1,2,0:0:0:0:
247,157,143381,2,0,P|218:164|176:160,2,55,2|8|2,0:3|0:0|0:0,0:0:0:0:
210,83,143887,6,0,P|209:54|195:26,1,55,6|0,1:3|1:0,0:0:0:0:
128,74,144224,1,10,0:0:0:0:
210,83,144392,1,0,0:0:0:0:
286,51,144561,2,0,P|316:44|350:50,1,55,2|2,0:0|0:3,0:0:0:0:
320,127,144898,2,0,P|343:140|362:160,1,55,10|2,1:2|0:3,0:0:0:0:
393,237,145235,6,0,P|385:272|391:304,2,55,2|0|10,1:2|1:0|0:0,0:0:0:0:
450,177,145741,1,2,0:3:0:0:
450,177,146078,2,0,L|444:119,2,55,2|10|2,0:3|0:0|0:0,0:0:0:0:
393,237,146583,6,0,B|339:247|339:247|284:217,1,110,2|10,1:2|0:0,0:0:0:0:
221,176,147089,2,0,P|248:230|237:286,1,110,2|2,0:0|0:3,0:0:0:0:
196,347,147595,1,10,0:0:0:0:
196,347,147932,5,2,1:2:0:0:
123,309,148100,2,0,B|6:309,1,110,2|2,1:2|0:3,0:0:0:0:
40,231,148606,2,0,B|150:231,1,110,2|8,0:0|0:0,0:0:0:0:
208,172,149112,1,2,0:0:0:0:
208,172,149280,6,0,P|239:171|269:186,1,55,2|2,1:2|1:2,0:0:0:0:
317,119,149617,2,0,P|342:128|369:126,1,55,10|0,0:1|0:0,0:0:0:0:
418,194,149954,2,0,P|426:226|454:256,1,55,2|2,0:0|1:3,0:0:0:0:
364,279,150291,2,0,P|355:311|327:341,1,55,8|2,0:1|0:3,0:0:0:0:
281,274,150628,6,0,P|237:280|192:257,2,82.5,2|2|2,1:2|0:0|0:3,0:0:0:0:
252,196,151303,2,0,P|247:168|255:132,2,55,2|0|8,0:0|1:0|0:1,0:0:0:0:
330,172,151808,1,2,0:0:0:0:
391,228,151977,6,0,P|417:216|448:221,1,55,6|0,1:3|1:0,0:0:0:0:
433,302,152314,2,0,P|429:330|409:355,1,55,10|0,0:0|0:0,0:0:0:0:
349,300,152651,2,0,P|326:282|314:253,2,55,2|2|10,0:0|0:3|1:2,0:0:0:0:
433,302,153157,1,2,0:3:0:0:
391,228,153325,6,0,P|396:199|386:161,1,55,2|0,1:0|1:0,0:0:0:0:
342,109,153662,1,10,0:1:0:0:
397,47,153831,1,2,0:0:0:0:
245,111,154168,2,0,P|249:81|229:40,2,55,2|8|2,0:3|0:0|0:0,0:0:0:0:
176,156,154673,6,0,L|110:156,1,55,6|0,1:3|1:0,0:0:0:0:
151,233,155010,2,0,L|206:233,1,55,10|0,0:0|0:0,0:0:0:0:
285,207,155348,1,2,0:0:0:0:
268,288,155516,1,2,0:3:0:0:
206,233,155685,2,0,L|206:170,1,55,10|2,1:2|0:3,0:0:0:0:
270,126,156022,6,0,P|271:96|256:59,1,55,2|0,1:2|1:0,0:0:0:0:
346,82,156359,2,0,P|345:52|360:15,1,55,10|2,0:0|0:3,0:0:0:0:
450,160,156864,2,0,P|479:153|510:160,2,55,2|10|2,0:3|0:0|0:0,0:0:0:0:
395,222,157370,6,0,P|339:234|284:209,1,110,2|10,1:2|0:0,0:0:0:0:
348,155,157876,1,2,0:0:0:0:
348,155,158213,1,2,0:3:0:0:
416,109,158381,6,0,P|414:54|380:12,1,110,10|2,0:0|1:2,0:0:0:0:
339,84,158887,2,0,B|270:97|270:97|220:84,1,110,2|2,1:2|0:3,0:0:0:0:
156,55,159392,2,0,B|130:42|130:42|158:86|149:129,1,110,2|8,0:0|0:0,0:0:0:0:
113,192,159898,1,2,0:0:0:0:
151,265,160067,6,0,P|161:297|151:337,1,55,6|2,1:2|1:2,0:0:0:0:
222,371,160404,2,0,P|254:361|294:371,1,55,10|0,0:1|0:0,0:0:0:0:
341,314,160741,2,0,P|374:322|418:314,2,55,2|2|8,0:0|1:3|0:1,0:0:0:0:
298,250,161246,1,2,0:3:0:0:
298,250,161415,6,0,P|259:263|201:250,2,82.5,2|2|2,1:2|0:0|0:3,0:0:0:0:
350,186,162089,2,0,P|350:154|339:123,1,55,2|2,3:2|1:0,0:0:0:0:
295,65,162426,1,10,0:1:0:0:
228,112,162595,1,0,0:0:0:0:
228,112,162763,6,0,P|176:88|123:103,1,110,6|10,1:3|0:0,0:0:0:0:
170,171,163269,1,0,0:0:0:0:
94,202,163437,2,0,P|65:191|24:200,1,55,2|2,0:0|0:3,0:0:0:0:
56,274,163774,2,0,P|25:280|-4:308,1,55,10|2,1:2|0:3,0:0:0:0:
58,358,164111,6,0,P|80:372|107:376,1,55,2|0,1:0|1:0,0:0:0:0:
191,367,164449,1,10,0:1:0:0:
260,322,164617,1,2,0:0:0:0:
315,167,164954,2,0,P|311:142|321:104,2,55,2|8|2,0:3|0:0|0:0,0:0:0:0:
371,228,165460,6,0,L|426:228,2,55,6|0|10,1:3|1:0|0:0,0:0:0:0:
314,287,165965,1,0,0:0:0:0:
314,287,166134,2,0,P|287:284|260:288,1,55,2|2,0:0|0:3,0:0:0:0:
184,322,166471,1,10,1:2:0:0:
250,371,166639,1,2,0:3:0:0:
259,288,166808,6,0,L|251:233,1,55,2|0,1:2|1:0,0:0:0:0:
222,156,167145,1,10,0:0:0:0:
291,111,167314,1,2,0:3:0:0:
291,111,167651,2,0,P|318:116|346:111,2,55,2|10|2,0:3|0:0|0:0,0:0:0:0:
259,35,168156,6,0,P|205:46|147:15,1,110,2|10,1:2|0:0,0:0:0:0:
102,87,168662,2,0,P|52:66|0:77,1,110,2|2,0:0|0:3,0:0:0:0:
44,147,169168,1,10,0:0:0:0:
44,147,169505,5,2,1:2:0:0:
76,223,169673,2,0,B|58:310|58:310|97:287,1,110,2|2,1:2|0:3,0:0:0:0:
154,271,170179,2,0,P|196:299|257:294,1,110,2|8,0:0|0:0,0:0:0:0:
324,251,170684,1,2,0:0:0:0:
324,251,170853,6,0,P|333:222|327:188,1,55,2|2,1:2|1:2,0:0:0:0:
280,132,171190,2,0,P|255:121|237:100,1,55,10|0,0:1|0:0,0:0:0:0:
305,53,171527,2,0,P|358:44|422:70,1,110,2|8,0:0|0:1,0:0:0:0:
458,129,172033,1,2,0:3:0:0:
406,193,172201,6,0,P|397:235|418:290,2,82.5,2|2|2,1:2|0:0|0:3,0:0:0:0:
458,129,172875,2,0,P|490:122|525:127,2,55,2|0|8,0:0|1:0|0:1,0:0:0:0:
406,193,173381,1,2,0:0:0:0:
330,160,173550,6,0,P|331:132|324:106,1,55,6|0,1:3|1:0,0:0:0:0:
253,64,173887,2,0,P|228:76|209:95,1,55,10|0,0:0|0:0,0:0:0:0:
150,153,174224,2,0,P|130:133|106:121,2,55,2|2|10,0:0|0:3|1:2,0:0:0:0:
190,225,174729,1,2,0:3:0:0:
155,300,174898,6,0,P|182:309|209:305,1,55,2|0,1:0|1:0,0:0:0:0:
273,356,175235,1,10,0:1:0:0:
345,316,175404,1,2,0:0:0:0:
351,151,175741,2,0,P|325:144|275:151,2,55,2|8|2,0:3|0:0|0:0,0:0:0:0:
414,204,176246,6,0,P|448:207|481:196,1,55,6|0,1:3|1:0,0:0:0:0:
435,126,176583,2,0,P|452:95|455:61,1,55,10|0,0:0|0:0,0:0:0:0:
373,71,176920,2,0,P|363:37|342:12,2,55,2|2|10,0:0|0:3|1:2,0:0:0:0:
308,122,177426,1,2,0:3:0:0:
231,92,177595,6,0,L|168:92,1,55,2|0,1:2|1:0,0:0:0:0:
128,160,177932,1,10,0:0:0:0:
50,134,178100,1,2,0:3:0:0:
50,134,178437,2,0,P|54:105|44:78,2,55,2|10|2,0:3|0:0|0:0,0:0:0:0:
10,206,178943,6,0,L|-7:322,1,110,2|10,1:2|0:0,0:0:0:0:
62,361,179448,2,0,P|117:369|173:334,1,110,2|2,0:0|0:3,0:0:0:0:
102,290,179954,1,10,0:0:0:0:
102,290,180291,5,2,1:2:0:0:
154,226,180460,2,0,P|166:173|144:121,1,110,2|2,1:2|0:3,0:0:0:0:
92,61,180965,2,0,P|142:83|204:71,1,110,2|8,0:0|0:0,0:0:0:0:
261,24,181471,1,2,0:0:0:0:
261,24,181639,6,0,L|323:24,1,55,2|2,1:2|1:2,0:0:0:0:
370,87,181977,2,0,L|432:87,1,55,10|0,0:1|0:0,0:0:0:0:
482,147,182314,2,0,P|493:200|454:259,1,110,2|8,0:0|0:1,0:0:0:0:
406,301,182819,1,2,0:3:0:0:
332,264,182988,6,0,P|289:258|242:282,2,82.5,2|2|2,1:2|0:0|0:3,0:0:0:0:
406,301,183662,1,2,3:2:0:0:
469,248,183830,1,2,1:0:0:0:
486,167,183999,1,10,0:1:0:0:
327,122,184336,6,0,P|318:64|345:17,2,110,6|10|0,1:2|0:0|0:0,0:0:0:0:
357,199,185179,2,0,L|228:199,1,110,2|2,1:2|0:0,0:0:0:0:
288,271,185685,6,0,L|398:271,1,110,0|8,1:0|0:0,0:0:0:0:
499,141,186359,1,2,0:3:0:0:
369,39,186696,1,8,0:0:0:0:
256,159,187033,6,0,P|281:218|268:270,2,110,2|10|0,1:2|0:0|0:0,0:0:0:0:
201,221,187876,2,0,B|147:214|147:214|98:242,1,110,2|2,1:2|0:0,0:0:0:0:
26,283,188382,6,0,L|15:151,1,110,0|8,1:0|0:0,0:0:0:0:
138,62,189055,1,2,0:3:0:0:
256,177,189392,1,8,0:0:0:0:
412,123,189730,6,0,B|424:68|424:68|394:-1,2,110,2|10|0,1:2|0:0|0:0,0:0:0:0:
394,203,190572,2,0,P|420:250|406:320,1,110,2|2,1:2|0:0,0:0:0:0:
357,364,191078,6,0,L|239:364,1,110,0|8,1:0|0:0,0:0:0:0:
146,233,191752,1,2,0:3:0:0:
304,186,192089,1,8,0:0:0:0:
168,93,192426,6,0,L|58:93,2,110,2|10|0,1:2|0:0|0:0,0:0:0:0:
233,144,193269,2,0,P|253:190|229:265,1,110,2|2,1:2|0:0,0:0:0:0:
182,303,193774,6,0,P|234:291|283:315,1,110,0|10,0:0|3:0,0:0:0:0:
432,244,194449,1,2,3:0:0:0:
403,81,194786,1,8,3:2:0:0:
256,103,195123,6,0,P|214:77|152:88,2,98.9999969787599,4|2|0,0:0|0:3|0:0,0:0:0:0:
198,149,195965,1,2,0:0:0:0:
296,268,196303,1,2,0:0:0:0:
296,268,196471,6,0,P|344:271|385:245,2,98.9999969787599,0|2|2,0:0|0:0|0:3,0:0:0:0:
150,242,197482,1,0,0:0:0:0:
232,118,197819,6,0,P|233:70|202:29,2,98.9999969787599,2|2|0,0:0|0:0|0:0,0:0:0:0:
180,171,198661,1,2,0:0:0:0:
284,285,199000,1,2,0:0:0:0:
284,285,199168,6,0,P|283:333|312:372,2,98.9999969787599,0|0|2,0:0|0:0|0:3,0:0:0:0:
372,165,200179,1,0,0:0:0:0:
230,122,200516,6,0,P|220:68|255:16,2,98.9999969787599,2|2|0,0:0|0:0|0:0,0:0:0:0:
293,82,201359,1,2,0:0:0:0:
409,182,201696,1,2,0:0:0:0:
409,182,201865,6,0,P|421:135|402:85,2,98.9999969787599,0|0|0,0:0|0:0|0:0,0:0:0:0:
355,320,202876,1,2,0:0:0:0:
208,298,203213,5,2,0:0:0:0:
208,298,203550,1,2,0:0:0:0:
36,156,204055,1,2,0:0:0:0:
36,156,204392,1,2,0:0:0:0:
256,192,204898,5,2,0:0:0:0:
256,192,205235,1,2,0:0:0:0:
