osu file format v14

[General]
AudioFilename: audio.mp3
AudioLeadIn: 0
PreviewTime: 54730
Countdown: 0
SampleSet: Soft
StackLeniency: 0.3
Mode: 0
LetterboxInBreaks: 0
WidescreenStoryboard: 1

[Editor]
Bookmarks: 91977,97539,200516,203213
DistanceSpacing: 1.2
BeatDivisor: 4
GridSize: 8
TimelineZoom: 1

[Metadata]
Title:chameleon
TitleUnicode:chameleon
Artist:nana(Sevencolors)
ArtistUnicode:nana(Sevencolors)
Creator:RVMathew
Version:Easy
Source:
Tags:Renumi 鹿乃 Kano 有坂あこ Arisaka Aco TechnoBreakerz Techno Breakerz feat. featuring 初音ミク Hatsune Miku Append Sweet Dance VOCALOMUSIC ★ Volume Vol. 02 -Funky Drum'n'Bass- and & DnB Works 2010-2011 Best Vocaloid Pop Electronic Japanese
BeatmapID:2199025
BeatmapSetID:1046876

[Difficulty]
HPDrainRate:3
CircleSize:3
OverallDifficulty:2
ApproachRate:4
SliderMultiplier:0.8
SliderTickRate:1

[Events]
//Background and Video events
0,0,"stretched-1920-1080-689941.jpg",0,0
//Break Periods
2,76471,85938
2,130604,137174
//Storyboard Layer 0 (Background)
//Storyboard Layer 1 (Fail)
//Storyboard Layer 2 (Pass)
//Storyboard Layer 3 (Foreground)
//Storyboard Layer 4 (Overlay)
//Storyboard Sound Samples

[TimingPoints]
966,337.078651685393,4,2,1,60,1,0
22539,-100,4,2,2,60,0,0
22623,-100,4,2,1,60,0,0
33325,-100,4,2,2,60,0,0
33409,-100,4,2,1,60,0,0
43100,-100,4,2,1,30,0,0
43185,-100,4,2,1,32,0,0
43269,-100,4,2,1,36,0,0
43353,-100,4,2,1,38,0,0
43437,-100,4,2,1,40,0,0
43522,-100,4,2,1,42,0,0
43606,-100,4,2,1,46,0,0
43690,-100,4,2,1,48,0,0
43774,-100,4,2,1,54,0,0
43859,-100,4,2,1,52,0,0
43943,-100,4,2,1,50,0,0
44027,-100,4,2,1,48,0,0
44112,-100,4,2,1,60,0,0
44449,-100,4,2,3,60,0,0
44533,-100,4,2,1,60,0,0
48494,-100,4,2,3,60,0,0
48578,-100,4,2,1,60,0,0
49842,-100,4,2,3,60,0,0
49926,-100,4,2,1,60,0,0
52201,-100,4,2,1,60,0,0
52539,-100,4,2,3,60,0,0
52623,-100,4,2,1,60,0,0
53044,-100,4,2,1,60,0,0
53550,-100,4,2,1,60,0,0
54224,-100,4,2,1,30,0,0
54308,-100,4,2,1,34,0,0
54392,-100,4,2,1,38,0,0
54477,-100,4,2,1,42,0,0
54561,-100,4,2,1,46,0,0
54730,-100,4,2,1,30,0,0
54898,-100,4,2,1,60,0,1
56583,-100,4,2,3,60,0,1
56668,-100,4,2,1,60,0,1
59280,-100,4,2,3,60,0,1
59364,-100,4,2,1,60,0,1
60291,-100,4,2,2,60,0,1
60628,-100,4,2,3,60,0,1
60713,-100,4,2,2,60,0,1
62988,-100,4,2,1,60,0,1
64673,-100,4,2,3,60,0,1
64758,-100,4,2,1,60,0,1
65516,-100,4,2,1,60,0,0
65685,-100,4,2,1,60,0,1
67370,-100,4,2,3,60,0,1
67454,-100,4,2,1,60,0,1
70067,-100,4,2,3,60,0,1
70151,-100,4,2,1,60,0,1
71078,-100,4,2,2,60,0,1
71415,-100,4,2,3,60,0,1
71499,-100,4,2,2,60,0,1
73774,-100,4,2,1,60,0,1
75797,-100,4,2,1,60,0,1
75881,-100,4,2,1,60,0,1
75965,-100,4,2,1,60,0,1
76050,-100,4,2,1,60,0,1
76134,-100,4,2,1,60,0,1
76218,-100,4,2,1,60,0,1
76303,-100,4,2,1,60,0,1
76387,-100,4,2,1,60,0,1
76471,-100,4,2,1,60,0,0
87258,-100,4,2,1,60,0,0
88943,-100,4,2,3,60,0,0
89027,-100,4,2,1,60,0,0
94336,-100,4,2,3,60,0,0
94421,-100,4,2,1,60,0,0
95010,-100,4,2,3,60,0,0
95095,-100,4,2,1,60,0,0
96949,-100,4,2,1,30,0,0
97033,-100,4,2,1,34,0,0
97117,-100,4,2,1,36,0,0
97201,-100,4,2,1,40,0,0
97286,-100,4,2,1,42,0,0
97370,-100,4,2,1,44,0,0
97454,-100,4,2,1,42,0,0
97539,-100,4,2,1,40,0,0
97623,-100,4,2,1,38,0,0
97707,-100,4,2,1,42,0,0
97791,-100,4,2,1,38,0,0
97876,-100,4,2,1,36,0,0
97960,-100,4,2,1,34,0,0
98044,-100,4,2,1,60,0,0
99055,-100,4,2,3,60,0,0
99140,-100,4,2,1,60,0,0
100404,-100,4,2,3,60,0,0
100488,-100,4,2,1,60,0,0
102426,-100,4,2,3,60,0,0
102510,-100,4,2,1,60,0,0
105123,-100,4,2,3,60,0,0
105207,-100,4,2,1,60,0,0
105965,-100,4,2,1,60,0,0
107482,-100,4,2,1,60,0,0
107567,-100,4,2,1,49,0,0
107651,-100,4,2,1,38,0,0
107735,-100,4,2,1,25,0,0
107819,-100,4,2,1,25,0,0
108157,-100,4,2,1,15,0,0
108241,-100,4,2,1,26,0,0
108325,-100,4,2,1,38,0,0
108409,-100,4,2,1,49,0,0
108494,-100,4,2,1,60,0,0
108831,-100,4,2,1,60,0,0
110516,-100,4,2,3,60,0,0
110600,-100,4,2,1,60,0,0
113213,-100,4,2,3,60,0,0
113297,-100,4,2,1,60,0,0
115909,-100,4,2,3,60,0,0
115994,-100,4,2,1,60,0,0
118606,-100,4,2,3,60,0,0
118690,-100,4,2,1,60,0,0
121303,-100,4,2,3,60,0,0
121387,-100,4,2,1,60,0,0
123999,-100,4,2,3,60,0,0
124083,-100,4,2,1,60,0,0
126696,-100,4,2,3,60,0,0
126780,-100,4,2,1,60,0,0
128044,-100,4,2,3,60,0,0
128128,-100,4,2,1,60,0,0
129055,-100,4,2,1,30,0,0
129140,-100,4,2,1,32,0,0
129224,-100,4,2,1,36,0,0
129392,-100,4,2,1,38,0,0
129477,-100,4,2,1,40,0,0
129561,-100,4,2,1,44,0,0
129645,-100,4,2,1,46,0,0
129730,-100,4,2,1,50,0,0
129814,-100,4,2,1,54,0,0
129898,-100,4,2,1,58,0,0
129982,-100,4,2,1,60,0,0
130067,-100,4,2,1,64,0,0
130151,-100,4,2,1,60,0,0
130235,-100,4,2,1,54,0,0
130319,-100,4,2,1,50,0,0
130404,-100,4,2,1,60,0,0
138494,-100,4,2,1,60,0,0
138831,-100,4,2,3,60,0,0
138915,-100,4,2,1,60,0,0
139336,-100,4,2,1,60,0,0
140516,-100,4,2,1,30,0,0
140600,-100,4,2,1,34,0,0
140685,-100,4,2,1,38,0,0
140769,-100,4,2,1,42,0,0
140853,-100,4,2,1,46,0,0
141022,-100,4,2,1,30,0,0
141190,-100,4,2,1,60,0,1
142876,-100,4,2,3,60,0,1
142960,-100,4,2,1,60,0,1
145572,-100,4,2,3,60,0,1
145657,-100,4,2,1,60,0,1
146583,-100,4,2,2,60,0,1
146921,-100,4,2,3,60,0,1
147005,-100,4,2,2,60,0,1
148269,-100,4,2,3,60,0,1
148353,-100,4,2,2,60,0,1
149280,-100,4,2,1,60,0,1
150965,-100,4,2,3,60,0,1
151050,-100,4,2,1,60,0,1
151808,-100,4,2,1,60,0,0
151977,-100,4,2,1,60,0,1
153662,-100,4,2,3,60,0,1
153746,-100,4,2,1,60,0,1
156359,-100,4,2,3,60,0,1
156443,-100,4,2,1,60,0,1
157370,-100,4,2,2,60,0,1
159055,-100,4,2,3,60,0,1
159140,-100,4,2,2,60,0,1
160067,-100,4,2,1,60,0,1
161752,-100,4,2,3,60,0,1
161836,-100,4,2,1,60,0,1
162089,-100,4,2,1,60,0,1
162173,-100,4,2,1,60,0,1
162258,-100,4,2,1,60,0,1
162342,-100,4,2,1,60,0,1
162426,-100,4,2,1,60,0,1
162510,-100,4,2,1,60,0,1
162595,-100,4,2,1,60,0,0
162679,-100,4,2,1,60,0,0
162763,-100,4,2,1,60,0,1
164449,-100,4,2,3,60,0,1
164533,-100,4,2,1,60,0,1
167145,-100,4,2,3,60,0,1
167230,-100,4,2,1,60,0,1
168157,-100,4,2,2,60,0,1
168494,-100,4,2,3,60,0,1
168578,-100,4,2,2,60,0,1
170853,-100,4,2,1,60,0,1
172539,-100,4,2,3,60,0,1
172623,-100,4,2,1,60,0,1
173381,-100,4,2,1,60,0,0
173550,-100,4,2,1,60,0,1
175235,-100,4,2,3,60,0,1
175319,-100,4,2,1,60,0,1
177932,-100,4,2,3,60,0,1
178016,-100,4,2,1,60,0,1
178943,-100,4,2,2,60,0,1
179280,-100,4,2,3,60,0,1
179364,-100,4,2,2,60,0,1
181640,-100,4,2,1,60,0,1
183325,-100,4,2,3,60,0,1
183409,-100,4,2,1,60,0,1
183662,-100,4,2,1,60,0,1
183746,-100,4,2,1,60,0,1
183831,-100,4,2,1,60,0,1
183915,-100,4,2,1,60,0,1
183999,-100,4,2,1,60,0,1
184083,-100,4,2,1,60,0,1
184168,-100,4,2,1,60,0,1
184252,-100,4,2,1,60,0,1
184336,-100,4,2,1,60,0,0
193943,-100,4,2,1,60,0,0
194027,-100,4,2,1,60,0,0
194112,-100,4,2,1,60,0,0
194196,-100,4,2,1,60,0,0
194280,-100,4,2,1,60,0,0
194364,-100,4,2,1,60,0,0
194449,-100,4,2,1,60,0,0
194533,-100,4,2,1,60,0,0
194617,-100,4,2,1,60,0,0
194701,-100,4,2,1,60,0,0
194786,-100,4,2,1,60,0,0
194954,-100,4,2,1,60,0,0
195123,-100,4,2,1,60,0,0
195207,-100,4,2,1,60,0,0
195460,-100,4,2,1,50,0,0
200516,-100,4,2,1,40,0,0
203213,-100,4,2,1,30,0,0
204898,-100,4,2,1,15,0,0
205235,-100,4,2,1,10,0,0

[Colours]
Combo1 : 255,255,0
Combo2 : 111,111,111
Combo3 : 255,0,128
Combo4 : 128,0,255
Combo5 : 0,255,255
Combo6 : 183,183,183

[HitObjects]
256,32,22539,6,0,P|332:55|379:131,1,160,6|0,0:0|0:0,0:0:0:0:
256,268,23887,2,0,L|256:136,2,120,2|2|2,0:0|0:0|0:0,0:0:0:0:
196,343,25235,6,0,B|93:301|93:301|27:315,1,160,2|0,0:0|0:0,0:0:0:0:
196,192,26583,2,0,L|68:192,2,120,2|2|2,0:0|0:0|0:0,0:0:0:0:
256,117,27932,6,0,B|359:159|359:159|425:145,1,160,2|0,0:0|0:0,0:0:0:0:
296,305,29280,2,0,L|413:278,2,120,2|2|2,0:0|0:0|0:0,0:0:0:0:
208,266,30628,6,0,P|169:220|184:114,1,160,2|2,0:0|0:0,0:0:0:0:
225,42,31640,1,0,0:0:0:0:
314,77,31977,2,0,P|370:66|410:2,2,120,2|0|0,0:0|0:0|0:0,0:0:0:0:
228,35,33325,5,6,1:2:0:0:
132,35,33662,1,10,0:0:0:0:
90,121,33999,2,0,L|146:121,1,40,0|2,0:0|1:2,0:0:0:0:
221,232,34673,2,0,B|252:289|252:289|235:365,2,120,2|2|10,1:0|0:1|0:1,0:0:0:0:
301,179,36022,5,2,1:3:0:0:
253,96,36359,1,10,0:0:0:0:
330,39,36696,2,0,L|378:39,1,40,0|2,0:0|1:2,0:0:0:0:
456,155,37370,2,0,B|456:232|456:232|423:266,2,120,2|2|10,1:0|0:1|0:1,0:0:0:0:
384,91,38718,5,2,1:3:0:0:
290,71,39055,1,10,0:0:0:0:
256,161,39392,2,0,L|256:215,1,40,0|2,0:0|1:2,0:0:0:0:
175,320,40067,2,0,P|107:326|51:293,2,120,2|2|10,1:0|0:1|0:1,0:0:0:0:
244,253,41415,6,0,P|261:176|219:94,1,160,2|2,1:3|0:3,0:0:0:0:
151,48,42426,2,0,L|106:48,1,40,8|2,0:0|1:3,0:0:0:0:
24,89,42932,1,2,1:0:0:0:
100,147,43269,2,0,P|114:187|100:246,1,80,2|2,1:0|1:0,0:0:0:0:
189,344,44112,6,0,P|134:319|60:341,2,120,6|2|10,1:2|0:0|0:0,0:0:0:0:
256,275,45460,1,2,1:3:0:0:
323,344,45797,2,0,L|382:344,1,40,8|2,0:0|0:0,0:0:0:0:
441,287,46303,6,0,P|472:241|445:159,1,120,2|2,1:2|1:2,0:0:0:0:
381,129,47145,2,0,P|383:73|318:17,1,120,8|2,0:0|1:3,0:0:0:0:
200,43,48157,2,0,L|54:43,1,120,2|0,1:2|0:0,0:0:0:0:
5,166,49168,1,8,0:0:0:0:
75,232,49505,6,0,P|85:287|55:349,2,120,6|2|10,1:2|0:0|0:0,0:0:0:0:
5,166,50853,1,2,1:3:0:0:
51,82,51190,2,0,P|105:57|168:63,1,120,8|2,0:0|1:2,0:0:0:0:
256,172,52201,6,0,P|262:264|335:339,1,200,2|2,1:2|0:0,0:0:0:0:
396,208,53550,2,0,P|451:228|528:209,2,120,2|2|4,1:2|1:2|3:0,0:0:0:0:
337,132,54898,6,0,L|319:42,1,80,6|10,1:3|0:0,0:0:0:0:
241,106,55572,2,0,L|256:184,1,80,2|10,0:0|1:2,0:0:0:0:
231,277,56246,2,0,P|175:307|114:297,1,120,2|2,1:0|0:0,0:0:0:0:
38,249,57089,2,0,L|22:181,1,40,2|8,0:3|0:0,0:0:0:0:
70,123,57595,6,0,P|110:114|172:144,1,80,6|10,1:3|0:0,0:0:0:0:
202,202,58269,1,2,0:0:0:0:
256,281,58606,1,10,1:2:0:0:
310,202,58943,2,0,P|302:144|333:83,1,120,2|2,1:2|0:3,0:0:0:0:
409,40,59786,2,0,L|465:40,1,40,2|10,0:3|0:0,0:0:0:0:
503,119,60291,6,0,L|503:251,2,120,2|2|10,1:2|0:0|0:0,0:0:0:0:
418,165,61640,2,0,L|418:228,1,40,2|2,1:2|1:2,0:0:0:0:
334,252,62145,2,0,L|334:315,1,40,2|2,0:3|0:0,0:0:0:0:
256,349,62651,1,8,0:0:0:0:
179,292,62988,6,0,P|179:251|163:215,1,80,2|10,1:2|0:1,0:0:0:0:
255,186,63662,2,0,P|254:145|271:109,1,80,2|8,0:0|0:1,0:0:0:0:
347,166,64336,2,0,P|369:241|336:318,1,160,2|2,1:2|0:0,0:0:0:0:
256,362,65348,1,8,0:1:0:0:
173,314,65685,6,0,L|78:314,1,80,6|10,1:3|0:0,0:0:0:0:
59,224,66359,2,0,L|139:224,1,80,2|10,0:0|1:2,0:0:0:0:
223,177,67033,2,0,P|244:122|228:65,1,120,2|2,1:0|0:0,0:0:0:0:
140,27,67876,2,0,L|143:66,1,40,2|8,0:3|0:0,0:0:0:0:
89,146,68381,6,0,P|52:132|8:137,1,80,6|10,1:3|0:0,0:0:0:0:
38,228,69055,1,2,0:0:0:0:
0,316,69392,1,10,1:2:0:0:
87,358,69730,2,0,P|165:355|210:319,1,120,2|2,1:2|0:3,0:0:0:0:
256,256,70572,2,0,L|263:193,1,40,2|10,0:3|0:0,0:0:0:0:
333,153,71078,6,0,P|398:160|456:132,2,120,2|2|10,1:2|0:0|0:0,0:0:0:0:
278,74,72426,2,0,L|216:74,1,40,2|2,1:2|1:2,0:0:0:0:
160,131,72932,2,0,L|98:131,1,40,2|2,0:3|0:0,0:0:0:0:
46,192,73437,1,8,0:0:0:0:
120,253,73774,5,6,1:2:0:0:
256,192,73943,12,2,76134,3:2:0:0:
468,102,87258,5,6,1:2:0:0:
468,198,87595,1,10,0:0:0:0:
324,198,88100,1,2,1:2:0:0:
256,266,88437,2,0,L|256:350,2,80,2|0|2,0:0|1:0|0:3,0:0:0:0:
188,198,89449,2,0,L|129:198,1,40,2|10,0:3|0:0,0:0:0:0:
63,154,89954,5,2,1:2:0:0:
63,58,90291,1,10,0:0:0:0:
202,23,90796,1,2,1:2:0:0:
256,102,91133,2,0,L|361:102,1,80,2|0,0:0|1:0,0:0:0:0:
449,192,91977,2,0,L|491:192,2,40,2|2|10,0:0|0:3|0:0,0:0:0:0:
374,252,92651,5,2,1:2:0:0:
328,336,92988,1,10,0:0:0:0:
184,336,93493,1,2,1:2:0:0:
138,251,93831,2,0,P|101:266|62:260,2,80,2|0|2,0:0|0:0|0:3,0:0:0:0:
200,178,94842,6,0,P|204:114|173:60,1,120,2|2,0:3|1:2,0:0:0:0:
96,16,95685,1,10,0:0:0:0:
25,141,96190,1,2,1:2:0:0:
76,222,96527,2,0,L|175:222,1,80,2|2,0:0|0:0,0:0:0:0:
256,118,97370,2,0,L|256:76,2,40,2|2|10,3:0|3:3|0:0,0:0:0:0:
317,192,98044,5,6,1:0:0:0:
281,281,98381,2,0,P|341:283|411:232,2,120,10|2|0,0:0|1:3|1:0,0:0:0:0:
256,188,99730,2,0,L|256:137,1,40,8|2,0:0|0:0,0:0:0:0:
192,76,100235,6,0,P|125:60|57:99,1,120,2|6,1:2|1:3,0:0:0:0:
9,144,101078,1,10,0:0:0:0:
128,224,101583,2,0,L|149:358,2,120,2|0|2,1:3|1:0|0:0,0:0:0:0:
200,160,102932,1,2,1:2:0:0:
317,243,103437,6,0,P|355:262|412:251,1,80,2|10,1:3|0:0,0:0:0:0:
474,142,104280,2,0,P|483:84|448:-1,2,120,2|0|2,1:3|1:0|0:0,0:0:0:0:
387,182,105628,6,0,P|329:186|257:156,1,120,2|6,1:2|1:2,0:0:0:0:
213,89,106471,1,10,0:0:0:0:
90,165,106977,1,2,1:3:0:0:
182,275,107482,2,0,L|189:387,1,80,2|2,0:0|0:0,0:0:0:0:
94,329,108157,2,0,L|89:249,1,80,2|10,0:0|0:0,0:0:0:0:
83,153,108831,6,0,P|124:162|165:143,1,80,6|10,1:2|0:0,0:0:0:0:
227,81,109505,2,0,L|220:22,1,40,2|2,0:0|1:3,0:0:0:0:
354,101,110179,2,0,B|372:180|372:180|417:217,2,120,2|2|10,1:2|0:0|0:0,0:0:0:0:
273,49,111528,6,0,P|235:36|187:48,1,80,2|8,1:2|0:0,0:0:0:0:
112,89,112202,2,0,L|65:89,1,40,2|2,0:0|1:3,0:0:0:0:
8,218,112876,2,0,B|8:353,2,120,2|2|10,1:2|0:0|0:0,0:0:0:0:
101,242,114224,6,0,P|140:245|177:231,1,80,2|10,1:2|0:0,0:0:0:0:
256,175,114898,2,0,L|256:135,1,40,2|2,0:0|1:3,0:0:0:0:
376,55,115573,2,0,P|444:49|500:82,2,120,2|2|10,1:2|0:0|0:0,0:0:0:0:
345,146,116921,6,0,L|345:232,1,80,2|10,1:2|0:0,0:0:0:0:
264,278,117595,1,2,0:0:0:0:
306,364,117932,1,10,0:0:0:0:
392,321,118269,2,0,P|448:339|505:324,1,120,2|2,1:2|0:0,0:0:0:0:
474,233,119112,2,0,L|474:186,1,40,2|10,1:2|0:0,0:0:0:0:
435,105,119617,6,0,L|339:105,1,80,6|10,1:2|0:0,0:0:0:0:
275,158,120291,2,0,L|235:158,1,40,2|2,0:0|1:3,0:0:0:0:
125,251,120965,2,0,P|176:251|229:297,1,120,2|2,1:2|0:0,0:0:0:0:
365,252,121977,1,10,0:0:0:0:
456,221,122314,6,0,L|456:133,1,80,2|10,1:2|0:0,0:0:0:0:
384,77,122988,2,0,L|342:77,1,40,2|2,0:0|1:3,0:0:0:0:
208,125,123662,2,0,P|142:107|70:125,2,120,2|2|10,1:2|0:0|0:0,0:0:0:0:
280,188,125010,6,0,P|295:224|293:264,1,80,2|10,1:2|0:0,0:0:0:0:
255,352,125684,2,0,L|211:352,1,40,2|2,0:0|1:3,0:0:0:0:
123,240,126359,2,0,P|55:246|-1:213,1,120,2|2,1:2|0:0,0:0:0:0:
85,100,127370,1,10,0:0:0:0:
173,138,127707,6,0,P|220:202|224:289,1,160,2|2,1:3|0:0,0:0:0:0:
167,356,128718,2,0,L|122:356,1,40,10|2,0:0|1:3,0:0:0:0:
47,302,129224,1,2,1:2:0:0:
95,219,129561,2,0,P|76:162|91:105,1,120,2|10,1:2|0:0,0:0:0:0:
164,42,130404,5,6,0:0:0:0:
164,42,138494,6,0,P|152:140|219:211,1,200,2|2,1:2|0:0,0:0:0:0:
350,156,139842,1,2,1:2:0:0:
429,210,140179,2,0,L|421:261,1,40,2|2,1:2|1:2,0:0:0:0:
337,294,140685,2,0,L|330:333,1,40,0|4,3:0|3:0,0:0:0:0:
239,365,141190,6,0,P|202:352|164:319,1,80,6|10,1:3|0:0,0:0:0:0:
210,239,141864,1,2,0:0:0:0:
237,147,142201,1,10,1:2:0:0:
167,81,142539,2,0,P|107:76|51:95,1,120,2|2,1:0|0:0,0:0:0:0:
4,179,143381,2,0,L|12:229,1,40,2|8,0:3|0:0,0:0:0:0:
67,296,143887,6,0,L|162:296,1,80,6|10,1:3|0:0,0:0:0:0:
217,230,144561,1,2,0:0:0:0:
309,257,144898,1,10,1:2:0:0:
349,170,145235,2,0,P|333:106|372:50,1,120,2|2,1:2|0:3,0:0:0:0:
447,25,146078,2,2,L|454:84,1,40,2|10,0:3|0:0,0:0:0:0:
466,160,146583,6,0,P|489:209|481:285,1,120,2|2,1:2|0:0,0:0:0:0:
423,347,147426,2,0,L|361:347,1,40,2|10,0:3|0:0,0:0:0:0:
317,277,147932,2,0,P|233:270|175:341,1,160,2|2,1:2|0:0,0:0:0:0:
269,360,148943,1,8,0:0:0:0:
317,277,149280,6,0,L|301:195,1,80,2|10,1:2|0:1,0:0:0:0:
223,143,149954,2,0,L|207:61,1,80,2|8,0:0|0:1,0:0:0:0:
116,36,150628,2,0,B|135:143|135:143|94:187,1,160,2|2,1:2|0:0,0:0:0:0:
26,242,151640,1,8,0:1:0:0:
79,322,151977,6,0,P|134:337|179:308,1,80,6|10,1:3|0:0,0:0:0:0:
242,292,152651,1,2,0:0:0:0:
330,330,152988,1,10,1:2:0:0:
391,256,153325,2,0,P|446:293|522:289,2,120,2|2|8,1:0|0:0|0:0,0:0:0:0:
333,180,154673,6,0,P|322:138|333:81,1,80,6|10,1:3|0:0,0:0:0:0:
398,39,155348,1,2,0:0:0:0:
416,132,155685,1,10,1:2:0:0:
333,180,156022,2,0,P|276:156|206:172,1,120,2|2,1:2|0:3,0:0:0:0:
144,223,156864,2,2,L|155:282,1,40,2|10,0:3|0:0,0:0:0:0:
223,326,157370,5,2,1:2:0:0:
303,273,157707,2,0,L|380:267,1,40,10|2,0:0|0:0,0:0:0:0:
417,208,158213,2,0,L|494:202,1,40,2|10,0:3|0:0,0:0:0:0:
502,120,158718,2,0,P|461:54|384:45,1,160,2|2,1:2|0:0,0:0:0:0:
311,108,159730,1,8,0:0:0:0:
226,63,160067,6,0,P|189:52|137:63,1,80,6|10,1:2|0:1,0:0:0:0:
70,113,160741,2,0,P|59:150|70:202,1,80,2|8,0:0|0:1,0:0:0:0:
108,276,161415,2,0,P|190:324|261:300,1,160,2|2,1:2|3:2,0:0:0:0:
327,254,162426,1,10,0:1:0:0:
395,186,162763,6,0,L|382:95,1,80,6|10,1:3|0:0,0:0:0:0:
291,81,163437,2,0,L|302:160,1,80,2|10,0:0|1:2,0:0:0:0:
217,205,164111,2,0,P|215:143|175:77,1,120,2|2,1:0|0:0,0:0:0:0:
97,121,164954,2,0,L|54:121,1,40,2|8,0:3|0:0,0:0:0:0:
51,217,165460,6,0,P|41:255|51:303,1,80,6|10,1:3|0:0,0:0:0:0:
126,349,166134,1,2,0:0:0:0:
209,301,166471,1,10,1:2:0:0:
299,334,166808,2,0,L|276:194,1,120,2|2,1:2|0:3,0:0:0:0:
342,142,167651,2,2,L|330:72,1,40,2|10,0:3|0:0,0:0:0:0:
391,24,168156,6,0,P|458:5|512:18,2,120,2|2|10,1:2|0:0|0:0,0:0:0:0:
335,102,169505,2,0,L|342:142,1,40,2|2,1:2|1:2,0:0:0:0:
406,213,170010,2,0,L|399:252,1,40,2|2,0:3|0:0,0:0:0:0:
378,346,170516,1,8,0:0:0:0:
289,307,170853,6,0,P|248:302|210:315,1,80,2|10,1:2|0:1,0:0:0:0:
144,246,171527,2,0,P|106:258|66:252,1,80,2|8,0:0|0:1,0:0:0:0:
2,182,172201,2,0,P|-12:104|36:40,1,160,2|2,1:2|0:0,0:0:0:0:
127,23,173213,1,8,0:1:0:0:
216,58,173550,6,0,L|216:141,1,80,6|10,1:3|0:0,0:0:0:0:
289,200,174224,2,0,L|289:283,1,80,2|10,0:0|1:2,0:0:0:0:
214,340,174898,2,0,P|160:366|91:355,1,120,2|2,1:0|0:0,0:0:0:0:
35,290,175741,2,0,L|28:249,1,40,2|8,0:3|0:0,0:0:0:0:
114,207,176246,6,0,P|102:172|114:103,1,80,6|10,1:3|0:0,0:0:0:0:
172,61,176920,1,2,0:0:0:0:
256,107,177257,1,10,1:2:0:0:
341,61,177595,2,0,L|461:68,1,120,2|2,1:2|0:3,0:0:0:0:
505,153,178437,2,2,L|465:150,1,40,2|10,0:3|0:0,0:0:0:0:
395,217,178943,6,0,P|424:271|420:342,2,120,2|2|10,1:2|0:0|0:0,0:0:0:0:
319,158,180291,2,0,L|331:81,1,40,2|2,1:2|1:2,0:0:0:0:
239,75,180797,2,0,L|227:-2,1,40,2|2,0:3|0:0,0:0:0:0:
143,70,181302,1,8,0:0:0:0:
78,141,181640,6,0,P|41:127|-1:129,1,80,2|10,1:2|0:1,0:0:0:0:
26,221,182314,2,0,P|24:263|45:309,1,80,2|8,0:0|0:1,0:0:0:0:
120,346,182988,2,0,P|197:347|247:288,1,160,2|2,1:2|3:2,0:0:0:0:
284,199,183999,1,10,0:1:0:0:
228,121,184336,6,0,P|221:81|239:35,1,80,6|10,1:2|0:0,0:0:0:0:
367,96,185179,2,0,B|346:239,1,120,2|0,1:2|1:0,0:0:0:0:
297,295,186022,1,8,0:0:0:0:
372,355,186359,2,0,P|415:364|458:355,1,80,2|8,0:3|0:0,0:0:0:0:
492,272,187033,6,0,P|501:229|492:186,1,80,2|10,1:2|0:0,0:0:0:0:
413,75,187876,2,0,L|293:88,1,120,2|0,1:2|1:0,0:0:0:0:
200,109,188718,1,8,0:0:0:0:
266,179,189055,2,0,P|283:222|280:265,1,80,2|8,0:3|0:0,0:0:0:0:
216,325,189730,6,0,L|122:314,1,80,2|10,1:2|0:0,0:0:0:0:
116,173,190572,2,0,L|103:41,1,120,2|0,1:2|1:0,0:0:0:0:
13,23,191414,1,8,0:0:0:0:
20,119,191752,2,0,L|27:198,1,80,2|8,0:3|0:0,0:0:0:0:
76,281,192426,6,0,L|83:360,1,80,2|10,1:2|0:0,0:0:0:0:
214,301,193269,2,0,P|279:321|333:305,1,120,2|0,1:2|0:0,0:0:0:0:
402,247,194112,2,0,P|442:264|493:264,2,80,10|2|0,3:0|3:0|0:0,0:0:0:0:
461,171,195123,6,0,L|454:77,1,80,6|2,0:0|0:3,0:0:0:0:
322,36,195965,1,2,0:0:0:0:
186,85,196471,2,0,P|146:72|99:74,2,80,0|2|2,0:0|0:0|0:3,0:0:0:0:
249,157,197482,1,0,0:0:0:0:
173,216,197819,6,0,P|161:260|177:315,1,80,2|2,0:0|0:0,0:0:0:0:
298,351,198662,1,2,0:0:0:0:
401,251,199168,2,0,L|489:256,1,80,0|0,0:0|0:0,0:0:0:0:
455,163,199842,2,0,L|375:158,1,80,2|0,0:3|0:0,0:0:0:0:
309,228,200516,5,2,0:0:0:0:
244,299,200853,2,0,P|302:282|371:319,2,120,2|2|0,0:0|0:0|0:0,0:0:0:0:
162,349,202201,2,0,P|120:352|62:317,1,80,0|2,0:0|0:0,0:0:0:0:
11,277,202876,1,2,0:0:0:0:
11,181,203213,6,0,L|11:82,1,80,2|2,0:0|0:0,0:0:0:0:
134,27,204055,2,0,L|222:27,1,80,2|2,0:0|0:0,0:0:0:0:
322,122,204898,1,2,0:0:0:0:
256,192,205235,1,2,0:0:0:0:
