osu file format v14

[General]
AudioFilename: audio.mp3
AudioLeadIn: 0
PreviewTime: 54898
Countdown: 0
SampleSet: Soft
StackLeniency: 0.7
Mode: 2
LetterboxInBreaks: 0
WidescreenStoryboard: 0

[Editor]
Bookmarks: 22539,76471,87258,184336
DistanceSpacing: 1.2
BeatDivisor: 4
GridSize: 8
TimelineZoom: 1.6

[Metadata]
Title:chameleon
TitleUnicode:chameleon
Artist:nana(Sevencolors)
ArtistUnicode:nana(Sevencolors)
Creator:Myxo
Version:Rain
Source:
Tags:hatsune miku 初音ミク karent vocaloid pop electronic japanese spectator myxomatosis
BeatmapID:2748281
BeatmapSetID:1326566

[Difficulty]
HPDrainRate:6
CircleSize:4.7
OverallDifficulty:9
ApproachRate:9
SliderMultiplier:1.8
SliderTickRate:2

[Events]
//Background and Video events
0,0,"bg.jpg",0,0
//Break Periods
2,76671,86658
//Storyboard Layer 0 (Background)
//Storyboard Layer 1 (Fail)
//Storyboard Layer 2 (Pass)
//Storyboard Layer 3 (Foreground)
//Storyboard Layer 4 (Overlay)
//Storyboard Sound Samples

[TimingPoints]
966,337.078651685393,4,2,1,50,1,0
22539,-100,4,2,1,50,0,0
33325,-100,4,2,1,60,0,0
42595,-100,4,2,1,45,0,0
42932,-100,4,2,1,50,0,0
43269,-100,4,2,1,55,0,0
43606,-100,4,2,1,60,0,0
53550,-100,4,2,1,55,0,0
53887,-100,4,2,1,60,0,0
54224,-100,4,2,1,65,0,0
54392,-100,4,2,1,70,0,0
54898,-100,4,2,1,70,0,1
76471,-100,4,2,1,60,0,0
107230,-100,4,2,1,50,0,0
107314,-100,4,2,1,40,0,0
107819,-100,4,2,1,45,0,0
108157,-100,4,2,1,50,0,0
108494,-100,4,2,1,55,0,0
108831,-100,4,2,1,60,0,0
128887,-100,4,2,1,45,0,0
129224,-100,4,2,1,50,0,0
129561,-100,4,2,1,55,0,0
129898,-100,4,2,1,60,0,0
130404,-100,4,2,1,50,0,0
138494,-100,4,2,1,60,0,0
139842,-100,4,2,1,55,0,0
140179,-100,4,2,1,60,0,0
140516,-100,4,2,1,65,0,0
140685,-100,4,2,1,70,0,0
141190,-100,4,2,1,70,0,1
184336,-100,4,2,1,60,0,0

[Colours]
Combo1 : 135,133,184
Combo2 : 98,200,249
Combo3 : 148,156,169
Combo4 : 168,232,251

[HitObjects]
95,345,22539,5,4,0:0:0:0:
46,272,22707,1,0,0:0:0:0:
58,184,22876,1,2,0:0:0:0:
124,126,23044,1,0,0:0:0:0:
260,101,23213,2,0,L|276:2,1,90,0|2,0:0|0:0,0:0:0:0:
61,127,23718,2,0,L|45:28,1,90,2|2,0:0|0:0,0:0:0:0:
211,195,24224,1,2,0:0:0:0:
121,223,24392,2,0,L|318:240,1,180,2|2,0:0|0:0,0:0:0:0:
176,270,24898,2,0,L|159:369,1,90,2|0,0:0|0:0,0:0:0:0:
389,344,25235,5,4,0:3:0:0:
457,278,25404,1,0,0:0:0:0:
412,189,25572,1,2,0:0:0:0:
480,123,25741,1,0,0:0:0:0:
351,62,25909,2,0,L|442:54,1,90,0|2,0:0|0:0,0:0:0:0:
226,111,26415,2,0,L|212:13,1,90,2|2,0:0|0:0,0:0:0:0:
383,153,26921,1,2,0:0:0:0:
293,174,27089,2,0,P|245:214|331:272,1,180,2|2,0:0|0:0,0:0:0:0:
435,268,27595,2,0,L|448:175,1,90,2|0,0:0|0:0,0:0:0:0:
219,115,27932,5,4,0:3:0:0:
291,179,28100,1,0,0:0:0:0:
304,276,28269,1,2,0:0:0:0:
239,353,28437,1,0,0:0:0:0:
104,334,28606,2,0,L|89:240,1,90,0|2,0:0|0:0,0:0:0:0:
304,201,29112,1,2,0:0:0:0:
214,232,29280,2,0,P|151:204|202:121,1,180,2|2,0:0|0:0,0:0:0:0:
316,82,29786,2,0,L|125:61,1,180,2|2,0:0|0:0,0:0:0:0:
30,89,30291,2,0,L|20:182,1,90,2|0,0:0|0:0,0:0:0:0:
249,222,30628,5,4,0:3:0:0:
154,238,30797,1,2,0:0:0:0:
254,261,30965,2,0,L|263:356,1,90,2|0,0:0|0:0,0:0:0:0:
142,347,31303,2,0,L|233:366,1,90,2|0,0:0|0:0,0:0:0:0:
344,346,31640,2,0,L|253:327,1,90,2|2,0:0|0:0,0:0:0:0:
109,265,31977,2,0,L|303:231,1,180,2|2,0:0|0:0,0:0:0:0:
161,215,32482,2,0,P|92:167|163:123,1,180,2|2,0:0|0:0,0:0:0:0:
251,68,32988,2,0,L|274:165,1,90,2|0,0:0|0:0,0:0:0:0:
26,143,33325,5,4,3:2:0:0:
122,176,33494,2,0,L|225:164,2,90,0|10|0,0:0|0:2|0:0,0:0:0:0:
26,224,33999,1,0,0:0:0:0:
180,258,34168,2,0,L|194:348,1,90,2|8,3:2|0:2,0:0:0:0:
100,335,34505,1,2,0:2:0:0:
327,365,34673,6,0,L|522:331,1,180,2|10,3:2|0:2,0:0:0:0:
350,277,35179,2,0,P|275:235|316:170,1,180,2|2,0:0|3:2,0:0:0:0:
441,184,35685,2,0,L|429:93,1,90,10|0,0:2|0:0,0:0:0:0:
202,69,36022,5,4,3:0:0:0:
296,102,36190,2,0,L|392:87,1,90,0|10,0:0|0:2,0:0:0:0:
260,184,36527,2,0,L|164:169,1,90
326,247,36864,2,0,L|312:153,1,90,2|8,3:2|0:2,0:0:0:0:
216,148,37201,1,2,0:2:0:0:
444,203,37370,6,0,P|509:253|455:312,1,180,2|10,3:2|0:2,0:0:0:0:
302,360,37876,2,0,P|274:302|376:281,1,180,2|2,0:0|3:2,0:0:0:0:
234,209,38381,2,0,L|224:119,1,90,10|0,0:2|0:0,0:0:0:0:
456,117,38718,5,4,3:0:0:0:
363,137,38887,2,0,L|453:151,2,90,0|10|0,0:0|0:2|0:0,0:0:0:0:
269,160,39392,1,0,0:0:0:0:
422,229,39561,2,0,L|449:331,1,90,2|8,3:2|0:2,0:0:0:0:
351,334,39898,1,2,0:2:0:0:
123,304,40067,6,0,P|92:263|194:217,1,180,2|10,3:2|0:2,0:0:0:0:
326,170,40572,2,0,L|132:141,1,180,2|2,0:0|3:2,0:0:0:0:
273,111,41078,2,0,L|363:100,1,90,10|0,0:2|0:0,0:0:0:0:
121,51,41415,5,4,3:0:0:0:
214,72,41583,1,2,0:0:0:0:
61,114,41752,2,0,L|55:218,1,90,10|0,0:2|0:0,0:0:0:0:
202,182,42089,2,0,L|196:286,1,90,2|0,0:0|3:2,0:0:0:0:
344,326,42426,1,10,0:2:0:0:
200,350,42595,5,2,3:2:0:0:
168,338,42679,1,0,1:0:0:0:
162,302,42763,1,0,1:0:0:0:
189,278,42848,1,0,1:0:0:0:
336,269,42932,1,2,3:2:0:0:
381,251,43016,1,0,1:0:0:0:
391,200,43100,1,0,1:0:0:0:
359,160,43185,1,0,1:0:0:0:
192,143,43269,5,2,3:2:0:0:
141,128,43353,1,0,1:0:0:0:
127,76,43437,1,0,1:0:0:0:
156,28,43522,1,0,1:0:0:0:
213,20,43606,1,2,3:2:0:0:
304,29,43690,1,0,1:0:0:0:
395,40,43774,2,0,L|412:85,3,45,8|0|0|0,0:0|0:0|0:0|0:0,0:0:0:0:
219,107,44112,6,0,P|168:138|236:203,1,180,6|8,3:2|0:2,0:0:0:0:
384,186,44617,2,0,P|437:233|361:283,1,180,2|0,0:0|3:2,0:0:0:0:
216,335,45123,2,0,L|205:246,1,90,10|0,0:2|0:0,0:0:0:0:
433,344,45460,6,0,L|340:335,1,90,2|0,3:2|0:0,0:0:0:0:
248,349,45797,1,10,0:2:0:0:
373,267,45965,2,0,L|468:259,1,90,2|0,0:0|0:0,0:0:0:0:
307,219,46303,2,0,P|261:172|333:112,1,180,2|0,3:2|0:0,0:0:0:0:
104,62,46808,6,0,L|89:163,1,90,2|0,3:2|0:0,0:0:0:0:
216,176,47145,2,0,P|254:229|173:284,1,180,8|0,0:2|0:0,0:0:0:0:
51,333,47651,2,0,L|140:350,2,90,2|8|0,3:2|0:2|0:0,0:0:0:0:
280,316,48157,6,0,L|264:224,1,90,2|0,3:2|0:0,0:0:0:0:
170,212,48494,1,8,0:2:0:0:
323,213,48662,2,0,P|364:176|285:115,1,180,2|0,0:0|3:2,0:0:0:0:
135,115,49168,2,0,L|150:27,1,90,8|0,0:2|0:0,0:0:0:0:
378,83,49505,6,0,L|170:111,1,180,4|8,3:0|0:2,0:0:0:0:
352,169,50010,2,0,P|420:217|371:278,1,180,2|0,0:0|3:2,0:0:0:0:
218,304,50516,2,0,L|319:333,1,90,10|0,0:2|0:0,0:0:0:0:
72,333,50853,6,0,L|61:241,1,90,2|0,3:2|0:0,0:0:0:0:
158,254,51190,1,10,0:2:0:0:
32,178,51359,2,0,L|129:167,1,90,2|0,0:0|0:0,0:0:0:0:
276,109,51696,2,0,L|83:68,1,180,2|0,3:2|0:0,0:0:0:0:
327,206,52201,6,0,L|502:152,2,180,2|8|0,3:2|0:0|3:0,0:0:0:0:
481,258,53044,1,2,3:2:0:0:
353,292,53213,2,0,L|442:309,1,90,8|2,0:2|0:0,0:0:0:0:
213,332,53550,6,0,L|203:285,1,45,2|0,3:2|0:0,0:0:0:0:
285,288,53718,2,0,L|295:241,1,45,0|0,3:0|0:0,0:0:0:0:
143,223,53887,2,0,L|179:197,1,45,2|0,3:2|0:0,0:0:0:0:
338,189,54055,2,0,L|375:163,1,45,2|0,3:2|0:0,0:0:0:0:
197,121,54224,5,0,3:0:0:0:
146,114,54308,1,0,1:0:0:0:
156,60,54392,1,0,1:0:0:0:
247,50,54477,1,0,1:0:0:0:
338,41,54561,2,0,L|357:91,3,45,8|0|0|0,0:0|0:0|0:0|0:0,0:0:0:0:
149,135,54898,6,0,L|49:128,1,90,6|2,3:2|3:2,0:0:0:0:
204,219,55235,2,0,L|304:212,1,90,10|0,0:2|0:0,0:0:0:0:
149,332,55572,2,0,L|238:339,1,90,2|2,0:0|3:2,0:0:0:0:
383,256,55909,2,0,L|293:263,1,90,10|0,0:2|0:0,0:0:0:0:
63,240,56246,6,0,L|154:234,2,90,2|2|10,3:2|3:2|0:2,0:0:0:0:
292,301,56752,2,0,P|360:259|305:205,1,180,4|2,0:3|3:2,0:0:0:0:
178,180,57258,1,10,0:2:0:0:
315,153,57426,1,0,0:0:0:0:
70,99,57595,6,0,L|56:194,1,90,4|2,3:0|3:2,0:0:0:0:
202,215,57932,2,0,L|216:310,1,90,10|0,0:2|0:0,0:0:0:0:
71,333,58269,2,0,L|187:354,1,90,2|2,0:0|3:2,0:0:0:0:
303,280,58606,2,0,L|187:301,1,90,10|0,0:2|0:0,0:0:0:0:
445,364,58943,6,0,L|350:347,1,90,2|2,3:2|3:2,0:0:0:0:
262,360,59280,1,10,0:2:0:0:
406,313,59449,2,0,P|463:257|402:204,1,180,2|2,0:0|3:2,0:0:0:0:
259,185,59954,2,0,L|241:282,1,90,10|0,0:2|0:0,0:0:0:0:
474,321,60291,6,0,L|280:346,1,180,4|10,3:0|0:2,0:0:0:0:
151,275,60797,2,0,L|345:300,1,180,2|2,0:0|3:2,0:0:0:0:
98,347,61303,2,0,P|44:324|85:236,1,180,10|2,0:2|3:2,0:0:0:0:
233,268,61808,2,0,P|302:245|266:167,1,180,2|2,3:2|0:0,0:0:0:0:
35,124,62314,2,0,L|236:106,1,180,2|8,0:0|0:2,0:0:0:0:
121,93,62819,1,2,0:0:0:0:
366,52,62988,6,0,L|271:63,1,90,4|2,3:0|3:2,0:0:0:0:
423,144,63325,2,0,L|328:155,1,90,10|0,0:2|0:0,0:0:0:0:
188,132,63662,2,0,L|173:226,1,90,2|2,0:0|3:2,0:0:0:0:
320,261,63999,2,0,L|410:271,1,90,10|0,0:2|0:0,0:0:0:0:
179,351,64336,6,0,L|270:346,1,90,2|0,3:2|3:2,0:0:0:0:
338,324,64589,1,2,0:0:0:0:
270,295,64673,2,0,L|181:290,1,90,8|2,0:2|0:0,0:0:0:0:
410,363,65010,1,2,0:0:0:0:
488,283,65179,1,0,3:2:0:0:
465,163,65348,1,8,0:2:0:0:
358,107,65516,1,2,0:0:0:0:
69,163,65685,6,0,L|164:157,1,90,6|2,3:2|3:2,0:0:0:0:
304,63,66022,2,0,L|209:57,1,90,10|0,0:2|0:0,0:0:0:0:
359,155,66359,2,0,L|264:161,1,90,2|2,0:0|3:2,0:0:0:0:
124,255,66696,2,0,L|219:261,1,90,10|0,0:2|0:0,0:0:0:0:
444,302,67033,6,0,L|335:323,2,90,2|2|10,3:2|3:2|0:2,0:0:0:0:
214,228,67539,2,0,L|23:188,1,180,4|2,0:3|3:2,0:0:0:0:
164,159,68044,1,10,0:2:0:0:
26,147,68213,1,0,0:0:0:0:
268,122,68381,6,0,L|285:26,1,90,4|2,3:0|3:2,0:0:0:0:
139,102,68718,2,0,L|122:6,1,90,10|0,0:2|0:0,0:0:0:0:
268,217,69055,2,0,L|166:202,1,90,2|2,0:0|3:2,0:0:0:0:
324,161,69392,2,0,L|426:146,1,90,10|0,0:2|0:0,0:0:0:0:
180,297,69730,6,0,L|274:292,2,90,2|2|10,3:2|3:2|0:2,0:0:0:0:
325,334,70235,2,0,P|360:261|287:226,1,180,2|2,0:0|3:2,0:0:0:0:
143,252,70741,2,0,L|125:163,1,90,10|0,0:2|0:0,0:0:0:0:
355,94,71078,6,0,L|161:69,1,180,4|10,3:0|0:2,0:0:0:0:
320,37,71583,2,0,P|375:42|345:147,1,180,2|2,0:0|3:2,0:0:0:0:
137,217,72089,2,0,L|343:175,1,180,10|2,0:2|3:2,0:0:0:0:
170,263,72595,2,0,P|113:244|142:149,1,180,2|2,3:2|0:0,0:0:0:0:
370,246,73100,2,0,L|176:225,1,180,2|8,0:0|0:2,0:0:0:0:
96,243,73606,1,2,0:0:0:0:
338,126,73774,6,0,L|243:119,1,90,4|2,3:0|3:2,0:0:0:0:
394,39,74112,2,0,L|299:32,1,90,10|0,0:2|0:0,0:0:0:0:
449,98,74449,2,0,L|460:200,1,90,2|2,0:0|3:2,0:0:0:0:
314,223,74786,2,0,L|219:216,1,90,10|0,0:2|0:0,0:0:0:0:
455,282,75123,5,6,3:2:0:0:
302,342,75291,1,4,3:0:0:0:
232,352,75376,1,2,1:2:0:0:
168,340,75460,1,8,0:0:0:0:
137,294,75544,1,0,1:0:0:0:
145,250,75628,1,2,1:2:0:0:
193,229,75713,1,0,1:0:0:0:
342,204,75797,6,0,L|391:198,1,45,2|0,1:2|0:0,0:0:0:0:
237,180,75965,2,0,L|178:172,1,45,0|0,3:0|0:0,0:0:0:0:
358,127,76134,1,8,0:0:0:0:
415,107,76218,1,0,1:0:0:0:
419,48,76303,1,0,1:0:0:0:
364,25,76387,1,0,1:0:0:0:
163,49,76471,5,4,3:2:0:0:
439,162,87258,6,0,L|452:59,1,90,6|0,3:2|3:2,0:0:0:0:
324,113,87595,2,0,P|257:156|308:216,1,180,10|0,0:0|0:0,0:0:0:0:
432,249,88100,2,0,L|444:156,1,90,2|8,3:2|0:0,0:0:0:0:
290,234,88437,6,0,L|111:194,1,180,2|2,0:0|3:2,0:0:0:0:
20,194,88943,1,8,0:0:0:0:
171,127,89112,2,0,P|214:178|127:227,1,180,2|0,0:0|3:2,0:0:0:0:
46,297,89617,1,10,0:0:0:0:
154,309,89786,1,2,0:0:0:0:
381,330,89954,6,0,L|391:239,1,90,4|0,3:0|3:2,0:0:0:0:
264,274,90291,2,0,L|235:93,1,180,10|0,0:0|0:0,0:0:0:0:
366,206,90797,2,0,L|376:115,1,90,2|8,3:2|0:0,0:0:0:0:
222,174,91134,6,0,L|427:140,1,180,2|0,0:0|3:2,0:0:0:0:
304,191,91640,2,0,L|294:287,1,90,8|0,0:0|0:0,0:0:0:0:
448,341,91977,1,2,0:0:0:0:
356,325,92145,1,2,3:2:0:0:
456,309,92314,2,0,L|467:218,1,90,10|0,0:0|0:0,0:0:0:0:
238,240,92651,6,0,L|227:149,1,90,4|0,3:0|3:2,0:0:0:0:
354,106,92988,2,0,P|405:166|338:209,1,180,10|0,0:0|0:0,0:0:0:0:
212,272,93494,2,0,L|201:181,1,90,2|8,3:2|0:0,0:0:0:0:
356,66,93831,6,0,P|414:108|334:172,1,180,2|2,0:0|3:2,0:0:0:0:
261,194,94336,1,8,0:0:0:0:
107,157,94505,2,0,L|289:115,1,180,2|0,0:0|3:2,0:0:0:0:
377,74,95010,1,10,0:0:0:0:
269,64,95179,1,2,0:0:0:0:
41,41,95348,6,0,L|56:142,1,90,4|0,3:0|3:2,0:0:0:0:
182,119,95685,2,0,L|206:301,1,180,10|0,0:0|0:0,0:0:0:0:
81,269,96190,2,0,L|66:373,1,90,2|8,3:2|0:0,0:0:0:0:
222,340,96527,2,0,L|275:345,1,45,2|0,0:0|0:0,0:0:0:0:
417,361,96696,5,0,3:2:0:0:
465,340,96780,1,0,1:2:0:0:
477,290,96864,1,2,1:2:0:0:
453,244,96949,1,0,1:2:0:0:
399,238,97033,1,8,0:0:0:0:
256,227,97201,1,2,1:2:0:0:
223,202,97286,1,0,1:2:0:0:
216,158,97370,1,0,3:2:0:0:
240,118,97454,1,0,1:2:0:0:
389,80,97539,6,0,L|438:85,1,45,2|0,1:2|0:0,0:0:0:0:
281,165,97707,2,0,L|232:170,1,45,10|0,0:0|0:0,0:0:0:0:
386,181,97876,2,0,L|394:240,1,45,0|0,1:2|0:0,0:0:0:0:
202,262,98044,6,0,L|186:366,1,90,6|0,3:2|0:0,0:0:0:0:
316,330,98381,2,0,P|374:292|315:209,1,180,10|0,0:0|0:0,0:0:0:0:
201,185,98887,1,2,3:2:0:0:
294,173,99055,1,10,0:0:0:0:
152,123,99224,1,2,0:0:0:0:
379,88,99392,6,0,P|427:152|358:193,1,180,2|10,3:2|0:0,0:0:0:0:
232,238,99898,2,0,L|132:225,1,90,2|0,0:0|0:0,0:0:0:0:
296,316,100235,2,0,L|396:303,1,90,2|8,3:2|0:0,0:0:0:0:
155,361,100572,6,0,P|58:328|139:233,1,270,2|8,0:0|0:0,0:0:0:0:
234,257,101246,2,0,L|250:157,1,90
94,197,101583,2,0,P|39:165|93:87,1,180,2|2,3:2|0:0,0:0:0:0:
246,77,102089,6,0,L|54:132,1,180,2|10,3:2|0:0,0:0:0:0:
200,151,102595,2,0,L|297:166,1,90,2|0,0:0|0:0,0:0:0:0:
134,223,102932,2,0,L|37:238,1,90,2|8,3:2|0:0,0:0:0:0:
140,284,103269,1,0,0:0:0:0:
365,270,103437,6,0,L|378:363,1,90,4|0,3:0|0:0,0:0:0:0:
251,344,103774,2,0,P|198:284|262:236,1,180,10|0,0:0|0:0,0:0:0:0:
388,263,104280,2,0,P|466:237|436:154,1,180,2|2,3:2|0:0,0:0:0:0:
216,162,104786,6,0,L|397:119,1,180,2|10,3:2|0:0,0:0:0:0:
265,67,105291,2,0,L|156:56,1,90,2|0,0:0|0:0,0:0:0:0:
328,162,105628,2,0,L|437:151,1,90,2|8,3:2|0:0,0:0:0:0:
187,125,105965,6,0,P|161:323|259:123,1,630,2|10,0:0|0:0,0:0:0:0:
172,138,107230,1,2,0:0:0:0:
82,152,107314,6,0,B|17:125|17:125|184:103,1,225,4|0,0:3|0:0,0:0:0:0:
274,112,107819,2,0,P|321:129|263:175,1,135,2|0,0:3|0:0,0:0:0:0:
136,242,108157,2,0,P|84:212|124:169,1,135,2|0,0:3|0:0,0:0:0:0:
292,200,108494,2,0,P|339:217|281:263,1,135,2|0,0:3|0:0,0:0:0:0:
112,316,108831,5,4,3:2:0:0:
207,339,108999,2,0,L|295:323,2,90,0|10|0,0:0|0:2|0:0,0:0:0:0:
110,344,109505,1,0,0:0:0:0:
263,280,109673,2,0,L|282:185,1,90,2|8,3:2|0:2,0:0:0:0:
186,204,110010,2,0,L|140:199,1,45,2|0,0:2|0:0,0:0:0:0:
292,154,110179,6,0,L|478:134,1,180,2|10,3:2|0:2,0:0:0:0:
317,175,110685,2,0,P|262:160|297:68,1,180,2|2,0:0|3:2,0:0:0:0:
420,39,111190,2,0,L|412:135,1,90,10|0,0:2|0:0,0:0:0:0:
184,168,111527,5,4,3:0:0:0:
278,197,111696,2,0,L|372:180,1,90,0|10,0:0|0:2,0:0:0:0:
493,270,112033,2,0,L|399:253,1,90
251,294,112370,2,0,L|235:203,1,90,2|8,3:2|0:2,0:0:0:0:
331,231,112707,2,0,L|375:225,1,45,2|0,0:2|0:0,0:0:0:0:
224,163,112876,6,0,P|160:215|206:283,1,180,2|10,3:2|0:2,0:0:0:0:
358,317,113381,2,0,L|159:360,1,180,2|2,0:0|3:2,0:0:0:0:
308,298,113887,2,0,L|325:205,1,90,10|0,0:2|0:0,0:0:0:0:
94,239,114224,5,4,3:0:0:0:
187,259,114392,2,0,L|94:276,2,90,0|10|0,0:0|0:2|0:0,0:0:0:0:
281,280,114898,1,0,0:0:0:0:
127,196,115067,2,0,L|113:106,1,90,2|8,3:2|0:2,0:0:0:0:
208,123,115404,2,0,L|260:114,1,45,2|0,0:2|0:0,0:0:0:0:
400,76,115572,6,0,P|455:85|405:165,1,180,2|10,3:2|0:2,0:0:0:0:
260,186,116078,2,0,P|332:212|272:279,1,180,2|2,0:0|3:2,0:0:0:0:
163,264,116583,2,0,L|146:172,1,90,10|0,0:2|0:0,0:0:0:0:
380,233,116921,5,4,3:0:0:0:
285,216,117089,1,2,0:0:0:0:
411,184,117258,2,0,L|502:158,1,90,10|0,0:2|0:0,0:0:0:0:
344,149,117595,2,0,L|253:123,1,90,2|0,0:0|3:2,0:0:0:0:
412,106,117932,2,0,L|430:17,1,90,10|2,0:2|0:0,0:0:0:0:
382,19,118185,1,0,0:0:0:0:
233,40,118269,6,0,P|195:90|273:145,1,180,2|10,3:2|0:2,0:0:0:0:
426,185,118774,2,0,L|243:221,1,180,2|2,0:0|3:2,0:0:0:0:
374,248,119280,2,0,L|396:354,1,90,10|0,0:2|0:0,0:0:0:0:
147,363,119617,5,4,3:2:0:0:
241,325,119786,2,0,L|330:310,2,90,0|10|0,0:0|0:2|0:0,0:0:0:0:
143,319,120291,1,0,0:0:0:0:
296,252,120460,2,0,L|305:160,1,90,2|8,3:2|0:2,0:0:0:0:
210,178,120797,2,0,L|203:130,1,45,2|0,0:2|0:0,0:0:0:0:
352,214,120965,6,0,P|406:154|344:102,1,180,2|10,3:2|0:2,0:0:0:0:
192,62,121471,2,0,P|154:133|225:170,1,180,2|2,0:0|3:2,0:0:0:0:
352,153,121977,2,0,L|368:62,1,90,10|0,0:2|0:0,0:0:0:0:
137,88,122314,5,4,3:0:0:0:
230,114,122482,2,0,L|324:103,1,90,0|10,0:0|0:2,0:0:0:0:
166,192,122819,2,0,L|147:104,1,90
275,230,123157,2,0,L|259:139,1,90,2|8,3:2|0:2,0:0:0:0:
165,330,123494,2,0,L|159:280,1,45,2|0,0:2|0:0,0:0:0:0:
309,360,123662,6,0,L|490:328,1,180,2|10,3:2|0:2,0:0:0:0:
329,296,124168,2,0,P|276:236|340:189,1,180,2|2,0:0|3:2,0:0:0:0:
469,229,124673,2,0,L|485:137,1,90,10|0,0:2|0:0,0:0:0:0:
253,133,125010,5,4,3:0:0:0:
348,152,125179,2,0,L|256:164,2,90,0|10|0,0:0|0:2|0:0,0:0:0:0:
254,194,125685,1,0,0:0:0:0:
408,213,125853,2,0,L|427:315,1,90,2|8,3:2|0:2,0:0:0:0:
332,332,126190,2,0,L|281:324,1,45,2|0,0:2|0:0,0:0:0:0:
137,343,126359,6,0,P|106:268|182:239,1,180,2|10,3:2|0:2,0:0:0:0:
335,252,126864,2,0,L|156:288,1,180,2|2,0:0|3:2,0:0:0:0:
285,230,127370,2,0,L|307:139,1,90,10|0,0:2|0:0,0:0:0:0:
75,167,127707,5,4,3:0:0:0:
170,153,127876,1,2,0:0:0:0:
17,220,128044,2,0,L|7:321,1,90,10|0,0:2|0:0,0:0:0:0:
154,270,128381,2,0,L|144:371,1,90,2|0,0:0|3:2,0:0:0:0:
292,331,128718,1,10,0:2:0:0:
147,329,128887,5,2,3:2:0:0:
117,321,128971,1,0,1:0:0:0:
110,287,129055,1,0,1:0:0:0:
136,265,129140,1,0,1:0:0:0:
285,268,129224,1,2,3:2:0:0:
322,247,129308,1,0,1:0:0:0:
316,199,129392,1,0,1:0:0:0:
271,189,129477,1,0,1:0:0:0:
105,180,129561,5,2,3:2:0:0:
84,161,129645,1,0,1:0:0:0:
100,128,129730,1,0,1:0:0:0:
67,108,129814,1,0,1:0:0:0:
94,74,129898,1,2,3:2:0:0:
185,78,129982,1,0,1:0:0:0:
277,92,130067,2,0,L|293:51,3,45,10|0|0|0,0:0|0:0|0:0|0:0,0:0:0:0:
107,119,130404,6,0,P|29:178|136:258,1,270,6|0,3:2|0:0,0:0:0:0:
286,288,131078,2,0,L|106:363,1,180,2|0,0:0|0:0,0:0:0:0:
333,349,131752,2,0,L|356:165,1,180,2|0,0:0|0:0,0:0:0:0:
261,179,132258,2,0,L|247:89,1,90,2|0,0:0|0:0,0:0:0:0:
401,90,132595,2,0,P|448:112|389:195,1,180,2|0,0:0|0:0,0:0:0:0:
242,182,133100,6,0,P|166:224|312:330,1,360,2|0,0:0|0:0,0:0:0:0:
157,354,133943,2,0,L|169:171,1,180,2|0,0:0|0:0,0:0:0:0:
262,208,134449,1,2,0:0:0:0:
74,193,134786,2,0,L|58:104,1,90
184,58,135123,2,0,P|210:105|116:151,1,180,2|0,0:0|0:0,0:0:0:0:
381,145,135797,6,0,P|442:165|333:262,1,270,2|0,0:0|0:0,0:0:0:0:
218,378,136471,2,0,L|377:262,1,180,2|0,0:0|0:0,0:0:0:0:
145,241,137145,2,0,L|113:61,1,180,2|2,0:0|0:0,0:0:0:0:
208,91,137651,2,0,L|225:-2,1,90,2|0,0:0|0:0,0:0:0:0:
71,139,137988,2,0,L|249:169,1,180,2|0,0:0|0:0,0:0:0:0:
404,167,138494,5,2,3:2:0:0:
223,229,138831,1,0,3:2:0:0:
439,251,139168,1,0,3:2:0:0:
296,300,139336,2,0,L|108:281,1,180,2|2,0:0|0:0,0:0:0:0:
346,222,139842,6,0,L|351:170,1,45,2|0,3:2|0:0,0:0:0:0:
265,187,140010,2,0,L|211:178,1,45,0|0,3:0|0:0,0:0:0:0:
366,128,140179,2,0,L|371:84,1,45,2|0,3:2|0:0,0:0:0:0:
199,134,140348,2,0,L|153:126,1,45,2|0,3:2|0:0,0:0:0:0:
331,81,140516,5,0,3:0:0:0:
353,45,140600,1,0,1:0:0:0:
307,26,140685,1,0,1:0:0:0:
217,37,140769,1,0,1:0:0:0:
127,52,140853,2,0,L|102:100,3,45,8|0|0|0,0:0|0:0|0:0|0:0,0:0:0:0:
310,143,141190,6,0,L|414:136,1,90,6|2,3:2|3:2,0:0:0:0:
256,188,141527,2,0,L|152:181,1,90,10|0,0:2|0:0,0:0:0:0:
331,230,141864,2,0,L|435:223,1,90,2|2,0:0|3:2,0:0:0:0:
192,279,142201,2,0,L|88:272,1,90,10|0,0:2|0:0,0:0:0:0:
335,312,142539,6,0,L|239:331,2,90,2|2|10,3:2|3:2|0:2,0:0:0:0:
105,347,143044,2,0,P|59:313|123:235,1,180,4|2,0:3|3:2,0:0:0:0:
247,216,143550,1,10,0:2:0:0:
110,201,143718,1,0,0:0:0:0:
355,161,143887,6,0,L|371:67,1,90,4|2,3:0|3:2,0:0:0:0:
225,141,144224,2,0,L|209:47,1,90,10|0,0:2|0:0,0:0:0:0:
377,226,144561,2,0,L|465:197,1,90,2|2,0:0|3:2,0:0:0:0:
233,259,144898,2,0,L|145:230,1,90,10|0,0:2|0:0,0:0:0:0:
378,331,145235,6,0,L|283:357,1,90,2|2,3:2|3:2,0:0:0:0:
195,348,145572,1,10,0:2:0:0:
340,292,145741,2,0,P|401:239|345:180,1,180,2|2,0:0|3:2,0:0:0:0:
219,159,146246,1,10,0:2:0:0:
463,59,146415,6,0,P|496:118|400:168,1,180,2|0,0:0|0:0,0:0:0:0:
291,192,146921,1,10,0:2:0:0:
146,99,147089,2,0,L|334:61,1,180,2|2,0:0|3:2,0:0:0:0:
91,38,147595,2,0,P|43:78|112:143,1,180,10|2,0:2|3:2,0:0:0:0:
257,105,148100,2,0,P|321:139|257:207,1,180,2|2,3:2|0:0,0:0:0:0:
41,252,148606,2,0,L|229:275,1,180,2|8,0:0|0:2,0:0:0:0:
126,306,149112,1,2,0:0:0:0:
369,338,149280,6,0,L|272:352,1,90,4|2,3:0|3:2,0:0:0:0:
424,242,149617,2,0,L|327:256,1,90,10|0,0:2|0:0,0:0:0:0:
190,278,149954,2,0,L|286:296,1,90,2|2,0:0|3:2,0:0:0:0:
441,197,150291,2,0,L|345:215,1,90,10|0,0:2|0:0,0:0:0:0:
122,182,150628,6,0,L|216:169,1,90,2|0,3:2|3:2,0:0:0:0:
279,187,150881,1,2,0:0:0:0:
211,214,150965,2,0,L|122:202,1,90,8|2,0:2|0:0,0:0:0:0:
352,329,151303,1,2,0:0:0:0:
461,292,151471,1,0,3:2:0:0:
481,163,151640,1,8,0:2:0:0:
391,73,151808,1,2,0:0:0:0:
102,109,151977,6,0,L|195:102,1,90,6|2,3:2|3:2,0:0:0:0:
336,167,152314,2,0,L|234:153,1,90,10|0,0:2|0:0,0:0:0:0:
79,252,152651,2,0,L|181:238,1,90,2|2,0:0|3:2,0:0:0:0:
398,219,152988,2,0,L|305:212,1,90,10|0,0:2|0:0,0:0:0:0:
76,327,153325,6,0,L|166:313,2,90,2|2|10,3:2|3:2|0:2,0:0:0:0:
305,359,153831,2,0,L|484:321,1,180,4|2,0:3|3:2,0:0:0:0:
354,304,154336,1,10,0:2:0:0:
492,283,154505,1,0,0:0:0:0:
246,257,154673,6,0,L|226:153,1,90,4|2,3:0|3:2,0:0:0:0:
373,229,155010,2,0,L|393:125,1,90,10|0,0:2|0:0,0:0:0:0:
221,323,155348,2,0,L|321:312,1,90,2|2,0:0|3:2,0:0:0:0:
81,259,155685,2,0,L|181:248,1,90,10|0,0:2|0:0,0:0:0:0:
403,244,156022,5,2,3:2:0:0:
309,220,156190,2,0,L|211:231,1,90,2|10,3:2|0:2,0:0:0:0:
366,310,156527,2,0,P|431:261|382:196,1,180,2|2,0:0|3:2,0:0:0:0:
239,195,157033,2,0,L|223:106,1,90,10|0,0:2|0:0,0:0:0:0:
453,84,157370,6,0,L|263:58,1,180,4|10,3:0|0:2,0:0:0:0:
130,149,157876,2,0,L|320:123,1,180,2|2,0:0|3:2,0:0:0:0:
79,75,158381,2,0,P|21:106|72:194,1,180,10|2,0:2|3:2,0:0:0:0:
207,265,158887,2,0,P|248:221|180:144,1,180,2|2,3:2|0:0,0:0:0:0:
413,366,159392,2,0,L|230:337,1,180,2|8,0:0|0:2,0:0:0:0:
140,350,159898,1,2,0:0:0:0:
386,261,160067,6,0,L|285:277,1,90,4|2,3:0|3:2,0:0:0:0:
444,154,160404,2,0,L|343:170,1,90,10|0,0:2|0:0,0:0:0:0:
213,187,160741,2,0,L|314:205,1,90,2|2,0:0|3:2,0:0:0:0:
136,121,161078,2,0,L|112:239,1,90,10|0,0:2|0:0,0:0:0:0:
348,79,161415,5,6,3:2:0:0:
193,101,161583,1,4,3:0:0:0:
124,112,161668,1,2,1:2:0:0:
92,168,161752,1,8,0:0:0:0:
119,215,161836,1,0,1:0:0:0:
96,266,161921,1,2,1:2:0:0:
114,310,162005,1,0,1:0:0:0:
279,337,162089,6,0,L|288:288,1,45,2|0,1:2|0:0,0:0:0:0:
129,324,162258,2,0,L|120:272,1,45,0|0,3:0|0:0,0:0:0:0:
293,230,162426,1,8,0:0:0:0:
347,216,162510,1,0,1:0:0:0:
356,159,162595,1,0,1:0:0:0:
308,126,162679,1,0,1:0:0:0:
106,101,162763,6,0,L|197:96,1,90,6|2,3:2|3:2,0:0:0:0:
341,56,163100,2,0,L|250:51,1,90,10|0,0:2|0:0,0:0:0:0:
416,154,163437,2,0,L|314:143,1,90,2|2,0:0|3:2,0:0:0:0:
97,194,163774,2,0,L|199:183,1,90,10|0,0:2|0:0,0:0:0:0:
416,244,164112,6,0,L|322:234,2,90,2|2|10,3:2|3:2|0:2,0:0:0:0:
187,189,164617,2,0,P|142:229|219:303,1,180,4|2,0:3|3:2,0:0:0:0:
333,335,165123,1,10,0:2:0:0:
195,341,165291,1,0,0:0:0:0:
439,319,165460,6,0,L|456:227,1,90,4|2,3:0|3:2,0:0:0:0:
310,245,165797,2,0,L|293:153,1,90,10|0,0:2|0:0,0:0:0:0:
461,135,166134,2,0,L|362:117,1,90,2|2,0:0|3:2,0:0:0:0:
146,155,166471,2,0,L|47:137,1,90,10|0,0:2|0:0,0:0:0:0:
288,219,166808,6,0,L|187:235,1,90,2|2,3:2|3:2,0:0:0:0:
107,219,167145,1,10,0:2:0:0:
251,298,167314,2,0,P|311:243|256:184,1,180,2|2,0:0|3:2,0:0:0:0:
111,165,167819,2,0,L|95:75,1,90,10|0,0:2|0:0,0:0:0:0:
326,66,168157,6,0,L|135:35,1,180,4|10,3:0|0:2,0:0:0:0:
293,146,168662,2,0,L|484:115,1,180,2|2,0:0|3:2,0:0:0:0:
240,211,169168,2,0,P|199:173|269:94,1,180,10|2,0:2|3:2,0:0:0:0:
407,163,169673,2,0,P|470:184|408:266,1,180,2|2,3:2|0:0,0:0:0:0:
203,348,170179,2,0,L|395:330,1,180,2|8,0:0|0:2,0:0:0:0:
287,324,170685,1,2,0:0:0:0:
44,312,170853,6,0,L|153:322,1,90,4|2,3:0|3:2,0:0:0:0:
280,247,171190,2,0,L|171:257,1,90,10|0,0:2|0:0,0:0:0:0:
335,142,171527,2,0,L|226:152,1,90,2|2,0:0|3:2,0:0:0:0:
411,179,171864,2,0,L|429:87,1,90,10|0,0:2|0:0,0:0:0:0:
196,236,172201,6,0,L|287:246,1,90,2|0,3:2|3:2,0:0:0:0:
354,196,172454,1,2,0:0:0:0:
286,138,172539,2,0,L|196:148,1,90,8|2,0:2|0:0,0:0:0:0:
426,65,172876,1,2,0:0:0:0:
480,177,173044,1,0,3:2:0:0:
435,299,173213,1,8,0:2:0:0:
318,340,173381,1,2,0:0:0:0:
28,111,173550,6,0,L|127:119,1,90,6|2,3:2|3:2,0:0:0:0:
262,83,173887,2,0,L|153:75,1,90,10|0,0:2|0:0,0:0:0:0:
340,184,174224,2,0,L|433:179,1,90,2|2,0:0|3:2,0:0:0:0:
200,239,174561,2,0,L|107:234,1,90,10|0,0:2|0:0,0:0:0:0:
340,329,174898,6,0,L|245:341,2,90,2|2|10,3:2|3:2|0:2,0:0:0:0:
110,270,175404,2,0,L|301:229,1,180,4|2,0:3|3:2,0:0:0:0:
160,199,175909,1,10,0:2:0:0:
300,183,176078,1,0,0:0:0:0:
58,151,176246,6,0,L|46:59,1,90,4|2,3:0|3:2,0:0:0:0:
191,127,176583,2,0,L|296:119,1,90,10|0,0:2|0:0,0:0:0:0:
113,227,176921,2,0,L|209:220,1,90,2|2,0:0|3:2,0:0:0:0:
433,250,177258,2,0,L|454:154,1,90,10|0,0:2|0:0,0:0:0:0:
222,300,177595,6,0,L|329:312,2,90,2|2|10,3:2|3:2|0:2,0:0:0:0:
365,328,178100,2,0,P|400:254|328:213,1,180,2|2,0:0|3:2,0:0:0:0:
199,194,178606,1,10,0:2:0:0:
338,178,178774,1,0,0:0:0:0:
106,109,178943,6,0,L|305:134,1,180,4|10,3:0|0:2,0:0:0:0:
136,142,179449,2,0,P|73:163|128:250,1,180,2|2,0:0|3:2,0:0:0:0:
334,291,179954,2,0,L|147:310,1,180,10|2,0:2|3:2,0:0:0:0:
302,341,180460,2,0,P|343:311|271:232,1,180,2|2,3:2|0:0,0:0:0:0:
52,168,180965,2,0,L|250:156,1,180,2|8,0:0|0:2,0:0:0:0:
137,134,181471,1,2,0:0:0:0:
382,90,181640,6,0,L|289:81,1,90,4|2,3:0|3:2,0:0:0:0:
440,152,181977,2,0,L|454:59,1,90,10|0,0:2|0:0,0:0:0:0:
309,182,182314,2,0,L|422:194,1,90,2|2,0:0|3:2,0:0:0:0:
231,281,182651,2,0,L|344:293,1,90,10|0,0:2|1:0,0:0:0:0:
91,328,182988,5,6,3:2:0:0:
246,355,183157,1,4,3:0:0:0:
314,350,183241,1,2,1:2:0:0:
368,312,183325,1,8,0:0:0:0:
382,256,183409,1,0,1:0:0:0:
351,206,183494,1,2,1:2:0:0:
293,198,183578,1,0,1:0:0:0:
143,210,183662,6,0,L|98:203,1,45,2|0,1:2|0:0,0:0:0:0:
250,176,183831,2,0,L|310:171,1,45,0|0,3:0|0:0,0:0:0:0:
131,137,183999,1,8,0:0:0:0:
75,123,184083,1,0,1:0:0:0:
68,64,184168,1,0,1:0:0:0:
118,32,184252,1,0,1:0:0:0:
320,54,184336,5,4,3:2:0:0:
