osu file format v14

[General]
AudioFilename: audio.mp3
AudioLeadIn: 0
PreviewTime: 13137
Countdown: 0
SampleSet: Soft
StackLeniency: 0.4
Mode: 0
LetterboxInBreaks: 0
WidescreenStoryboard: 0

[Editor]
DistanceSpacing: 1
BeatDivisor: 4
GridSize: 4
TimelineZoom: 1

[Metadata]
Title:only my railgun
TitleUnicode:only my railgun
Artist:*namirin
ArtistUnicode:*なみりん
Creator:GreenHue
Version:Insane
Source:とある科学の超電磁砲
Tags:Toaru Kagaku no Railgun Anime A Certain Scientific Opening Cut_Version fripSide rvmathew
BeatmapID:1549486
BeatmapSetID:734352

[Difficulty]
HPDrainRate:6
CircleSize:4
OverallDifficulty:7
ApproachRate:8.5
SliderMultiplier:1.8
SliderTickRate:1

[Events]
//Background and Video events
0,0,"betterbg.png",0,0
//Break Periods
2,34106,39105
//Storyboard Layer 0 (Background)
//Storyboard Layer 1 (Fail)
//Storyboard Layer 2 (Pass)
//Storyboard Layer 3 (Foreground)
//Storyboard Sound Samples

[TimingPoints]
340,419.58041958042,4,2,1,47,1,0
340,-125,4,2,1,47,0,0
6633,-100,4,2,1,47,0,0
7053,-100,4,2,1,47,0,0
10409,-100,4,2,1,47,0,0
12088,-100,4,2,1,47,0,0
13137,-100,4,2,1,47,0,0
13766,-83.3333333333333,4,2,5,70,0,1
14186,-83.3333333333333,4,2,1,70,0,1
16284,-83.3333333333333,4,2,2,70,0,1
20479,-83.3333333333333,4,2,1,70,0,1
22997,-83.3333333333333,4,2,2,70,0,1
27193,-83.3333333333333,4,2,1,70,0,1
28032,-83.3333333333333,4,2,2,70,0,1
28137,-83.3333333333333,4,2,1,70,0,1
32228,-100,4,2,1,70,0,0
33906,-100,4,2,1,54,0,0
39780,-90.9090909090909,4,2,1,54,0,0
40095,-90.9090909090909,4,2,1,54,0,0
40200,-83.3333333333333,4,2,1,54,0,0
40619,-100,4,2,1,54,0,0
62018,-83.3333333333333,4,2,1,70,0,1
62437,-83.3333333333333,4,2,5,70,0,1
62857,-83.3333333333333,4,2,1,70,0,1
64955,-83.3333333333333,4,2,2,70,0,1
69151,-83.3333333333333,4,2,1,70,0,1
71668,-83.3333333333333,4,2,2,70,0,1
75864,-83.3333333333333,4,2,5,70,0,1
76284,-83.3333333333333,4,2,1,70,0,1
78381,-83.3333333333333,4,2,2,70,0,1
82577,-83.3333333333333,4,2,1,70,0,1
85095,-83.3333333333333,4,2,2,70,0,1
89291,-83.3333333333333,4,2,1,70,0,1
94221,-83.3333333333333,4,2,1,70,0,0

[Colours]
Combo1 : 0,0,255
Combo2 : 128,255,255
Combo3 : 0,255,255
Combo4 : 0,64,128

[HitObjects]
62,120,340,5,0,1:0:0:0:
134,73,549,1,0,0:0:0:0:
207,118,759,1,0,1:0:0:0:
281,74,969,1,0,0:0:0:0:
281,74,1074,2,0,P|333:60|393:77,1,108,0|0,0:0|0:0,0:0:0:0:
451,126,1598,1,0,1:0:0:0:
389,187,1808,1,0,0:0:0:0:
389,187,1913,2,0,P|323:200|276:187,1,108,0|8,0:0|0:0,0:0:0:0:
213,141,2437,5,0,1:0:0:0:
147,84,2647,1,0,0:0:0:0:
147,84,2752,2,0,P|81:71|30:87,1,108,0|0,0:0|0:0,0:0:0:0:
6,159,3277,1,8,1:2:0:0:
37,239,3486,1,0,0:0:0:0:
37,239,3591,2,0,P|84:253|146:233,1,108,0|0,0:0|0:0,0:0:0:0:
210,188,4116,5,0,1:0:0:0:
285,145,4326,1,0,0:0:0:0:
285,145,4430,2,0,L|402:156,1,108,0|0,0:0|0:0,0:0:0:0:
461,207,4955,1,0,1:0:0:0:
414,279,5165,1,8,0:0:0:0:
414,279,5269,2,0,L|292:267,1,108,0|0,0:0|0:0,0:0:0:0:
209,284,5794,5,0,1:0:0:0:
155,207,6004,1,0,0:0:0:0:
155,207,6109,2,0,P|210:194|266:210,1,108,0|0,0:0|0:0,0:0:0:0:
102,286,6633,2,0,L|107:322,3,30,2|0|0|2,1:3|0:0|0:0|0:0,0:0:0:0:
29,247,6948,5,2,0:0:0:0:
29,247,7053,2,0,L|19:146,1,90,0|2,1:2|0:0,0:0:0:0:
83,81,7472,1,0,1:0:0:0:
182,93,7682,1,2,0:0:0:0:
182,93,7787,2,0,P|254:108|333:82,1,135,0|2,0:0|0:0,0:0:0:0:
399,41,8312,1,0,1:0:0:0:
477,98,8521,1,2,0:0:0:0:
477,98,8626,2,0,L|467:244,1,135,0|2,0:0|0:0,0:0:0:0:
402,303,9151,5,0,1:0:0:0:
340,237,9360,1,2,0:0:0:0:
340,237,9465,2,0,P|268:225|190:246,1,135,0|2,0:0|0:0,0:0:0:0:
133,289,9990,1,0,1:0:0:0:
32,210,10200,1,2,0:0:0:0:
43,207,10305,1,2,0:0:0:0:
53,204,10409,6,0,L|102:195,1,45,0|0,1:1|0:1,0:0:0:0:
279,150,10619,2,0,L|230:159,1,45,8|8,0:1|0:1,0:0:0:0:
133,289,10829,2,0,L|149:242,1,45,8|8,1:1|0:1,0:0:0:0:
199,66,11039,2,0,L|182:112,1,45,8|8,0:1|0:1,0:0:0:0:
221,232,11249,1,8,1:1:0:0:
265,241,11353,1,8,0:1:0:0:
309,250,11458,1,8,0:1:0:0:
353,259,11563,1,8,0:1:0:0:
397,267,11668,2,0,L|435:275,2,30,8|8|8,1:1|0:1|0:1,0:0:0:0:
374,340,11878,1,8,0:1:0:0:
418,347,11983,1,8,0:1:0:0:
462,355,12088,5,0,1:0:0:0:
292,25,13137,5,0,0:0:0:0:
233,222,13346,1,0,0:0:0:0:
347,121,13556,1,2,0:3:0:0:
146,155,13766,6,0,L|128:270,1,107.999996704102,6|0,1:1|0:0,0:0:0:0:
145,303,14081,1,0,0:0:0:0:
184,340,14186,2,0,P|240:356|304:336,1,107.999996704102,8|0,0:1|0:0,0:0:0:0:
337,228,14605,2,0,L|347:103,1,107.999996704102,4|0,1:3|0:0,0:0:0:0:
353,66,14920,1,0,0:0:0:0:
361,12,15025,2,0,P|407:6|481:24,1,107.999996704102,8|0,0:1|0:0,0:0:0:0:
275,80,15444,6,0,P|229:86|155:68,1,107.999996704102,8|0,1:3|0:0,0:0:0:0:
116,59,15759,1,0,0:0:0:0:
64,42,15864,2,0,L|33:158,1,107.999996704102,8|0,0:1|0:0,0:0:0:0:
74,319,16284,1,2,1:3:0:0:
114,154,16493,1,0,0:0:0:0:
151,329,16703,1,8,0:1:0:0:
36,146,16913,1,0,0:0:0:0:
230,336,17123,6,0,P|282:347|407:318,1,161.999995056153,8|0,1:3|0:0,0:0:0:0:
432,296,17542,2,0,L|441:180,1,107.999996704102,8|0,0:1|0:0,0:0:0:0:
417,67,17962,2,0,L|334:74,1,53.9999983520508,0|0,1:0|0:0,0:0:0:0:
304,144,18172,2,0,L|225:138,1,53.9999983520508,0|0,0:0|0:0,0:0:0:0:
179,75,18381,2,0,P|156:130|165:183,1,107.999996704102,8|0,0:1|0:0,0:0:0:0:
228,271,18801,6,2,P|287:268|359:281,1,107.999996704102,2|0,1:3|0:0,0:0:0:0:
385,296,19116,2,2,P|376:234|387:172,1,107.999996704102,0|0,0:0|0:0,0:0:0:0:
403,140,19430,2,2,P|458:150|513:141,1,107.999996704102,0|4,0:0|1:3,0:0:0:0:
455,49,19850,1,0,0:0:0:0:
469,249,20060,1,8,0:2:0:0:
343,67,20270,1,0,0:0:0:0:
228,271,20479,6,0,L|101:259,1,107.999996704102,6|0,1:1|0:0,0:0:0:0:
66,252,20794,1,0,0:0:0:0:
28,212,20899,2,0,P|29:148|54:104,1,107.999996704102,8|0,0:1|0:0,0:0:0:0:
135,45,21319,2,0,P|186:38|267:56,1,107.999996704102,4|0,1:3|0:0,0:0:0:0:
290,68,21633,1,0,0:0:0:0:
315,115,21738,2,0,L|348:235,1,107.999996704102,8|0,0:1|0:0,0:0:0:0:
369,324,22158,6,0,P|317:349|247:345,1,107.999996704102,8|0,1:3|0:0,0:0:0:0:
215,336,22472,1,0,0:0:0:0:
177,297,22577,2,0,P|167:243|178:191,1,107.999996704102,8|0,0:1|0:0,0:0:0:0:
272,246,22997,1,2,1:3:0:0:
77,167,23207,1,0,0:0:0:0:
269,89,23416,1,8,0:1:0:0:
177,297,23626,1,0,0:0:0:0:
194,32,23836,6,0,P|271:-1|352:39,1,161.999995056153,4|0,1:2|0:0,0:0:0:0:
380,64,24256,2,0,L|390:182,1,107.999996704102,8|0,0:1|0:0,0:0:0:0:
269,89,24675,1,0,1:1:0:0:
483,176,24885,1,0,0:0:0:0:
304,174,25095,1,8,0:1:0:0:
512,89,25305,1,0,0:0:0:0:
352,260,25514,6,0,P|274:268|216:208,1,161.999995056153,8|0,1:3|0:0,0:0:0:0:
200,164,25934,2,0,L|81:174,1,107.999996704102,8|0,0:1|0:0,0:0:0:0:
3,245,26353,2,0,L|3:319,1,53.9999983520508,0|0,1:0|0:0,0:0:0:0:
85,368,26563,2,0,L|97:315,1,53.9999983520508,0|0,0:0|0:0,0:0:0:0:
187,265,26773,2,0,L|201:373,1,107.999996704102,8|0,0:1|0:0,0:0:0:0:
307,180,27193,6,0,P|365:168|431:187,1,107.999996704102,6|0,1:0|0:0,0:0:0:0:
496,229,27507,1,0,0:0:0:0:
496,229,27612,2,0,L|481:109,1,107.999996704102,8|0,0:1|0:0,0:0:0:0:
362,264,28032,2,0,P|304:276|238:257,1,107.999996704102,8|0,1:3|0:0,0:0:0:0:
173,240,28346,1,0,0:0:0:0:
173,240,28451,2,0,L|158:360,1,107.999996704102,8|0,0:1|0:0,0:0:0:0:
113,177,28871,6,0,L|45:183,3,53.9999983520508,4|0|0|0,1:1|0:0|0:0|0:0,0:0:0:0:
177,130,29291,2,0,L|244:123,3,53.9999983520508,8|0|0|0,0:1|0:0|0:0|0:0,0:0:0:0:
106,92,29710,2,0,L|38:98,3,53.9999983520508,0|0|0|0,1:0|0:0|0:0|0:0,0:0:0:0:
177,46,30130,2,0,L|244:39,3,53.9999983520508,8|0|0|0,0:1|0:0|0:0|0:0,0:0:0:0:
304,79,30549,6,0,L|357:73,1,53.9999983520508,0|0,1:0|0:0,0:0:0:0:
245,171,30759,2,0,L|191:176,1,53.9999983520508,0|0,0:0|0:0,0:0:0:0:
307,49,30969,2,0,L|360:43,1,53.9999983520508,8|0,0:1|0:0,0:0:0:0:
241,204,31179,2,0,L|187:209,1,53.9999983520508,0|0,0:0|0:0,0:0:0:0:
432,106,31388,5,0,1:0:0:0:
419,158,31492,1,8,0:1:0:0:
407,211,31597,1,8,0:1:0:0:
392,264,31702,1,8,0:1:0:0:
372,316,31808,2,0,L|384:357,3,35.9999989013672,8|8|8|8,0:1|0:1|0:1|0:1,0:0:0:0:
295,281,32123,1,8,0:1:0:0:
256,192,32228,12,4,33906,0:1:0:0:
187,68,39780,6,0,P|249:85|349:55,1,148.50000453186,4|0,1:0|0:0,0:0:0:0:
376,39,40200,2,0,P|359:101|393:209,1,180,4|0,1:0|0:0,0:0:0:0:
423,248,40619,6,0,P|473:254|530:248,1,90,4|2,1:0|0:0,0:0:0:0:
279,193,41039,2,0,P|230:188|167:201,1,90,0|2,1:0|0:0,0:0:0:0:
49,329,41458,1,0,1:0:0:0:
227,288,41668,1,2,0:0:0:0:
86,211,41878,1,0,1:0:0:0:
156,384,42088,1,2,0:0:0:0:
189,193,42298,6,0,L|178:76,1,90,4|2,1:0|0:0,0:0:0:0:
176,63,42612,1,2,0:0:0:0:
175,22,42717,2,0,P|219:6|277:18,1,90,0|2,1:0|0:0,0:0:0:0:
78,135,43137,1,0,1:0:0:0:
226,87,43346,1,2,0:0:0:0:
70,49,43556,1,0,1:0:0:0:
247,168,43766,1,2,0:0:0:0:
72,231,43976,6,0,L|79:329,1,90,4|2,1:0|0:0,0:0:0:0:
105,352,44291,1,2,0:0:0:0:
142,373,44395,2,0,P|186:384|237:371,1,90,0|2,1:0|0:0,0:0:0:0:
308,178,44815,1,4,1:0:0:0:
345,328,45025,1,2,0:0:0:0:
155,150,45235,1,0,1:0:0:0:
259,283,45444,1,2,0:0:0:0:
300,88,45654,6,0,L|308:195,1,90,4|2,1:0|0:0,0:0:0:0:
309,218,45969,1,0,0:0:0:0:
316,257,46074,2,0,P|364:265|420:239,1,90,0|2,1:0|0:0,0:0:0:0:
220,132,46493,2,0,L|144:128,1,45,0|8,1:0|0:0,0:0:0:0:
19,134,46808,2,0,L|64:132,1,45,0|8,0:0|0:0,0:0:0:0:
128,208,47123,1,2,0:0:0:0:
128,208,47228,1,0,0:0:0:0:
128,208,47333,6,0,L|128:316,1,90,4|0,1:0|0:0,0:0:0:0:
164,332,47647,2,0,P|208:339|259:328,1,90,0|0,0:0|0:0,0:0:0:0:
288,310,47962,2,0,P|332:302|386:317,1,90,0|0,0:0|1:0,0:0:0:0:
512,352,48381,1,0,0:0:0:0:
476,196,48591,1,0,1:0:0:0:
375,311,48801,1,0,0:0:0:0:
320,160,49011,6,0,L|206:59,1,135,4|0,1:1|0:0,0:0:0:0:
179,86,49430,2,0,L|211:186,1,90,8|0,0:1|0:0,0:0:0:0:
218,210,49745,2,0,P|185:235|130:240,1,90,0|0,0:0|0:0,0:0:0:0:
97,234,50060,1,0,0:0:0:0:
179,86,50270,1,0,1:1:0:0:
327,176,50479,1,0,0:0:0:0:
327,176,50584,1,0,0:0:0:0:
327,176,50689,5,4,1:1:0:0:
244,338,50899,1,0,0:0:0:0:
219,220,51109,1,8,1:1:0:0:
327,176,51319,1,0,0:0:0:0:
396,307,51528,1,0,1:1:0:0:
396,307,51633,1,0,0:0:0:0:
480,199,51843,2,0,L|458:91,1,90,0|0,0:0|0:0,0:0:0:0:
452,66,52158,1,0,0:0:0:0:
305,73,52367,5,0,1:0:0:0:
305,73,52472,1,0,0:0:0:0:
125,174,52682,1,0,0:0:0:0:
125,174,52787,2,0,P|169:179|229:161,1,90,12|0,1:1|0:0,0:0:0:0:
81,97,53207,2,0,P|41:140|38:199,1,90,0|0,1:1|0:0,0:0:0:0:
31,209,53521,1,0,0:0:0:0:
28,249,53626,1,4,1:1:0:0:
194,324,53836,1,0,0:0:0:0:
194,324,54046,6,0,P|234:316|299:313,1,90,4|0,1:0|0:0,0:0:0:0:
322,326,54360,2,0,P|371:312|417:283,1,90,0|0,0:0|0:0,0:0:0:0:
424,253,54675,2,0,P|471:246|521:257,1,90,0|0,0:0|1:0,0:0:0:0:
471,376,55095,1,0,0:0:0:0:
347,219,55305,1,0,1:0:0:0:
471,376,55514,1,0,0:0:0:0:
475,121,55724,6,0,L|352:61,1,135,4|0,1:0|0:0,0:0:0:0:
318,82,56144,2,0,L|217:75,1,90,8|0,1:1|0:0,0:0:0:0:
187,77,56458,2,0,P|167:119|192:178,1,90,0|0,0:0|0:0,0:0:0:0:
194,196,56773,1,0,0:0:0:0:
133,319,56983,1,0,1:0:0:0:
51,216,57193,1,0,0:0:0:0:
226,291,57402,6,0,P|270:300|329:279,1,90,4|0,1:0|0:0,0:0:0:0:
349,262,57717,1,0,0:0:0:0:
369,227,57822,2,0,L|373:107,1,90,8|0,1:1|0:0,0:0:0:0:
408,63,58242,2,0,L|475:72,1,45,0|0,1:0|0:0,0:0:0:0:
305,86,58556,2,0,L|191:80,1,90,0|0,0:0|0:0,0:0:0:0:
174,75,58871,1,0,0:0:0:0:
89,162,59081,6,0,L|145:151,1,45,4|0,1:1|0:0,0:0:0:0:
83,251,59291,2,0,L|27:261,1,45,0|0,0:0|0:0,0:0:0:0:
126,327,59500,2,0,L|182:317,1,45,8|0,1:1|0:0,0:0:0:0:
174,223,59710,2,0,L|219:216,1,45,0|0,0:0|0:0,0:0:0:0:
264,290,59920,5,0,1:1:0:0:
295,262,60025,1,0,0:0:0:0:
307,223,60130,1,0,0:0:0:0:
301,183,60235,1,0,0:0:0:0:
277,149,60340,1,8,1:1:0:0:
243,127,60444,1,0,0:0:0:0:
202,124,60549,1,0,0:0:0:0:
166,143,60654,1,0,0:0:0:0:
140,174,60759,5,0,1:1:0:0:
105,352,61074,1,0,1:1:0:0:
164,43,61388,1,0,1:1:0:0:
220,299,61808,5,0,0:0:0:0:
245,129,62018,1,0,0:0:0:0:
129,189,62228,1,0,0:0:0:0:
285,364,62437,6,0,L|398:352,1,107.999996704102,6|0,1:1|0:0,0:0:0:0:
446,342,62752,1,0,0:0:0:0:
499,333,62857,2,0,B|523:266|467:219,1,107.999996704102,8|0,0:1|0:0,0:0:0:0:
380,177,63277,2,0,B|248:166,1,107.999996704102,4|0,1:3|0:0,0:0:0:0:
218,163,63591,1,0,0:0:0:0:
164,156,63696,2,0,P|139:96|166:28,1,107.999996704102,8|0,0:1|0:0,0:0:0:0:
59,159,64116,6,0,L|46:289,1,107.999996704102,8|0,1:3|0:0,0:0:0:0:
46,320,64430,1,0,0:0:0:0:
78,362,64535,2,0,P|123:380|197:360,1,107.999996704102,8|0,0:1|0:0,0:0:0:0:
290,279,64955,1,2,1:3:0:0:
221,104,65165,1,0,0:0:0:0:
141,300,65374,1,8,0:1:0:0:
343,144,65584,1,0,0:0:0:0:
105,51,65794,6,0,L|56:230,1,161.999995056153,8|0,1:3|0:0,0:0:0:0:
56,261,66214,2,0,P|96:294|172:280,1,107.999996704102,8|0,0:1|0:0,0:0:0:0:
216,220,66633,2,0,L|296:213,1,53.9999983520508,0|0,1:0|0:0,0:0:0:0:
328,288,66843,2,0,L|392:255,1,53.9999983520508,0|0,0:0|0:0,0:0:0:0:
408,180,67053,2,0,P|453:212|466:271,1,107.999996704102,8|0,0:1|0:0,0:0:0:0:
332,176,67472,6,2,P|317:122|316:55,1,107.999996704102,2|0,1:3|0:0,0:0:0:0:
341,29,67787,2,2,P|287:37|230:31,1,107.999996704102,0|0,0:0|0:0,0:0:0:0:
184,16,68102,2,2,P|132:8|76:20,1,107.999996704102,0|4,0:0|1:3,0:0:0:0:
22,218,68521,1,0,0:0:0:0:
128,101,68731,1,8,0:2:0:0:
55,296,68941,1,0,0:0:0:0:
208,110,69151,6,0,P|264:98|332:123,1,107.999996704102,6|0,1:1|0:0,0:0:0:0:
354,133,69465,1,0,0:0:0:0:
396,156,69570,2,8,P|452:168|520:143,1,107.999996704102,8|0,0:1|0:0,0:0:0:0:
338,208,69990,2,0,L|328:323,1,107.999996704102,4|0,1:3|0:0,0:0:0:0:
300,355,70305,1,0,0:0:0:0:
255,373,70409,2,0,P|204:386|145:370,1,107.999996704102,8|0,0:1|0:0,0:0:0:0:
79,306,70829,6,0,L|65:179,1,107.999996704102,8|0,1:3|0:0,0:0:0:0:
62,149,71144,1,0,0:0:0:0:
62,100,71249,2,0,P|113:78|191:87,1,107.999996704102,8|0,0:1|0:0,0:0:0:0:
285,162,71668,1,2,1:3:0:0:
139,171,71878,1,0,0:0:0:0:
288,20,72088,1,8,0:1:0:0:
226,240,72298,1,0,0:0:0:0:
394,80,72507,6,0,L|410:252,1,161.999995056153,4|0,1:2|0:0,0:0:0:0:
383,289,72927,2,0,P|328:302|272:291,1,107.999996704102,8|0,0:1|0:0,0:0:0:0:
208,124,73346,1,0,1:0:0:0:
324,222,73556,1,0,0:0:0:0:
100,169,73766,1,8,1:1:0:0:
320,104,73976,1,0,0:0:0:0:
197,247,74186,6,0,L|160:308,3,53.9999983520508,4|0|0|0,1:2|0:0|0:0|0:0,0:0:0:0:
87,261,74605,2,0,L|50:322,3,53.9999983520508,8|0|0|0,0:1|0:0|0:0|0:0,0:0:0:0:
26,197,75025,2,0,L|63:136,1,53.9999983520508,0|0,1:0|0:0,0:0:0:0:
104,73,75235,2,0,L|133:27,1,53.9999983520508,0|0,0:0|0:0,0:0:0:0:
145,157,75444,5,8,0:1:0:0:
197,170,75548,1,0,0:0:0:0:
250,169,75653,1,0,0:0:0:0:
302,154,75758,1,0,0:0:0:0:
346,125,75864,6,0,P|397:113|460:128,1,107.999996704102,6|0,1:1|0:0,0:0:0:0:
497,151,76179,1,0,0:0:0:0:
511,203,76284,2,0,L|504:315,1,107.999996704102,8|0,0:1|0:0,0:0:0:0:
353,340,76703,2,0,L|360:228,1,107.999996704102,4|0,1:3|0:0,0:0:0:0:
361,177,77018,1,0,0:0:0:0:
346,125,77123,2,0,P|290:106|225:116,1,107.999996704102,8|0,0:1|0:0,0:0:0:0:
145,157,77542,6,0,L|142:285,1,107.999996704102,8|0,1:3|0:0,0:0:0:0:
150,318,77857,1,0,0:0:0:0:
197,344,77962,2,0,P|250:355|326:332,1,107.999996704102,8|0,0:1|0:0,0:0:0:0:
279,156,78381,1,2,1:3:0:0:
251,273,78591,1,0,0:0:0:0:
407,167,78801,1,8,0:1:0:0:
230,54,79011,1,0,0:0:0:0:
155,311,79221,6,0,P|81:330|-14:302,1,161.999995056153,8|0,1:3|0:0,0:0:0:0:
1,256,79640,2,0,L|17:132,1,107.999996704102,8|0,0:1|0:0,0:0:0:0:
86,27,80060,2,0,L|150:21,1,53.9999983520508,0|0,1:0|0:0,0:0:0:0:
205,89,80270,2,0,L|270:75,1,53.9999983520508,0|0,0:0|0:0,0:0:0:0:
318,3,80479,2,0,P|350:43|348:114,1,107.999996704102,8|0,0:1|0:0,0:0:0:0:
296,190,80899,6,2,P|290:244|306:313,1,107.999996704102,2|0,1:3|0:0,0:0:0:0:
340,332,81214,2,2,P|278:314|225:319,1,107.999996704102,0|0,0:0|0:0,0:0:0:0:
184,335,81528,2,2,P|132:345|75:335,1,107.999996704102,0|4,0:0|1:3,0:0:0:0:
12,170,81948,1,0,0:0:0:0:
146,101,82158,1,8,0:2:0:0:
129,264,82367,1,0,0:0:0:0:
245,32,82577,6,0,L|258:166,1,107.999996704102,6|0,1:1|0:0,0:0:0:0:
263,193,82892,1,0,0:0:0:0:
273,246,82997,2,0,P|324:256|384:238,1,107.999996704102,8|0,0:1|0:0,0:0:0:0:
181,181,83416,2,0,P|130:171|68:188,1,107.999996704102,4|0,1:3|0:0,0:0:0:0:
31,215,83731,1,0,0:0:0:0:
7,263,83836,2,0,L|0:375,1,107.999996704102,8|0,0:1|0:0,0:0:0:0:
132,311,84256,6,0,P|183:321|245:304,1,107.999996704102,8|0,1:3|0:0,0:0:0:0:
281,277,84570,1,0,0:0:0:0:
324,244,84675,2,0,P|375:234|438:248,1,107.999996704102,8|0,0:1|0:0,0:0:0:0:
376,339,85095,1,2,1:3:0:0:
362,135,85305,1,0,0:0:0:0:
511,276,85514,1,8,0:1:0:0:
257,199,85724,1,0,0:0:0:0:
480,75,85934,6,0,L|504:248,1,161.999995056153,4|0,1:2|0:0,0:0:0:0:
488,288,86353,2,0,P|434:301|363:283,1,107.999996704102,8|0,0:1|0:0,0:0:0:0:
257,199,86773,1,0,1:1:0:0:
416,213,86983,1,0,0:0:0:0:
193,283,87193,1,8,0:1:0:0:
308,114,87402,1,0,0:0:0:0:
264,363,87612,6,0,P|191:388|99:347,1,161.999995056153,4|0,1:2|0:0,0:0:0:0:
83,315,88032,2,0,L|75:203,1,107.999996704102,8|0,0:1|0:0,0:0:0:0:
108,106,88451,2,0,L|188:100,1,53.9999983520508,0|0,1:1|0:0,0:0:0:0:
229,30,88661,2,0,L|291:46,1,53.9999983520508,0|8,0:0|0:1,0:0:0:0:
262,232,88871,2,0,L|242:123,1,107.999996704102,8|0,1:1|0:0,0:0:0:0:
330,289,89291,6,0,P|282:316|212:305,1,107.999996704102,6|0,1:0|0:0,0:0:0:0:
342,202,89605,1,0,0:0:0:0:
342,202,89710,2,0,L|459:191,1,107.999996704102,8|0,0:1|0:0,0:0:0:0:
454,89,90130,2,0,P|438:139|458:206,1,107.999996704102,0|0,1:1|0:0,0:0:0:0:
491,309,90444,1,0,0:0:0:0:
491,309,90549,2,0,L|368:311,1,107.999996704102,8|0,0:1|0:0,0:0:0:0:
211,224,90969,6,0,P|266:220|319:162,1,107.999996704102,4|0,1:1|0:0,0:0:0:0:
343,148,91284,1,0,0:0:0:0:
379,108,91388,2,0,L|420:44,3,53.9999983520508,8|0|0|0,0:1|0:0|0:0|0:0,0:0:0:0:
439,155,91808,2,0,L|409:200,3,53.9999983520508,0|0|0|0,1:0|0:0|0:0|0:0,0:0:0:0:
441,287,92228,2,0,L|471:242,3,53.9999983520508,8|0|0|0,0:1|0:0|0:0|0:0,0:0:0:0:
327,303,92647,6,0,L|371:242,1,53.9999983520508,0|0,1:1|0:0,0:0:0:0:
344,144,92857,2,0,L|292:208,1,53.9999983520508,0|0,0:0|0:0,0:0:0:0:
204,180,93067,2,0,L|252:124,1,53.9999983520508,8|0,0:1|0:0,0:0:0:0:
200,44,93277,2,0,L|152:100,1,53.9999983520508,0|0,0:0|0:0,0:0:0:0:
306,0,93486,5,0,1:1:0:0:
362,0,93591,1,8,0:1:0:0:
406,32,93696,1,0,0:0:0:0:
430,80,93801,1,0,0:0:0:0:
418,132,93906,2,0,L|401:175,3,35.9999989013672,8|0|0|8,0:1|0:0|0:0|0:1,0:0:0:0:
332,205,94221,1,8,0:1:0:0:
