osu file format v14

[General]
AudioFilename: audio.mp3
AudioLeadIn: 0
PreviewTime: -1
Countdown: 1
SampleSet: Soft
StackLeniency: 0.7
Mode: 0
LetterboxInBreaks: 0
WidescreenStoryboard: 0

[Editor]
DistanceSpacing: 3
BeatDivisor: 4
GridSize: 32
TimelineZoom: 1

[Metadata]
Title:closing eyes
TitleUnicode:closing eyes
Artist:*namirin
ArtistUnicode:*なみりん
Creator:rohasshiki
Version:Blind
Source:
Tags:
BeatmapID:1414517
BeatmapSetID:668647

[Difficulty]
HPDrainRate:7
CircleSize:4
OverallDifficulty:8
ApproachRate:9.3
SliderMultiplier:1.4
SliderTickRate:1

[Events]
//Background and Video events
0,0,"wallhaven-199471.jpg",0,0
//Break Periods
//Storyboard Layer 0 (Background)
//Storyboard Layer 1 (Fail)
//Storyboard Layer 2 (Pass)
//Storyboard Layer 3 (Foreground)
//Storyboard Sound Samples

[TimingPoints]
836,327.868852459016,4,2,0,100,1,0
836,-100,4,2,0,45,0,0
11327,-125,4,2,0,45,0,0
31983,-200,4,2,0,45,0,0
32311,-125,4,2,0,45,0,0
42475,-90.9090909090909,4,2,0,45,0,0
53295,-83.3333333333333,4,2,0,60,0,1
79524,-100,4,2,0,45,0,0
90016,-133.333333333333,4,2,0,45,0,0

[HitObjects]
60,50,836,6,0,P|43:125|43:180,1,105
40,184,1163,1,0,0:0:0:0:
159,145,1327,1,0,0:0:0:0:
129,257,1491,1,0,0:0:0:0:
184,37,1655,1,0,0:0:0:0:
350,195,1819,1,0,0:0:0:0:
159,145,1983,6,0,P|219:185|246:269,1,140
245,349,2475,2,0,P|283:347|321:335,1,70
139,340,2803,6,0,P|105:334|70:323,1,70
245,349,3131,1,0,0:0:0:0:
348,345,3295,1,0,0:0:0:0:
452,334,3458,6,0,P|469:259|469:204,1,105
472,200,3785,1,0,0:0:0:0:
353,239,3949,1,0,0:0:0:0:
383,127,4113,1,0,0:0:0:0:
328,347,4277,1,0,0:0:0:0:
162,189,4441,1,0,0:0:0:0:
353,239,4605,6,0,P|293:199|266:115,1,140
267,35,5097,1,0,0:0:0:0:
170,24,5262,1,0,0:0:0:0:
86,75,5426,5,0,0:0:0:0:
90,109,5507,1,0,0:0:0:0:
95,144,5589,1,0,0:0:0:0:
100,178,5671,1,0,0:0:0:0:
105,213,5753,1,0,0:0:0:0:
110,248,5835,1,0,0:0:0:0:
115,282,5917,1,0,0:0:0:0:
120,317,5999,1,0,0:0:0:0:
127,349,6081,6,0,P|168:365|240:359,1,105
258,353,6409,1,0,0:0:0:0:
365,253,6573,1,0,0:0:0:0:
239,226,6737,1,0,0:0:0:0:
384,154,6901,1,0,0:0:0:0:
249,126,7065,1,0,0:0:0:0:
365,253,7229,6,0,P|338:307|246:354,1,140
173,351,7721,2,0,L|200:258,1,70
121,208,8049,2,0,L|98:295,1,70
141,110,8376,1,0,0:0:0:0:
214,203,8540,1,0,0:0:0:0:
246,95,8704,6,0,P|280:73|366:80,1,105
378,74,9032,1,0,0:0:0:0:
316,163,9196,1,0,0:0:0:0:
442,165,9360,1,0,0:0:0:0:
246,95,9524,1,0,0:0:0:0:
385,249,9688,1,0,0:0:0:0:
149,176,9852,6,0,P|129:142|123:71,1,105
126,45,10180,1,0,0:0:0:0:
271,175,10344,1,0,0:0:0:0:
48,225,10508,1,0,0:0:0:0:
232,47,10672,1,0,0:0:0:0:
277,288,10835,1,0,0:0:0:0:
435,68,11163,5,0,0:0:0:0:
435,68,11327,2,0,P|468:103|485:157,1,84
486,161,11655,1,0,0:0:0:0:
442,245,11819,1,0,0:0:0:0:
389,165,11983,1,0,0:0:0:0:
346,250,12147,1,0,0:0:0:0:
279,318,12311,1,0,0:0:0:0:
198,283,12475,6,0,P|208:240|229:214,1,56
164,134,12803,2,0,P|207:144|237:164,1,56
313,101,13131,2,0,P|303:144|285:178,1,56
347,250,13458,2,0,P|304:240|280:226,1,56
224,185,13786,1,0,0:0:0:0:
162,117,13950,6,0,P|141:95|97:73,1,56
27,53,14278,1,0,0:0:0:0:
50,145,14442,1,0,0:0:0:0:
122,206,14606,2,0,P|147:252|152:279,1,56
96,336,14934,1,0,0:0:0:0:
188,358,15098,2,0,P|244:342|279:313,1,84
286,302,15426,2,0,P|306:273|343:255,1,56
439,246,15754,5,0,0:0:0:0:
305,151,15917,1,0,0:0:0:0:
286,302,16081,1,0,0:0:0:0:
405,159,16245,2,0,L|384:60,1,84
375,45,16573,6,0,P|345:37|277:30,1,84
262,32,16901,1,0,0:0:0:0:
164,56,17065,1,0,0:0:0:0:
238,124,17229,1,0,0:0:0:0:
139,145,17393,1,0,0:0:0:0:
212,214,17557,1,0,0:0:0:0:
111,225,17721,6,0,P|116:260|134:296,1,56
289,337,18049,2,0,P|324:332|360:314,1,56
401,159,18376,2,0,P|396:124|378:88,1,56
223,47,18704,2,0,P|188:52|152:70,1,56
79,107,19032,1,0,0:0:0:0:
49,203,19196,6,0,P|41:243|42:283,1,56
127,309,19524,2,0,P|135:269|134:229,1,56
148,153,19852,1,0,0:0:0:0:
273,253,20016,1,0,0:0:0:0:
291,85,20180,1,0,0:0:0:0:
432,208,20344,6,0,P|419:238|394:268,1,56
273,253,20672,2,0,P|286:222|311:192,1,56
291,85,20999,2,0,L|214:78,1,56
86,71,21327,1,0,0:0:0:0:
150,209,21491,1,0,0:0:0:0:
235,79,21655,1,0,0:0:0:0:
50,164,21819,6,0,P|37:201|34:256,1,84
39,280,22147,1,0,0:0:0:0:
143,319,22311,1,0,0:0:0:0:
150,209,22475,1,0,0:0:0:0:
157,97,22639,1,0,0:0:0:0:
250,158,22803,1,0,0:0:0:0:
364,195,22967,6,0,P|344:215|319:228,1,56
253,300,23295,2,0,P|232:280|219:255,1,56
148,189,23622,2,0,P|167:168|192:155,1,56
259,84,23950,2,0,P|279:103|292:128,1,56
253,211,24278,1,0,0:0:0:0:
361,296,24442,6,0,P|392:269|405:244,1,56
376,146,24770,2,0,P|345:173|332:198,1,56
270,275,25098,1,0,0:0:0:0:
234,168,25262,1,0,0:0:0:0:
305,82,25426,1,0,0:0:0:0:
193,71,25590,6,0,P|143:66|114:69,1,56
80,162,25917,2,0,P|130:167|159:164,1,56
172,273,26245,2,0,P|194:317|206:332,1,56
323,354,26573,1,0,0:0:0:0:
283,198,26737,1,0,0:0:0:0:
446,251,26901,1,0,0:0:0:0:
205,254,27065,6,0,P|187:200|205:141,1,112
317,88,27557,1,0,0:0:0:0:
402,195,27721,2,0,L|415:263,1,56
458,80,28049,1,0,0:0:0:0:
402,195,28213,6,0,P|404:236|420:266,1,56
253,338,28540,2,0,P|211:340|182:356,1,56
110,189,28868,2,0,P|108:147|92:118,1,56
259,46,29196,2,0,P|300:44|330:28,1,56
437,108,29524,1,0,0:0:0:0:
321,202,29688,6,0,P|289:221|205:238,1,112
94,239,30180,1,0,0:0:0:0:
199,122,30344,1,0,0:0:0:0:
273,254,30508,1,0,0:0:0:0:
102,145,30672,1,0,0:0:0:0:
156,308,30835,2,0,P|173:336|207:363,1,56
273,254,31163,2,0,P|256:226|222:199,1,56
102,145,31491,5,0,0:0:0:0:
102,145,31573,1,0,0:0:0:0:
102,145,31655,1,0,0:0:0:0:
156,305,31819,1,0,0:0:0:0:
257,113,31983,2,0,P|279:113|309:120,1,52.5
340,127,32311,5,0,0:0:0:0:
485,210,32475,1,0,0:0:0:0:
270,297,32803,5,0,0:0:0:0:
105,327,32967,1,0,0:0:0:0:
88,114,33295,5,0,0:0:0:0:
176,257,33459,1,0,0:0:0:0:
450,64,33786,5,0,0:0:0:0:
301,143,33950,1,0,0:0:0:0:
254,289,34278,5,0,0:0:0:0:
254,289,34606,1,0,0:0:0:0:
28,39,34934,5,0,0:0:0:0:
195,56,35098,1,0,0:0:0:0:
434,291,35426,5,0,0:0:0:0:
309,177,35590,1,0,0:0:0:0:
13,335,35917,5,0,0:0:0:0:
176,296,36081,1,0,0:0:0:0:
425,70,36409,5,0,0:0:0:0:
474,230,36573,1,0,0:0:0:0:
169,87,36901,5,0,0:0:0:0:
169,87,37229,1,0,0:0:0:0:
404,326,37557,5,0,0:0:0:0:
236,316,37721,1,0,0:0:0:0:
56,31,38049,5,0,0:0:0:0:
24,196,38213,1,0,0:0:0:0:
349,117,38540,5,0,0:0:0:0:
502,186,38704,1,0,0:0:0:0:
189,310,39032,5,0,0:0:0:0:
28,260,39196,1,0,0:0:0:0:
279,37,39524,5,0,0:0:0:0:
279,37,39852,1,0,0:0:0:0:
468,314,40180,5,0,0:0:0:0:
419,153,40344,1,0,0:0:0:0:
84,188,40672,5,0,0:0:0:0:
200,68,40835,1,0,0:0:0:0:
315,383,41163,5,0,0:0:0:0:
151,346,41327,1,0,0:0:0:0:
339,67,41655,5,0,0:0:0:0:
497,122,41819,1,0,0:0:0:0:
181,263,42147,5,0,0:0:0:0:
273,284,42311,1,0,0:0:0:0:
311,291,42393,1,0,0:0:0:0:
354,294,42475,2,0,B|391:296|413:306|413:306|398:238,1,112
393,220,42803,6,0,L|345:138,1,77.0000023498536
209,94,43131,1,2,0:0:0:0:
83,160,43295,2,2,L|66:245,1,77.0000023498536
165,339,43622,2,2,L|185:248,1,77.0000023498536
310,138,43950,2,0,P|306:219|342:303,1,154.000004699707
469,334,44442,1,0,0:0:0:0:
469,334,44606,2,0,L|440:252,1,77.0000023498536
310,138,44934,2,0,L|259:213,1,77.0000023498536
165,339,45262,6,0,P|143:301|137:191,1,154.000004699707
207,56,45754,2,0,L|112:38,1,77.0000023498536
358,56,46081,2,0,L|453:38,1,77.0000023498536
266,201,46409,1,0,0:0:0:0:
266,201,46573,1,0,0:0:0:0:
266,201,46737,6,0,L|295:281,1,77.0000023498536
471,246,47065,2,0,L|439:160,1,77.0000023498536
241,128,47393,2,0,L|268:207,1,77.0000023498536
324,316,47721,1,0,0:0:0:0:
324,316,47885,2,0,P|275:323|199:312,1,115.50000352478
190,310,48213,5,0,0:0:0:0:
384,205,48376,1,0,0:0:0:0:
166,104,48540,1,0,0:0:0:0:
324,316,48704,1,0,0:0:0:0:
126,217,48868,1,0,0:0:0:0:
297,90,49032,1,0,0:0:0:0:
41,144,49196,6,0,P|19:189|30:276,1,115.50000352478
32,283,49524,1,0,0:0:0:0:
253,255,49688,1,0,0:0:0:0:
35,58,49852,1,0,0:0:0:0:
145,284,50016,1,0,0:0:0:0:
190,55,50180,1,0,0:0:0:0:
190,55,50262,1,0,0:0:0:0:
190,55,50344,1,0,0:0:0:0:
302,322,50508,1,0,0:0:0:0:
474,41,52967,5,0,0:0:0:0:
476,79,53048,1,0,0:0:0:0:
469,117,53130,1,0,0:0:0:0:
454,152,53212,1,0,0:0:0:0:
439,184,53295,6,0,P|390:233|295:263,1,167.999994873047
93,194,53786,1,0,0:0:0:0:
283,134,53950,1,0,0:0:0:0:
169,308,54114,1,0,0:0:0:0:
154,76,54278,1,0,0:0:0:0:
294,299,54442,6,0,L|376:342,1,83.9999974365235
93,194,54770,2,0,L|13:151,1,83.9999974365235
362,229,55098,2,0,L|440:269,1,83.9999974365235
116,96,55426,2,0,L|35:52,1,83.9999974365235
389,72,55754,6,0,P|400:139|353:238,1,167.999994873047
161,285,56245,2,0,L|212:212,1,83.9999974365235
292,91,56573,1,0,0:0:0:0:
79,161,56737,1,0,0:0:0:0:
267,314,56901,1,0,0:0:0:0:
166,89,57065,1,0,0:0:0:0:
161,285,57229,6,0,P|100:256|78:225,1,83.9999974365235
166,89,57557,1,0,0:0:0:0:
389,72,57721,2,0,P|428:84|488:204,1,167.999994873047
246,204,58213,1,0,0:0:0:0:
467,274,58376,1,0,0:0:0:0:
214,297,58540,6,0,P|168:261|154:233,1,83.9999974365235
172,71,58868,1,0,0:0:0:0:
172,71,59032,2,0,L|86:52,1,83.9999974365235
340,71,59360,2,0,L|426:52,1,83.9999974365235
469,186,59688,6,0,P|453:235|413:279,1,83.9999974365235
337,332,60016,1,0,0:0:0:0:
375,148,60180,1,0,0:0:0:0:
225,274,60344,2,0,P|162:280|123:272,1,83.9999974365235
296,94,60672,2,0,P|331:61|399:55,1,83.9999974365235
225,274,60999,6,0,L|150:313,1,83.9999974365235
375,148,61327,1,0,0:0:0:0:
100,177,61491,1,0,0:0:0:0:
407,286,61655,1,0,0:0:0:0:
439,260,61736,1,0,0:0:0:0:
464,226,61818,1,0,0:0:0:0:
478,186,61900,1,0,0:0:0:0:
483,145,61983,2,0,L|481:101,1,41.9999987182618
307,192,62147,2,0,L|306:245,1,41.9999987182618
200,68,62311,6,0,P|152:79|100:184,1,167.999994873047
102,330,62803,1,0,0:0:0:0:
288,192,62967,1,0,0:0:0:0:
443,343,63131,1,0,0:0:0:0:
443,343,63213,1,0,0:0:0:0:
443,343,63295,1,0,0:0:0:0:
443,343,63376,2,0,L|439:290,1,41.9999987182618
453,94,63622,6,0,P|399:71|275:56,1,167.999994873047
100,57,64114,1,0,0:0:0:0:
348,175,64278,1,0,0:0:0:0:
103,211,64442,1,0,0:0:0:0:
210,27,64606,1,0,0:0:0:0:
226,255,64770,1,0,0:0:0:0:
409,141,64934,6,0,L|392:244,1,83.9999974365235
103,211,65262,2,0,L|120:108,1,83.9999974365235
422,58,65590,2,0,L|405:161,1,83.9999974365235
89,293,65917,2,0,L|106:190,1,83.9999974365235
180,46,66245,6,0,P|259:67|344:142,1,167.999994873047
352,291,66737,2,0,L|253:251,1,83.9999974365235
116,160,67065,1,0,0:0:0:0:
399,182,67229,1,0,0:0:0:0:
108,37,67393,2,0,L|196:28,1,83.9999974365235
481,87,67721,6,0,L|389:98,1,83.9999974365235
121,155,68049,1,0,0:0:0:0:
121,155,68213,2,0,P|148:226|245:268,1,167.999994873047
439,277,68704,1,0,0:0:0:0:
233,155,68868,1,0,0:0:0:0:
237,354,69032,6,0,P|179:353|145:342,1,83.9999974365235
14,239,69360,1,0,0:0:0:0:
233,155,69524,1,0,0:0:0:0:
237,354,69688,2,0,P|295:353|329:342,1,83.9999974365235
498,240,70016,1,0,0:0:0:0:
186,260,70180,6,0,P|142:244|103:204,1,83.9999974365235
49,160,70508,1,0,0:0:0:0:
390,296,70672,1,0,0:0:0:0:
167,150,70835,2,0,P|123:102|111:61,1,83.9999974365235
86,1,71163,1,0,0:0:0:0:
367,203,71327,2,0,P|400:221|376:170,1,125.999996154785
349,157,71655,6,0,P|299:179|262:211,1,83.9999974365235
157,347,71983,1,0,0:0:0:0:
418,297,72147,2,0,P|476:264|497:225,1,83.9999974365235
497,131,72475,1,0,0:0:0:0:
298,283,72639,1,0,0:0:0:0:
436,77,72803,6,0,P|472:55|520:52,1,83.9999974365235
298,283,73131,2,0,P|262:305|214:308,1,83.9999974365235
262,92,73458,2,0,P|315:76|363:100,1,83.9999974365235
110,302,73786,2,0,P|66:274|47:227,1,83.9999974365235
98,83,74114,6,0,P|174:73|275:99,1,167.999994873047
447,157,74606,1,0,0:0:0:0:
220,211,74770,1,0,0:0:0:0:
288,20,74934,1,0,0:0:0:0:
335,241,75098,1,0,0:0:0:0:
411,28,75262,1,0,0:0:0:0:
154,148,75426,6,0,P|129:210|142:261,1,83.9999974365235
400,305,75754,2,0,P|425:243|412:192,1,83.9999974365235
211,294,76081,2,0,P|274:319|325:306,1,83.9999974365235
342,102,76409,2,0,P|279:77|228:90,1,83.9999974365235
271,205,76737,1,0,0:0:0:0:
459,337,76901,5,0,0:0:0:0:
211,294,77065,1,0,0:0:0:0:
342,102,77229,1,0,0:0:0:0:
112,246,77393,1,0,0:0:0:0:
434,154,77557,1,0,0:0:0:0:
145,148,77721,1,0,0:0:0:0:
128,141,77803,1,0,0:0:0:0:
112,134,77885,1,0,0:0:0:0:
348,282,78049,6,0,P|400:253|434:187,1,125.999996154785
434,154,78376,1,0,0:0:0:0:
112,134,78540,1,0,0:0:0:0:
428,75,78704,1,0,0:0:0:0:
443,71,78786,1,0,0:0:0:0:
457,66,78868,1,0,0:0:0:0:
107,246,79032,1,0,0:0:0:0:
396,334,79524,6,0,P|428:290|424:211,1,105
433,203,79852,1,0,0:0:0:0:
246,264,80016,1,0,0:0:0:0:
385,111,80180,1,0,0:0:0:0:
193,143,80344,1,0,0:0:0:0:
300,185,80508,1,0,0:0:0:0:
280,95,80672,6,0,P|242:56|152:54,1,140
62,183,81163,2,0,P|89:217|136:227,1,70
288,291,81491,2,0,P|261:325|214:335,1,70
209,251,81819,1,0,0:0:0:0:
143,151,81983,1,0,0:0:0:0:
134,39,82147,6,0,P|207:38|251:65,1,105
262,72,82475,1,0,0:0:0:0:
254,255,82639,1,0,0:0:0:0:
88,123,82803,1,0,0:0:0:0:
260,167,82967,1,0,0:0:0:0:
73,247,83131,1,0,0:0:0:0:
292,344,83295,6,0,P|325:321|348:222,1,140
330,156,83786,2,0,L|236:181,1,70
415,145,84114,1,0,0:0:0:0:
404,111,84195,1,0,0:0:0:0:
385,82,84277,1,0,0:0:0:0:
359,59,84359,1,0,0:0:0:0:
328,43,84441,1,0,0:0:0:0:
294,37,84523,1,0,0:0:0:0:
259,40,84605,1,0,0:0:0:0:
226,52,84687,1,0,0:0:0:0:
197,73,84770,6,0,P|154:113|113:171,1,105
106,182,85098,1,0,0:0:0:0:
194,350,85262,1,0,0:0:0:0:
47,283,85426,1,0,0:0:0:0:
271,188,85590,1,0,0:0:0:0:
124,98,85754,1,0,0:0:0:0:
294,93,85917,6,0,P|342:121|362:219,1,140
197,241,86409,2,0,P|179:209|180:171,1,70
218,67,86737,2,0,L|121:39,1,70
382,65,87065,2,0,L|460:51,1,70
419,320,87393,5,0,0:0:0:0:
322,156,87557,1,0,0:0:0:0:
339,334,87721,1,0,0:0:0:0:
237,164,87885,1,0,0:0:0:0:
263,339,88049,1,0,0:0:0:0:
400,141,88213,1,0,0:0:0:0:
183,334,88376,1,0,0:0:0:0:
419,111,88540,6,0,L|302:71,1,105
283,68,88868,1,0,0:0:0:0:
237,254,89032,1,0,0:0:0:0:
109,149,89196,1,0,0:0:0:0:
109,149,89278,1,0,0:0:0:0:
109,149,89360,2,0,P|57:118|13:117,2,105
