osu file format v14

[General]
AudioFilename: audio.mp3
AudioLeadIn: 0
PreviewTime: 129852
Countdown: 0
SampleSet: Soft
StackLeniency: 0.7
Mode: 3
LetterboxInBreaks: 0
SpecialStyle: 0
WidescreenStoryboard: 0

[Editor]
DistanceSpacing: 1.7
BeatDivisor: 4
GridSize: 4
TimelineZoom: 2.6

[Metadata]
Title:closing eyes
TitleUnicode:closing eyes
Artist:*namirin
ArtistUnicode:*なみりん
Creator:Raediaufar
Version:Insane
Source:
Tags:LN Noodle 4K Featured Artist 5colors
BeatmapID:1870072
BeatmapSetID:894951

[Difficulty]
HPDrainRate:8
CircleSize:4
OverallDifficulty:4
ApproachRate:5
SliderMultiplier:1.4
SliderTickRate:1

[Events]
//Background and Video events
0,0,"bege.jpg",0,0
//Break Periods
//Storyboard Layer 0 (Background)
//Storyboard Layer 1 (Fail)
//Storyboard Layer 2 (Pass)
//Storyboard Layer 3 (Foreground)
//Storyboard Sound Samples

[TimingPoints]
836,327.868852459016,4,2,0,0,1,0
10590,-90.9090909090909,4,2,0,0,0,0
10754,-83.3333333333333,4,2,0,0,0,0
10999,-90.9090909090909,4,2,0,0,0,0
11163,-100,4,2,0,0,0,0
50835,-166.666666666667,4,2,0,0,0,0
52639,-153.846153846154,4,2,0,0,0,0
52721,-142.857142857143,4,2,0,0,0,0
52803,-133.333333333333,4,2,0,0,0,0
52885,-125,4,2,0,0,0,0
52967,-117.647058823529,4,2,0,0,0,0
53049,-111.111111111111,4,2,0,0,0,0
53131,-105.263157894737,4,2,0,0,0,0
53213,-100,4,2,0,0,0,0
98049,-111.111111111111,4,2,0,0,0,0
98295,-125,4,2,0,0,0,0
98540,-142.857142857143,4,2,0,0,0,0
99606,-66.6666666666667,4,2,0,0,0,0
99688,-125,4,2,0,0,0,0
99934,-62.5,4,2,0,0,0,0
100016,-111.111111111111,4,2,0,0,0,0
100180,-100,4,2,0,0,0,0
129360,-166.666666666667,4,2,0,0,0,0
131327,-142.857142857143,4,2,0,0,0,0
131409,-125,4,2,0,0,0,0
131491,-111.111111111111,4,2,0,0,0,0
131573,-100,4,2,0,0,0,0
197557,-166.666666666667,4,2,0,0,0,0
199524,-142.857142857143,4,2,0,0,0,0
199688,-125,4,2,0,0,0,0
199852,-111.111111111111,4,2,0,0,0,0
200016,-100,4,2,0,0,0,0
200057,-111.111111111111,4,2,0,0,0,0
200098,-125,4,2,0,0,0,0
200139,-142.857142857143,4,2,0,0,0,0
200180,-166.666666666667,4,2,0,0,0,0
201983,-142.857142857143,4,2,0,0,0,0
202147,-125,4,2,0,0,0,0
202475,-111.111111111111,4,2,0,0,0,0
202803,-100,4,2,0,0,0,0
208049,-166.666666666667,4,2,0,0,0,0
209155,-71.4285714285714,4,2,0,0,0,0
209196,-1000,4,2,0,0,0,0
209237,-62.5,4,2,0,0,0,0
209360,-166.666666666667,4,2,0,0,0,0
210344,-1000.00000000001,4,2,0,0,0,0
210385,-76.9230769230769,4,2,0,0,0,0
210508,-100,4,2,0,0,0,0

[HitObjects]
320,192,180,5,0,0:0:0:0:
448,192,180,1,0,0:0:0:0:
64,192,344,128,0,426:0:0:0:0:
192,192,344,128,0,426:0:0:0:0:
320,192,426,128,0,508:0:0:0:0:
448,192,426,128,0,508:0:0:0:0:
64,192,508,128,0,590:0:0:0:0:
192,192,508,128,0,590:0:0:0:0:
320,192,590,128,0,672:0:0:0:0:
448,192,590,128,0,672:0:0:0:0:
64,192,672,128,0,754:0:0:0:0:
192,192,672,128,0,754:0:0:0:0:
320,192,754,128,0,836:0:0:0:0:
448,192,754,128,0,836:0:0:0:0:
64,192,836,128,0,1983:0:0:0:0:
192,192,836,128,0,999:0:0:0:0:
320,192,917,128,0,999:0:0:0:0:
448,192,999,128,0,1163:0:0:0:0:
192,192,1081,128,0,1163:0:0:0:0:
320,192,1163,128,0,1327:0:0:0:0:
192,192,1245,128,0,1327:0:0:0:0:
448,192,1327,128,0,1491:0:0:0:0:
320,192,1409,128,0,1491:0:0:0:0:
192,192,1491,128,0,1655:0:0:0:0:
448,192,1573,128,0,1655:0:0:0:0:
320,192,1655,128,0,1819:0:0:0:0:
448,192,1737,128,0,1819:0:0:0:0:
192,192,1819,128,0,1983:0:0:0:0:
320,192,1983,128,0,2147:0:0:0:0:
448,192,1983,128,0,3458:0:0:0:0:
64,192,2065,128,0,2147:0:0:0:0:
192,192,2147,128,0,2311:0:0:0:0:
320,192,2229,128,0,2311:0:0:0:0:
64,192,2311,128,0,2475:0:0:0:0:
192,192,2393,128,0,2475:0:0:0:0:
320,192,2475,128,0,2639:0:0:0:0:
64,192,2557,128,0,2639:0:0:0:0:
192,192,2639,128,0,2803:0:0:0:0:
320,192,2721,128,0,2803:0:0:0:0:
64,192,2803,128,0,2967:0:0:0:0:
320,192,2885,128,0,2967:0:0:0:0:
192,192,2967,128,0,3131:0:0:0:0:
64,192,3049,128,0,3131:0:0:0:0:
320,192,3131,128,0,3295:0:0:0:0:
192,192,3213,128,0,3295:0:0:0:0:
64,192,3295,128,0,3458:0:0:0:0:
192,192,3458,128,0,5426:0:0:0:0:
320,192,3458,128,0,3622:0:0:0:0:
448,192,3540,128,0,3622:0:0:0:0:
64,192,3622,128,0,3786:0:0:0:0:
320,192,3704,128,0,3786:0:0:0:0:
448,192,3786,128,0,3950:0:0:0:0:
64,192,3868,128,0,3950:0:0:0:0:
320,192,3950,128,0,4114:0:0:0:0:
448,192,4032,128,0,4114:0:0:0:0:
64,192,4114,128,0,4278:0:0:0:0:
448,192,4196,128,0,4278:0:0:0:0:
320,192,4278,128,0,4442:0:0:0:0:
64,192,4360,128,0,4442:0:0:0:0:
448,192,4442,128,0,4606:0:0:0:0:
320,192,4524,128,0,4606:0:0:0:0:
64,192,4606,128,0,4770:0:0:0:0:
448,192,4688,128,0,4770:0:0:0:0:
320,192,4770,128,0,4934:0:0:0:0:
64,192,4852,128,0,4934:0:0:0:0:
448,192,4934,128,0,5098:0:0:0:0:
320,192,5016,128,0,5098:0:0:0:0:
64,192,5098,128,0,5262:0:0:0:0:
448,192,5180,128,0,5262:0:0:0:0:
320,192,5262,128,0,5426:0:0:0:0:
448,192,5426,128,0,5590:0:0:0:0:
64,192,5426,128,0,5590:0:0:0:0:
192,192,5508,128,0,5590:0:0:0:0:
320,192,5590,128,0,5754:0:0:0:0:
448,192,5672,128,0,5754:0:0:0:0:
64,192,5754,128,0,5917:0:0:0:0:
192,192,5754,128,0,5917:0:0:0:0:
320,192,5835,128,0,5917:0:0:0:0:
448,192,5917,128,0,6081:0:0:0:0:
192,192,5999,128,0,6081:0:0:0:0:
320,192,6081,128,0,6245:0:0:0:0:
64,192,6081,128,0,7229:0:0:0:0:
448,192,6163,128,0,6245:0:0:0:0:
192,192,6245,128,0,6409:0:0:0:0:
320,192,6327,128,0,6409:0:0:0:0:
448,192,6409,128,0,6573:0:0:0:0:
192,192,6491,128,0,6573:0:0:0:0:
320,192,6573,128,0,6737:0:0:0:0:
192,192,6655,128,0,6737:0:0:0:0:
448,192,6737,128,0,6901:0:0:0:0:
320,192,6819,128,0,6901:0:0:0:0:
192,192,6901,128,0,7065:0:0:0:0:
448,192,6983,128,0,7065:0:0:0:0:
320,192,7065,128,0,7229:0:0:0:0:
192,192,7229,128,0,8049:0:0:0:0:
448,192,7229,128,0,7393:0:0:0:0:
320,192,7311,128,0,7393:0:0:0:0:
64,192,7393,128,0,7557:0:0:0:0:
448,192,7475,128,0,7557:0:0:0:0:
320,192,7557,128,0,7721:0:0:0:0:
64,192,7639,128,0,7721:0:0:0:0:
448,192,7721,128,0,7885:0:0:0:0:
320,192,7803,128,0,7885:0:0:0:0:
64,192,7885,128,0,8049:0:0:0:0:
320,192,8049,128,0,8704:0:0:0:0:
448,192,8049,128,0,8213:0:0:0:0:
64,192,8131,128,0,8213:0:0:0:0:
192,192,8213,128,0,8376:0:0:0:0:
448,192,8295,128,0,8376:0:0:0:0:
64,192,8376,128,0,8540:0:0:0:0:
448,192,8458,128,0,8540:0:0:0:0:
192,192,8540,128,0,8704:0:0:0:0:
448,192,8704,128,0,9524:0:0:0:0:
64,192,8704,128,0,8868:0:0:0:0:
192,192,8786,128,0,8950:0:0:0:0:
320,192,8868,128,0,9032:0:0:0:0:
64,192,8950,128,0,9114:0:0:0:0:
192,192,9032,128,0,9196:0:0:0:0:
320,192,9114,128,0,9278:0:0:0:0:
64,192,9196,128,0,9360:0:0:0:0:
192,192,9278,128,0,9442:0:0:0:0:
320,192,9360,128,0,9524:0:0:0:0:
192,192,9524,128,0,9770:0:0:0:0:
64,192,9524,128,0,9770:0:0:0:0:
320,192,9688,128,0,9770:0:0:0:0:
448,192,9688,128,0,9770:0:0:0:0:
448,192,9852,128,0,10098:0:0:0:0:
64,192,9852,128,0,10262:0:0:0:0:
192,192,9852,128,0,10262:0:0:0:0:
320,192,9852,128,0,10098:0:0:0:0:
320,192,10180,128,0,10426:0:0:0:0:
448,192,10180,128,0,10426:0:0:0:0:
64,192,10344,128,0,10590:0:0:0:0:
192,192,10344,128,0,10590:0:0:0:0:
320,192,10508,128,0,10590:0:0:0:0:
448,192,10508,128,0,10590:0:0:0:0:
64,192,10672,128,0,10754:0:0:0:0:
192,192,10672,128,0,10754:0:0:0:0:
320,192,10672,128,0,10754:0:0:0:0:
448,192,10672,128,0,10754:0:0:0:0:
64,192,10835,128,0,10917:0:0:0:0:
192,192,10835,128,0,10917:0:0:0:0:
320,192,10835,128,0,10917:0:0:0:0:
448,192,10835,128,0,10917:0:0:0:0:
320,192,11163,1,0,0:0:0:0:
448,192,11163,1,0,0:0:0:0:
64,192,11327,128,0,13950:0:0:0:0:
448,192,11327,1,0,0:0:0:0:
192,192,11327,128,0,11491:0:0:0:0:
320,192,11491,1,0,0:0:0:0:
448,192,11655,128,0,11819:0:0:0:0:
192,192,11655,1,0,0:0:0:0:
192,192,11819,1,0,0:0:0:0:
320,192,11983,128,0,12147:0:0:0:0:
448,192,11983,1,0,0:0:0:0:
192,192,12147,1,0,0:0:0:0:
192,192,12311,128,0,12475:0:0:0:0:
448,192,12311,1,0,0:0:0:0:
320,192,12475,1,0,0:0:0:0:
448,192,12639,128,0,12803:0:0:0:0:
192,192,12639,1,0,0:0:0:0:
320,192,12803,1,0,0:0:0:0:
192,192,12967,128,0,13131:0:0:0:0:
448,192,12967,1,0,0:0:0:0:
448,192,13131,1,0,0:0:0:0:
320,192,13295,128,0,13458:0:0:0:0:
192,192,13295,1,0,0:0:0:0:
448,192,13458,1,0,0:0:0:0:
448,192,13622,128,0,13786:0:0:0:0:
320,192,13622,1,0,0:0:0:0:
192,192,13786,1,0,0:0:0:0:
320,192,13950,128,0,16573:0:0:0:0:
448,192,13950,128,0,14114:0:0:0:0:
192,192,13950,1,0,0:0:0:0:
64,192,14114,1,0,0:0:0:0:
448,192,14278,128,0,14442:0:0:0:0:
192,192,14278,1,0,0:0:0:0:
64,192,14442,1,0,0:0:0:0:
64,192,14606,128,0,14770:0:0:0:0:
192,192,14606,1,0,0:0:0:0:
448,192,14770,1,0,0:0:0:0:
192,192,14934,128,0,15098:0:0:0:0:
64,192,14934,1,0,0:0:0:0:
448,192,15098,1,0,0:0:0:0:
448,192,15262,128,0,15426:0:0:0:0:
192,192,15262,1,0,0:0:0:0:
64,192,15426,1,0,0:0:0:0:
64,192,15590,128,0,15754:0:0:0:0:
448,192,15590,1,0,0:0:0:0:
192,192,15754,1,0,0:0:0:0:
448,192,15917,128,0,16081:0:0:0:0:
192,192,15917,1,0,0:0:0:0:
64,192,16081,1,0,0:0:0:0:
192,192,16245,128,0,16409:0:0:0:0:
448,192,16245,1,0,0:0:0:0:
64,192,16409,1,0,0:0:0:0:
448,192,16573,128,0,19196:0:0:0:0:
64,192,16573,128,0,16737:0:0:0:0:
192,192,16573,1,0,0:0:0:0:
320,192,16737,1,0,0:0:0:0:
192,192,16901,128,0,17065:0:0:0:0:
64,192,16901,1,0,0:0:0:0:
320,192,17065,1,0,0:0:0:0:
320,192,17229,128,0,17393:0:0:0:0:
192,192,17229,1,0,0:0:0:0:
64,192,17393,1,0,0:0:0:0:
64,192,17557,128,0,17721:0:0:0:0:
320,192,17557,1,0,0:0:0:0:
192,192,17721,1,0,0:0:0:0:
192,192,17885,128,0,18049:0:0:0:0:
64,192,17885,1,0,0:0:0:0:
320,192,18049,1,0,0:0:0:0:
64,192,18213,128,0,18376:0:0:0:0:
320,192,18213,1,0,0:0:0:0:
192,192,18376,1,0,0:0:0:0:
320,192,18540,128,0,18704:0:0:0:0:
64,192,18540,1,0,0:0:0:0:
192,192,18704,1,0,0:0:0:0:
192,192,18868,128,0,19032:0:0:0:0:
320,192,18868,1,0,0:0:0:0:
64,192,19032,1,0,0:0:0:0:
64,192,19196,128,0,21737:0:0:0:0:
192,192,19196,128,0,19360:0:0:0:0:
320,192,19196,128,0,19442:0:0:0:0:
448,192,19360,128,0,19442:0:0:0:0:
320,192,19524,128,0,19688:0:0:0:0:
448,192,19524,128,0,19688:0:0:0:0:
192,192,19688,1,0,0:0:0:0:
192,192,19852,1,0,0:0:0:0:
320,192,19852,1,0,0:0:0:0:
320,192,20016,128,0,20098:0:0:0:0:
448,192,20016,128,0,20098:0:0:0:0:
320,192,20180,128,0,20262:0:0:0:0:
448,192,20180,128,0,20262:0:0:0:0:
192,192,20344,128,0,20508:0:0:0:0:
448,192,20344,128,0,20508:0:0:0:0:
320,192,20508,128,0,20835:0:0:0:0:
192,192,20672,128,0,20835:0:0:0:0:
448,192,20672,1,0,0:0:0:0:
448,192,20835,128,0,21163:0:0:0:0:
320,192,20999,128,0,21163:0:0:0:0:
192,192,20999,1,0,0:0:0:0:
192,192,21163,128,0,21491:0:0:0:0:
320,192,21327,128,0,21491:0:0:0:0:
448,192,21327,1,0,0:0:0:0:
448,192,21491,128,0,21737:0:0:0:0:
192,192,21655,128,0,21737:0:0:0:0:
320,192,21655,128,0,21737:0:0:0:0:
64,192,21819,1,0,0:0:0:0:
448,192,21819,1,0,0:0:0:0:
192,192,21819,1,0,0:0:0:0:
320,192,21901,1,0,0:0:0:0:
192,192,21983,1,0,0:0:0:0:
64,192,22065,1,0,0:0:0:0:
192,192,22147,128,0,22229:0:0:0:0:
320,192,22147,128,0,22311:0:0:0:0:
448,192,22147,128,0,22393:0:0:0:0:
64,192,22229,1,0,0:0:0:0:
192,192,22311,1,0,0:0:0:0:
320,192,22393,1,0,0:0:0:0:
448,192,22475,1,0,0:0:0:0:
64,192,22475,1,0,0:0:0:0:
192,192,22557,1,0,0:0:0:0:
320,192,22639,1,0,0:0:0:0:
192,192,22721,1,0,0:0:0:0:
320,192,22803,128,0,22967:0:0:0:0:
448,192,22803,128,0,22885:0:0:0:0:
64,192,22803,128,0,22885:0:0:0:0:
192,192,22885,1,0,0:0:0:0:
64,192,22967,1,0,0:0:0:0:
448,192,22967,1,0,0:0:0:0:
192,192,23049,1,0,0:0:0:0:
320,192,23131,1,0,0:0:0:0:
448,192,23213,1,0,0:0:0:0:
64,192,23295,128,0,23622:0:0:0:0:
192,192,23295,1,0,0:0:0:0:
448,192,23376,1,0,0:0:0:0:
320,192,23458,1,0,0:0:0:0:
192,192,23540,1,0,0:0:0:0:
448,192,23622,128,0,23950:0:0:0:0:
320,192,23622,1,0,0:0:0:0:
64,192,23704,1,0,0:0:0:0:
192,192,23786,1,0,0:0:0:0:
320,192,23868,1,0,0:0:0:0:
64,192,23950,128,0,24278:0:0:0:0:
192,192,23950,1,0,0:0:0:0:
448,192,24032,1,0,0:0:0:0:
320,192,24114,1,0,0:0:0:0:
192,192,24196,1,0,0:0:0:0:
320,192,24278,128,0,24360:0:0:0:0:
448,192,24278,128,0,24360:0:0:0:0:
64,192,24360,1,0,0:0:0:0:
320,192,24442,128,0,24524:0:0:0:0:
448,192,24442,128,0,24524:0:0:0:0:
192,192,24524,1,0,0:0:0:0:
320,192,24606,1,0,0:0:0:0:
448,192,24688,1,0,0:0:0:0:
320,192,24770,128,0,24852:0:0:0:0:
192,192,24770,128,0,24934:0:0:0:0:
64,192,24770,128,0,25016:0:0:0:0:
320,192,24934,1,0,0:0:0:0:
192,192,25016,1,0,0:0:0:0:
64,192,25098,1,0,0:0:0:0:
448,192,25098,1,0,0:0:0:0:
320,192,25180,1,0,0:0:0:0:
192,192,25262,128,0,25426:0:0:0:0:
448,192,25262,128,0,25344:0:0:0:0:
320,192,25344,1,0,0:0:0:0:
64,192,25426,1,0,0:0:0:0:
448,192,25426,1,0,0:0:0:0:
192,192,25508,1,0,0:0:0:0:
64,192,25590,1,0,0:0:0:0:
320,192,25590,128,0,25917:0:0:0:0:
192,192,25672,1,0,0:0:0:0:
448,192,25754,1,0,0:0:0:0:
192,192,25917,1,0,0:0:0:0:
448,192,25917,1,0,0:0:0:0:
64,192,25917,128,0,26081:0:0:0:0:
320,192,25999,1,0,0:0:0:0:
192,192,26081,1,0,0:0:0:0:
448,192,26081,1,0,0:0:0:0:
320,192,26163,1,0,0:0:0:0:
192,192,26245,1,0,0:0:0:0:
64,192,26327,1,0,0:0:0:0:
448,192,26409,128,0,26491:0:0:0:0:
192,192,26409,128,0,26491:0:0:0:0:
320,192,26491,128,0,26573:0:0:0:0:
192,192,26573,128,0,26655:0:0:0:0:
64,192,26655,128,0,26737:0:0:0:0:
448,192,26737,128,0,26819:0:0:0:0:
320,192,26737,128,0,26901:0:0:0:0:
192,192,26737,128,0,26983:0:0:0:0:
64,192,26901,1,0,0:0:0:0:
448,192,26901,128,0,27065:0:0:0:0:
320,192,26983,128,0,27065:0:0:0:0:
64,192,27065,1,0,0:0:0:0:
192,192,27065,1,0,0:0:0:0:
448,192,27147,1,0,0:0:0:0:
320,192,27229,1,0,0:0:0:0:
192,192,27311,1,0,0:0:0:0:
320,192,27393,1,0,0:0:0:0:
64,192,27393,1,0,0:0:0:0:
448,192,27393,1,0,0:0:0:0:
192,192,27475,1,0,0:0:0:0:
320,192,27557,1,0,0:0:0:0:
448,192,27639,1,0,0:0:0:0:
64,192,27721,128,0,27803:0:0:0:0:
320,192,27721,128,0,27803:0:0:0:0:
192,192,27803,128,0,27885:0:0:0:0:
64,192,27885,128,0,27967:0:0:0:0:
320,192,27885,128,0,27967:0:0:0:0:
448,192,27967,1,0,0:0:0:0:
320,192,28049,1,0,0:0:0:0:
64,192,28131,1,0,0:0:0:0:
448,192,28213,1,0,0:0:0:0:
320,192,28213,128,0,28295:0:0:0:0:
192,192,28295,1,0,0:0:0:0:
448,192,28376,1,0,0:0:0:0:
64,192,28458,1,0,0:0:0:0:
320,192,28540,1,0,0:0:0:0:
192,192,28540,128,0,28622:0:0:0:0:
64,192,28622,1,0,0:0:0:0:
448,192,28704,1,0,0:0:0:0:
320,192,28786,1,0,0:0:0:0:
192,192,28868,1,0,0:0:0:0:
64,192,28868,128,0,28950:0:0:0:0:
448,192,28950,1,0,0:0:0:0:
320,192,29032,1,0,0:0:0:0:
192,192,29114,1,0,0:0:0:0:
448,192,29196,128,0,29278:0:0:0:0:
320,192,29196,1,0,0:0:0:0:
64,192,29278,1,0,0:0:0:0:
192,192,29360,1,0,0:0:0:0:
320,192,29442,1,0,0:0:0:0:
192,192,29524,128,0,29606:0:0:0:0:
448,192,29524,128,0,29606:0:0:0:0:
320,192,29606,128,0,29688:0:0:0:0:
192,192,29688,128,0,29770:0:0:0:0:
448,192,29688,128,0,30344:0:0:0:0:
64,192,29770,128,0,29852:0:0:0:0:
320,192,29852,128,0,29934:0:0:0:0:
64,192,29934,128,0,30016:0:0:0:0:
192,192,30016,128,0,30098:0:0:0:0:
320,192,30016,128,0,30098:0:0:0:0:
64,192,30098,128,0,30180:0:0:0:0:
320,192,30180,128,0,30262:0:0:0:0:
192,192,30262,128,0,30344:0:0:0:0:
64,192,30344,1,0,0:0:0:0:
320,192,30426,1,0,0:0:0:0:
64,192,30508,1,0,0:0:0:0:
448,192,30508,1,0,0:0:0:0:
192,192,30590,1,0,0:0:0:0:
64,192,30672,1,0,0:0:0:0:
448,192,30672,1,0,0:0:0:0:
320,192,30754,1,0,0:0:0:0:
64,192,30835,1,0,0:0:0:0:
192,192,30835,1,0,0:0:0:0:
448,192,30835,1,0,0:0:0:0:
64,192,31163,1,0,0:0:0:0:
192,192,31163,1,0,0:0:0:0:
448,192,31163,1,0,0:0:0:0:
64,192,31491,1,0,0:0:0:0:
192,192,31491,1,0,0:0:0:0:
448,192,31491,1,0,0:0:0:0:
320,192,31573,1,0,0:0:0:0:
64,192,31655,1,0,0:0:0:0:
320,192,31655,1,0,0:0:0:0:
448,192,31655,1,0,0:0:0:0:
64,192,31819,1,0,0:0:0:0:
192,192,31819,1,0,0:0:0:0:
192,192,31983,1,0,0:0:0:0:
320,192,31983,1,0,0:0:0:0:
320,192,32147,1,0,0:0:0:0:
448,192,32147,1,0,0:0:0:0:
320,192,32311,128,0,32393:0:0:0:0:
448,192,32311,128,0,32393:0:0:0:0:
192,192,32311,128,0,32475:0:0:0:0:
64,192,32311,128,0,32475:0:0:0:0:
320,192,32475,128,0,32557:0:0:0:0:
448,192,32475,128,0,32557:0:0:0:0:
192,192,32803,128,0,32885:0:0:0:0:
320,192,32803,128,0,32885:0:0:0:0:
64,192,32803,128,0,32967:0:0:0:0:
448,192,32803,128,0,32967:0:0:0:0:
192,192,32967,128,0,33049:0:0:0:0:
320,192,32967,128,0,33049:0:0:0:0:
64,192,33295,128,0,33376:0:0:0:0:
192,192,33295,128,0,33376:0:0:0:0:
320,192,33295,128,0,33458:0:0:0:0:
448,192,33295,128,0,33458:0:0:0:0:
64,192,33458,128,0,33540:0:0:0:0:
192,192,33458,128,0,33540:0:0:0:0:
64,192,33786,128,0,33868:0:0:0:0:
448,192,33786,128,0,33868:0:0:0:0:
192,192,33786,128,0,33950:0:0:0:0:
320,192,33786,128,0,33950:0:0:0:0:
448,192,33950,128,0,34032:0:0:0:0:
64,192,33950,128,0,34032:0:0:0:0:
320,192,34278,128,0,34415:0:0:0:0:
448,192,34278,128,0,34360:0:0:0:0:
192,192,34278,128,0,34469:0:0:0:0:
64,192,34278,128,0,34524:0:0:0:0:
320,192,34606,128,0,34797:0:0:0:0:
192,192,34606,128,0,34743:0:0:0:0:
64,192,34606,128,0,34688:0:0:0:0:
448,192,34606,128,0,34852:0:0:0:0:
64,192,34934,128,0,35016:0:0:0:0:
192,192,34934,128,0,35016:0:0:0:0:
320,192,34934,128,0,35016:0:0:0:0:
448,192,34934,128,0,35016:0:0:0:0:
64,192,35098,128,0,35180:0:0:0:0:
192,192,35098,128,0,35180:0:0:0:0:
64,192,35426,128,0,35508:0:0:0:0:
192,192,35426,128,0,35508:0:0:0:0:
320,192,35426,128,0,35508:0:0:0:0:
448,192,35426,128,0,35508:0:0:0:0:
192,192,35590,128,0,35672:0:0:0:0:
320,192,35590,128,0,35672:0:0:0:0:
64,192,35917,128,0,35999:0:0:0:0:
192,192,35917,128,0,35999:0:0:0:0:
320,192,35917,128,0,35999:0:0:0:0:
448,192,35917,128,0,35999:0:0:0:0:
320,192,36081,128,0,36163:0:0:0:0:
448,192,36081,128,0,36163:0:0:0:0:
64,192,36409,128,0,36491:0:0:0:0:
192,192,36409,128,0,36491:0:0:0:0:
320,192,36409,128,0,36491:0:0:0:0:
448,192,36409,128,0,36491:0:0:0:0:
192,192,36573,128,0,36655:0:0:0:0:
320,192,36573,128,0,36655:0:0:0:0:
64,192,36901,128,0,36983:0:0:0:0:
192,192,36901,128,0,37065:0:0:0:0:
320,192,36901,128,0,37147:0:0:0:0:
448,192,36901,128,0,37147:0:0:0:0:
192,192,37229,128,0,37475:0:0:0:0:
320,192,37229,128,0,37393:0:0:0:0:
448,192,37229,128,0,37311:0:0:0:0:
64,192,37229,128,0,37475:0:0:0:0:
64,192,37557,128,0,37639:0:0:0:0:
192,192,37557,128,0,37639:0:0:0:0:
448,192,37557,128,0,37639:0:0:0:0:
320,192,37639,128,0,37721:0:0:0:0:
64,192,37721,128,0,37803:0:0:0:0:
192,192,37721,128,0,37803:0:0:0:0:
448,192,37721,128,0,37803:0:0:0:0:
192,192,38049,128,0,38131:0:0:0:0:
320,192,38049,128,0,38131:0:0:0:0:
448,192,38049,128,0,38131:0:0:0:0:
64,192,38131,128,0,38213:0:0:0:0:
448,192,38213,128,0,38295:0:0:0:0:
320,192,38213,128,0,38295:0:0:0:0:
192,192,38213,128,0,38295:0:0:0:0:
64,192,38540,128,0,38622:0:0:0:0:
192,192,38540,128,0,38622:0:0:0:0:
320,192,38540,128,0,38622:0:0:0:0:
448,192,38622,128,0,38704:0:0:0:0:
64,192,38704,128,0,38786:0:0:0:0:
192,192,38704,128,0,38786:0:0:0:0:
320,192,38704,128,0,38786:0:0:0:0:
448,192,39032,128,0,39114:0:0:0:0:
320,192,39032,128,0,39114:0:0:0:0:
64,192,39032,128,0,39114:0:0:0:0:
192,192,39114,128,0,39196:0:0:0:0:
64,192,39196,128,0,39278:0:0:0:0:
320,192,39196,128,0,39278:0:0:0:0:
448,192,39196,128,0,39278:0:0:0:0:
64,192,39524,128,0,39606:0:0:0:0:
192,192,39524,128,0,39606:0:0:0:0:
320,192,39524,128,0,39606:0:0:0:0:
448,192,39524,128,0,39606:0:0:0:0:
320,192,39688,128,0,39770:0:0:0:0:
448,192,39688,128,0,39770:0:0:0:0:
64,192,39852,128,0,39934:0:0:0:0:
192,192,39852,128,0,39934:0:0:0:0:
320,192,39852,128,0,39934:0:0:0:0:
448,192,39852,128,0,39934:0:0:0:0:
64,192,40016,128,0,40098:0:0:0:0:
192,192,40016,128,0,40098:0:0:0:0:
64,192,40180,128,0,40262:0:0:0:0:
192,192,40180,128,0,40262:0:0:0:0:
448,192,40180,128,0,40262:0:0:0:0:
320,192,40262,128,0,40344:0:0:0:0:
192,192,40344,128,0,40426:0:0:0:0:
448,192,40344,128,0,40426:0:0:0:0:
64,192,40672,128,0,40754:0:0:0:0:
192,192,40672,128,0,40754:0:0:0:0:
448,192,40672,128,0,40754:0:0:0:0:
320,192,40754,128,0,40835:0:0:0:0:
192,192,40835,128,0,40917:0:0:0:0:
448,192,40835,128,0,40917:0:0:0:0:
64,192,41163,128,0,41245:0:0:0:0:
320,192,41163,128,0,41245:0:0:0:0:
448,192,41163,128,0,41245:0:0:0:0:
192,192,41245,128,0,41327:0:0:0:0:
64,192,41327,128,0,41409:0:0:0:0:
320,192,41327,128,0,41409:0:0:0:0:
64,192,41655,128,0,41737:0:0:0:0:
320,192,41655,128,0,41737:0:0:0:0:
448,192,41655,128,0,41737:0:0:0:0:
192,192,41737,128,0,41819:0:0:0:0:
64,192,41819,128,0,41901:0:0:0:0:
320,192,41819,128,0,41901:0:0:0:0:
192,192,42147,128,0,42229:0:0:0:0:
320,192,42147,128,0,42311:0:0:0:0:
448,192,42147,128,0,42393:0:0:0:0:
64,192,42229,1,0,0:0:0:0:
192,192,42311,1,0,0:0:0:0:
320,192,42393,1,0,0:0:0:0:
64,192,42475,128,0,42557:0:0:0:0:
192,192,42475,128,0,42557:0:0:0:0:
320,192,42557,128,0,42639:0:0:0:0:
448,192,42557,128,0,42639:0:0:0:0:
64,192,42639,128,0,42721:0:0:0:0:
192,192,42639,128,0,42721:0:0:0:0:
320,192,42721,128,0,42803:0:0:0:0:
448,192,42721,128,0,42803:0:0:0:0:
64,192,42803,128,0,42885:0:0:0:0:
192,192,42803,128,0,42967:0:0:0:0:
320,192,42885,128,0,42967:0:0:0:0:
64,192,42967,128,0,43131:0:0:0:0:
448,192,42967,128,0,43049:0:0:0:0:
320,192,43049,128,0,43131:0:0:0:0:
192,192,43131,128,0,43295:0:0:0:0:
448,192,43131,128,0,43213:0:0:0:0:
64,192,43213,128,0,43295:0:0:0:0:
320,192,43295,128,0,43458:0:0:0:0:
448,192,43295,128,0,43376:0:0:0:0:
192,192,43376,128,0,43458:0:0:0:0:
64,192,43458,128,0,43622:0:0:0:0:
448,192,43458,128,0,43540:0:0:0:0:
192,192,43540,128,0,43622:0:0:0:0:
448,192,43622,128,0,43786:0:0:0:0:
320,192,43622,128,0,43704:0:0:0:0:
192,192,43704,128,0,43786:0:0:0:0:
64,192,43786,128,0,43950:0:0:0:0:
320,192,43786,128,0,43868:0:0:0:0:
448,192,43868,128,0,43950:0:0:0:0:
192,192,43950,128,0,44114:0:0:0:0:
320,192,43950,128,0,44032:0:0:0:0:
64,192,44032,128,0,44114:0:0:0:0:
448,192,44114,128,0,44278:0:0:0:0:
320,192,44114,128,0,44196:0:0:0:0:
192,192,44196,128,0,44278:0:0:0:0:
64,192,44278,128,0,44442:0:0:0:0:
320,192,44278,128,0,44360:0:0:0:0:
448,192,44360,128,0,44442:0:0:0:0:
192,192,44442,128,0,44606:0:0:0:0:
320,192,44442,128,0,44524:0:0:0:0:
64,192,44524,128,0,44606:0:0:0:0:
320,192,44606,128,0,44770:0:0:0:0:
448,192,44606,128,0,44688:0:0:0:0:
192,192,44688,128,0,44770:0:0:0:0:
64,192,44770,128,0,44934:0:0:0:0:
448,192,44770,128,0,44852:0:0:0:0:
192,192,44852,128,0,44934:0:0:0:0:
448,192,44934,128,0,45098:0:0:0:0:
320,192,44934,128,0,45016:0:0:0:0:
64,192,45016,128,0,45098:0:0:0:0:
192,192,45098,128,0,45262:0:0:0:0:
320,192,45098,128,0,45180:0:0:0:0:
64,192,45180,128,0,45262:0:0:0:0:
448,192,45262,128,0,46081:0:0:0:0:
320,192,45262,128,0,45344:0:0:0:0:
192,192,45344,128,0,45426:0:0:0:0:
64,192,45426,128,0,45508:0:0:0:0:
192,192,45508,128,0,45590:0:0:0:0:
64,192,45590,128,0,45672:0:0:0:0:
320,192,45672,128,0,45754:0:0:0:0:
192,192,45754,128,0,45835:0:0:0:0:
320,192,45835,128,0,45917:0:0:0:0:
192,192,45917,128,0,45999:0:0:0:0:
64,192,45999,128,0,46081:0:0:0:0:
320,192,46081,128,0,46245:0:0:0:0:
192,192,46081,128,0,46163:0:0:0:0:
448,192,46163,128,0,46245:0:0:0:0:
64,192,46245,128,0,46409:0:0:0:0:
192,192,46245,128,0,46327:0:0:0:0:
320,192,46327,128,0,46409:0:0:0:0:
448,192,46409,128,0,46573:0:0:0:0:
192,192,46409,128,0,46491:0:0:0:0:
64,192,46491,128,0,46573:0:0:0:0:
192,192,46573,128,0,46737:0:0:0:0:
320,192,46573,128,0,46655:0:0:0:0:
448,192,46655,128,0,46737:0:0:0:0:
64,192,46737,128,0,46901:0:0:0:0:
320,192,46737,128,0,46819:0:0:0:0:
192,192,46819,128,0,46901:0:0:0:0:
448,192,46901,128,0,47065:0:0:0:0:
320,192,46901,128,0,46983:0:0:0:0:
64,192,46983,128,0,47065:0:0:0:0:
320,192,47065,128,0,47229:0:0:0:0:
192,192,47065,128,0,47147:0:0:0:0:
448,192,47147,128,0,47229:0:0:0:0:
64,192,47229,128,0,47393:0:0:0:0:
192,192,47229,128,0,47311:0:0:0:0:
448,192,47311,128,0,47393:0:0:0:0:
192,192,47393,128,0,47557:0:0:0:0:
320,192,47393,128,0,47475:0:0:0:0:
64,192,47475,128,0,47557:0:0:0:0:
448,192,47557,128,0,47721:0:0:0:0:
320,192,47557,128,0,47639:0:0:0:0:
192,192,47639,128,0,47721:0:0:0:0:
64,192,47721,128,0,47803:0:0:0:0:
320,192,47721,128,0,47803:0:0:0:0:
448,192,47803,128,0,47885:0:0:0:0:
192,192,47885,128,0,49688:0:0:0:0:
320,192,47885,1,0,0:0:0:0:
64,192,47885,1,0,0:0:0:0:
64,192,48213,1,0,0:0:0:0:
320,192,48213,1,0,0:0:0:0:
448,192,48213,1,0,0:0:0:0:
448,192,48376,1,0,0:0:0:0:
320,192,48376,1,0,0:0:0:0:
64,192,48376,1,0,0:0:0:0:
64,192,48540,1,0,0:0:0:0:
320,192,48540,1,0,0:0:0:0:
448,192,48540,1,0,0:0:0:0:
64,192,48704,1,0,0:0:0:0:
320,192,48704,1,0,0:0:0:0:
448,192,48704,1,0,0:0:0:0:
64,192,48868,1,0,0:0:0:0:
320,192,48868,1,0,0:0:0:0:
448,192,48868,1,0,0:0:0:0:
64,192,49032,128,0,49114:0:0:0:0:
320,192,49032,128,0,49114:0:0:0:0:
448,192,49032,128,0,49114:0:0:0:0:
64,192,49196,128,0,49278:0:0:0:0:
320,192,49196,128,0,49278:0:0:0:0:
448,192,49196,128,0,49278:0:0:0:0:
64,192,49360,128,0,49442:0:0:0:0:
320,192,49360,128,0,49442:0:0:0:0:
448,192,49360,128,0,49442:0:0:0:0:
64,192,49524,128,0,49606:0:0:0:0:
320,192,49524,128,0,49606:0:0:0:0:
448,192,49524,128,0,49606:0:0:0:0:
64,192,49688,128,0,49770:0:0:0:0:
320,192,49688,128,0,49770:0:0:0:0:
448,192,49688,128,0,49770:0:0:0:0:
192,192,49770,128,0,49852:0:0:0:0:
320,192,49852,128,0,49934:0:0:0:0:
448,192,49934,128,0,50016:0:0:0:0:
320,192,50016,1,0,0:0:0:0:
192,192,50098,1,0,0:0:0:0:
64,192,50180,1,0,0:0:0:0:
320,192,50180,128,0,50262:0:0:0:0:
448,192,50180,128,0,50262:0:0:0:0:
192,192,50262,1,0,0:0:0:0:
320,192,50344,128,0,50426:0:0:0:0:
448,192,50344,128,0,50426:0:0:0:0:
64,192,50344,1,0,0:0:0:0:
192,192,50426,1,0,0:0:0:0:
320,192,50508,128,0,50672:0:0:0:0:
448,192,50508,128,0,50672:0:0:0:0:
64,192,50508,1,0,0:0:0:0:
448,192,51327,128,0,51983:0:0:0:0:
320,192,51983,128,0,52639:0:0:0:0:
64,192,52639,128,0,53295:0:0:0:0:
192,192,52639,128,0,52721:0:0:0:0:
320,192,52721,128,0,52803:0:0:0:0:
448,192,52803,128,0,52885:0:0:0:0:
320,192,52885,128,0,52967:0:0:0:0:
192,192,52967,128,0,53049:0:0:0:0:
448,192,52967,128,0,53049:0:0:0:0:
320,192,53049,128,0,53131:0:0:0:0:
192,192,53131,128,0,53213:0:0:0:0:
320,192,53213,128,0,53295:0:0:0:0:
448,192,53295,128,0,53950:0:0:0:0:
192,192,53295,128,0,53458:0:0:0:0:
320,192,53376,1,0,0:0:0:0:
64,192,53458,1,0,0:0:0:0:
64,192,53540,128,0,53704:0:0:0:0:
192,192,53622,1,0,0:0:0:0:
320,192,53704,1,0,0:0:0:0:
320,192,53786,128,0,53950:0:0:0:0:
192,192,53868,1,0,0:0:0:0:
64,192,53950,1,0,0:0:0:0:
192,192,54032,1,0,0:0:0:0:
64,192,54114,1,0,0:0:0:0:
448,192,54114,1,0,0:0:0:0:
320,192,54196,1,0,0:0:0:0:
192,192,54278,128,0,54360:0:0:0:0:
64,192,54278,128,0,54360:0:0:0:0:
448,192,54278,128,0,54360:0:0:0:0:
320,192,54360,128,0,54442:0:0:0:0:
64,192,54442,128,0,54524:0:0:0:0:
192,192,54442,128,0,54606:0:0:0:0:
448,192,54442,128,0,54688:0:0:0:0:
64,192,54606,1,0,0:0:0:0:
192,192,54688,1,0,0:0:0:0:
448,192,54770,128,0,54852:0:0:0:0:
320,192,54770,128,0,54934:0:0:0:0:
192,192,54852,128,0,54934:0:0:0:0:
64,192,54934,128,0,55098:0:0:0:0:
448,192,54934,128,0,55016:0:0:0:0:
320,192,55016,128,0,55098:0:0:0:0:
192,192,55098,128,0,55262:0:0:0:0:
448,192,55098,128,0,55180:0:0:0:0:
64,192,55180,128,0,55262:0:0:0:0:
448,192,55262,128,0,55426:0:0:0:0:
320,192,55262,128,0,55344:0:0:0:0:
192,192,55344,128,0,55426:0:0:0:0:
64,192,55344,128,0,55508:0:0:0:0:
320,192,55508,128,0,55672:0:0:0:0:
448,192,55508,128,0,55590:0:0:0:0:
192,192,55590,128,0,55754:0:0:0:0:
64,192,55590,128,0,55672:0:0:0:0:
448,192,55754,128,0,56573:0:0:0:0:
320,192,55754,128,0,55917:0:0:0:0:
64,192,55754,1,0,0:0:0:0:
192,192,55835,1,0,0:0:0:0:
64,192,55917,128,0,56081:0:0:0:0:
320,192,55999,1,0,0:0:0:0:
192,192,56081,1,0,0:0:0:0:
64,192,56163,1,0,0:0:0:0:
320,192,56245,128,0,56409:0:0:0:0:
192,192,56245,1,0,0:0:0:0:
64,192,56327,1,0,0:0:0:0:
192,192,56409,1,0,0:0:0:0:
320,192,56491,1,0,0:0:0:0:
64,192,56573,1,0,0:0:0:0:
192,192,56573,1,0,0:0:0:0:
448,192,56655,1,0,0:0:0:0:
320,192,56737,1,0,0:0:0:0:
192,192,56819,1,0,0:0:0:0:
448,192,56901,128,0,57065:0:0:0:0:
320,192,56901,128,0,56983:0:0:0:0:
64,192,56901,1,0,0:0:0:0:
192,192,56983,1,0,0:0:0:0:
320,192,57065,1,0,0:0:0:0:
448,192,57147,1,0,0:0:0:0:
64,192,57229,128,0,57393:0:0:0:0:
192,192,57229,128,0,57311:0:0:0:0:
448,192,57229,1,0,0:0:0:0:
320,192,57311,1,0,0:0:0:0:
192,192,57393,1,0,0:0:0:0:
64,192,57475,1,0,0:0:0:0:
192,192,57557,1,0,0:0:0:0:
448,192,57557,1,0,0:0:0:0:
320,192,57639,1,0,0:0:0:0:
192,192,57721,1,0,0:0:0:0:
64,192,57721,1,0,0:0:0:0:
448,192,57721,128,0,58049:0:0:0:0:
320,192,57803,1,0,0:0:0:0:
64,192,57885,1,0,0:0:0:0:
192,192,57885,1,0,0:0:0:0:
320,192,57967,1,0,0:0:0:0:
64,192,58049,1,0,0:0:0:0:
192,192,58049,1,0,0:0:0:0:
320,192,58131,1,0,0:0:0:0:
448,192,58213,1,0,0:0:0:0:
192,192,58213,1,0,0:0:0:0:
64,192,58213,1,0,0:0:0:0:
64,192,58376,1,0,0:0:0:0:
320,192,58376,1,0,0:0:0:0:
448,192,58376,1,0,0:0:0:0:
192,192,58540,128,0,58704:0:0:0:0:
320,192,58540,1,0,0:0:0:0:
448,192,58622,1,0,0:0:0:0:
64,192,58704,128,0,58868:0:0:0:0:
320,192,58704,1,0,0:0:0:0:
192,192,58786,1,0,0:0:0:0:
320,192,58868,128,0,59032:0:0:0:0:
448,192,58868,1,0,0:0:0:0:
192,192,58950,1,0,0:0:0:0:
64,192,59032,1,0,0:0:0:0:
448,192,59032,128,0,59196:0:0:0:0:
320,192,59114,1,0,0:0:0:0:
192,192,59196,128,0,59360:0:0:0:0:
64,192,59278,1,0,0:0:0:0:
320,192,59360,1,0,0:0:0:0:
448,192,59360,128,0,59524:0:0:0:0:
192,192,59442,1,0,0:0:0:0:
64,192,59524,128,0,59688:0:0:0:0:
320,192,59524,1,0,0:0:0:0:
448,192,59606,1,0,0:0:0:0:
320,192,59688,128,0,59852:0:0:0:0:
448,192,59770,1,0,0:0:0:0:
64,192,59852,128,0,59934:0:0:0:0:
192,192,59852,128,0,60016:0:0:0:0:
320,192,59934,128,0,60098:0:0:0:0:
448,192,59934,128,0,60016:0:0:0:0:
64,192,60016,1,0,0:0:0:0:
448,192,60098,1,0,0:0:0:0:
64,192,60180,1,0,0:0:0:0:
192,192,60180,1,0,0:0:0:0:
320,192,60180,1,0,0:0:0:0:
448,192,60262,1,0,0:0:0:0:
320,192,60344,1,0,0:0:0:0:
192,192,60426,1,0,0:0:0:0:
64,192,60508,1,0,0:0:0:0:
320,192,60508,1,0,0:0:0:0:
192,192,60590,1,0,0:0:0:0:
320,192,60672,1,0,0:0:0:0:
448,192,60754,1,0,0:0:0:0:
64,192,60835,1,0,0:0:0:0:
192,192,60835,1,0,0:0:0:0:
320,192,60835,1,0,0:0:0:0:
64,192,60999,128,0,61245:0:0:0:0:
192,192,60999,128,0,61409:0:0:0:0:
320,192,60999,128,0,61245:0:0:0:0:
448,192,60999,128,0,61245:0:0:0:0:
64,192,61327,128,0,61409:0:0:0:0:
320,192,61327,128,0,61409:0:0:0:0:
448,192,61327,128,0,61573:0:0:0:0:
64,192,61491,128,0,61737:0:0:0:0:
192,192,61491,128,0,61573:0:0:0:0:
320,192,61491,128,0,61573:0:0:0:0:
192,192,61655,128,0,61737:0:0:0:0:
320,192,61655,128,0,61901:0:0:0:0:
448,192,61655,128,0,61737:0:0:0:0:
448,192,61819,128,0,61901:0:0:0:0:
192,192,61819,128,0,62229:0:0:0:0:
64,192,61819,128,0,61901:0:0:0:0:
64,192,61983,128,0,62229:0:0:0:0:
320,192,61983,128,0,62229:0:0:0:0:
448,192,61983,128,0,62229:0:0:0:0:
448,192,62311,128,0,62393:0:0:0:0:
320,192,62311,128,0,62475:0:0:0:0:
192,192,62311,128,0,62557:0:0:0:0:
64,192,62311,128,0,62639:0:0:0:0:
448,192,62475,1,0,0:0:0:0:
320,192,62557,1,0,0:0:0:0:
448,192,62557,128,0,62967:0:0:0:0:
192,192,62639,1,0,0:0:0:0:
320,192,62639,128,0,62885:0:0:0:0:
64,192,62721,1,0,0:0:0:0:
192,192,62721,128,0,62803:0:0:0:0:
64,192,62803,1,0,0:0:0:0:
192,192,62885,1,0,0:0:0:0:
320,192,62967,1,0,0:0:0:0:
448,192,63049,1,0,0:0:0:0:
64,192,63131,128,0,63213:0:0:0:0:
192,192,63131,128,0,63213:0:0:0:0:
320,192,63213,128,0,63295:0:0:0:0:
448,192,63213,128,0,63295:0:0:0:0:
64,192,63295,128,0,63376:0:0:0:0:
192,192,63295,128,0,63376:0:0:0:0:
320,192,63376,128,0,63458:0:0:0:0:
448,192,63376,128,0,63458:0:0:0:0:
64,192,63458,128,0,63540:0:0:0:0:
192,192,63458,128,0,63540:0:0:0:0:
320,192,63540,128,0,63622:0:0:0:0:
448,192,63540,128,0,63622:0:0:0:0:
64,192,63622,128,0,63786:0:0:0:0:
192,192,63622,1,0,0:0:0:0:
320,192,63704,1,0,0:0:0:0:
448,192,63786,128,0,63950:0:0:0:0:
192,192,63786,1,0,0:0:0:0:
64,192,63868,1,0,0:0:0:0:
320,192,63950,1,0,0:0:0:0:
192,192,63950,128,0,64114:0:0:0:0:
64,192,64032,1,0,0:0:0:0:
448,192,64114,1,0,0:0:0:0:
320,192,64114,128,0,64278:0:0:0:0:
64,192,64196,1,0,0:0:0:0:
192,192,64278,1,0,0:0:0:0:
448,192,64278,128,0,64442:0:0:0:0:
320,192,64360,1,0,0:0:0:0:
192,192,64442,1,0,0:0:0:0:
64,192,64442,128,0,64606:0:0:0:0:
320,192,64524,1,0,0:0:0:0:
192,192,64606,128,0,64770:0:0:0:0:
448,192,64606,1,0,0:0:0:0:
320,192,64688,1,0,0:0:0:0:
448,192,64770,128,0,64934:0:0:0:0:
64,192,64770,128,0,64852:0:0:0:0:
192,192,64852,1,0,0:0:0:0:
64,192,64934,128,0,65098:0:0:0:0:
320,192,64934,128,0,65016:0:0:0:0:
192,192,65016,1,0,0:0:0:0:
448,192,65098,1,0,0:0:0:0:
320,192,65180,1,0,0:0:0:0:
192,192,65262,128,0,65590:0:0:0:0:
448,192,65262,128,0,65426:0:0:0:0:
64,192,65344,1,0,0:0:0:0:
320,192,65426,1,0,0:0:0:0:
64,192,65508,1,0,0:0:0:0:
448,192,65590,128,0,65917:0:0:0:0:
320,192,65590,128,0,65754:0:0:0:0:
64,192,65672,1,0,0:0:0:0:
192,192,65754,1,0,0:0:0:0:
64,192,65835,1,0,0:0:0:0:
320,192,65917,128,0,66245:0:0:0:0:
192,192,65917,128,0,66081:0:0:0:0:
64,192,65999,1,0,0:0:0:0:
448,192,66081,1,0,0:0:0:0:
192,192,66163,1,0,0:0:0:0:
448,192,66245,128,0,66409:0:0:0:0:
64,192,66245,128,0,67065:0:0:0:0:
320,192,66327,1,0,0:0:0:0:
192,192,66409,1,0,0:0:0:0:
320,192,66491,1,0,0:0:0:0:
448,192,66573,1,0,0:0:0:0:
192,192,66655,1,0,0:0:0:0:
320,192,66737,1,0,0:0:0:0:
448,192,66819,1,0,0:0:0:0:
320,192,66901,1,0,0:0:0:0:
192,192,66983,1,0,0:0:0:0:
320,192,67065,1,0,0:0:0:0:
448,192,67065,1,0,0:0:0:0:
192,192,67147,1,0,0:0:0:0:
64,192,67229,1,0,0:0:0:0:
192,192,67311,1,0,0:0:0:0:
64,192,67393,128,0,67475:0:0:0:0:
320,192,67393,128,0,67475:0:0:0:0:
448,192,67393,128,0,67557:0:0:0:0:
192,192,67475,1,0,0:0:0:0:
320,192,67557,1,0,0:0:0:0:
448,192,67639,1,0,0:0:0:0:
320,192,67721,128,0,67803:0:0:0:0:
192,192,67721,128,0,67885:0:0:0:0:
64,192,67721,128,0,67803:0:0:0:0:
448,192,67803,1,0,0:0:0:0:
320,192,67885,1,0,0:0:0:0:
192,192,67967,1,0,0:0:0:0:
64,192,68049,1,0,0:0:0:0:
320,192,68049,1,0,0:0:0:0:
448,192,68049,1,0,0:0:0:0:
192,192,68131,1,0,0:0:0:0:
64,192,68213,128,0,68704:0:0:0:0:
320,192,68213,128,0,68295:0:0:0:0:
192,192,68295,128,0,68376:0:0:0:0:
448,192,68376,128,0,68458:0:0:0:0:
192,192,68458,128,0,68540:0:0:0:0:
320,192,68540,128,0,68622:0:0:0:0:
448,192,68622,128,0,68704:0:0:0:0:
192,192,68704,128,0,68868:0:0:0:0:
320,192,68704,128,0,68786:0:0:0:0:
448,192,68786,128,0,68868:0:0:0:0:
320,192,68868,128,0,68950:0:0:0:0:
192,192,68950,128,0,69032:0:0:0:0:
64,192,69032,128,0,70016:0:0:0:0:
448,192,69032,128,0,70016:0:0:0:0:
320,192,69032,128,0,69196:0:0:0:0:
192,192,69196,1,0,0:0:0:0:
192,192,69360,128,0,69524:0:0:0:0:
320,192,69524,1,0,0:0:0:0:
320,192,69688,128,0,69852:0:0:0:0:
192,192,69852,1,0,0:0:0:0:
192,192,70016,1,0,0:0:0:0:
320,192,70016,1,0,0:0:0:0:
64,192,70180,1,0,0:0:0:0:
320,192,70180,1,0,0:0:0:0:
448,192,70180,1,0,0:0:0:0:
192,192,70262,1,0,0:0:0:0:
320,192,70344,1,0,0:0:0:0:
448,192,70426,1,0,0:0:0:0:
64,192,70508,1,0,0:0:0:0:
192,192,70508,1,0,0:0:0:0:
448,192,70590,1,0,0:0:0:0:
64,192,70672,1,0,0:0:0:0:
192,192,70672,1,0,0:0:0:0:
448,192,70754,1,0,0:0:0:0:
64,192,70835,1,0,0:0:0:0:
192,192,70835,1,0,0:0:0:0:
448,192,70917,1,0,0:0:0:0:
320,192,70999,1,0,0:0:0:0:
192,192,71081,1,0,0:0:0:0:
64,192,71163,1,0,0:0:0:0:
448,192,71163,1,0,0:0:0:0:
320,192,71245,1,0,0:0:0:0:
448,192,71327,1,0,0:0:0:0:
192,192,71327,1,0,0:0:0:0:
64,192,71409,1,0,0:0:0:0:
192,192,71491,1,0,0:0:0:0:
320,192,71573,1,0,0:0:0:0:
64,192,71655,1,0,0:0:0:0:
192,192,71655,1,0,0:0:0:0:
448,192,71655,1,0,0:0:0:0:
320,192,71737,1,0,0:0:0:0:
192,192,71819,1,0,0:0:0:0:
320,192,71901,1,0,0:0:0:0:
448,192,71983,1,0,0:0:0:0:
64,192,71983,128,0,72065:0:0:0:0:
320,192,72065,1,0,0:0:0:0:
64,192,72147,128,0,72229:0:0:0:0:
448,192,72147,1,0,0:0:0:0:
192,192,72229,1,0,0:0:0:0:
320,192,72311,1,0,0:0:0:0:
448,192,72393,1,0,0:0:0:0:
64,192,72475,128,0,72639:0:0:0:0:
192,192,72475,128,0,72557:0:0:0:0:
320,192,72557,128,0,72639:0:0:0:0:
192,192,72639,128,0,72721:0:0:0:0:
448,192,72639,128,0,72721:0:0:0:0:
64,192,72721,128,0,72803:0:0:0:0:
192,192,72803,128,0,72885:0:0:0:0:
320,192,72803,128,0,72885:0:0:0:0:
448,192,72803,128,0,72885:0:0:0:0:
320,192,72967,128,0,73049:0:0:0:0:
448,192,72967,128,0,73049:0:0:0:0:
64,192,73131,128,0,73213:0:0:0:0:
192,192,73131,128,0,73213:0:0:0:0:
320,192,73131,128,0,73213:0:0:0:0:
64,192,73295,128,0,73376:0:0:0:0:
192,192,73295,128,0,73376:0:0:0:0:
64,192,73458,128,0,73540:0:0:0:0:
320,192,73458,128,0,73540:0:0:0:0:
448,192,73458,128,0,73540:0:0:0:0:
448,192,73622,128,0,73704:0:0:0:0:
320,192,73622,128,0,73704:0:0:0:0:
448,192,73786,128,0,73868:0:0:0:0:
320,192,73786,128,0,73868:0:0:0:0:
192,192,73786,128,0,73868:0:0:0:0:
64,192,73868,128,0,74032:0:0:0:0:
192,192,73950,128,0,74114:0:0:0:0:
320,192,74032,128,0,74196:0:0:0:0:
448,192,74114,128,0,74278:0:0:0:0:
64,192,74278,128,0,74442:0:0:0:0:
192,192,74278,128,0,74360:0:0:0:0:
320,192,74360,128,0,74442:0:0:0:0:
448,192,74442,128,0,74606:0:0:0:0:
192,192,74442,128,0,74524:0:0:0:0:
64,192,74524,128,0,74606:0:0:0:0:
320,192,74606,128,0,74770:0:0:0:0:
192,192,74606,128,0,74688:0:0:0:0:
448,192,74688,128,0,74770:0:0:0:0:
192,192,74770,128,0,74934:0:0:0:0:
64,192,74770,128,0,74852:0:0:0:0:
320,192,74852,128,0,74934:0:0:0:0:
64,192,74934,128,0,75098:0:0:0:0:
448,192,74934,128,0,75016:0:0:0:0:
320,192,75016,128,0,75098:0:0:0:0:
448,192,75098,128,0,75262:0:0:0:0:
192,192,75098,128,0,75180:0:0:0:0:
64,192,75180,128,0,75262:0:0:0:0:
192,192,75262,1,0,0:0:0:0:
320,192,75262,1,0,0:0:0:0:
64,192,75426,1,0,0:0:0:0:
192,192,75426,1,0,0:0:0:0:
448,192,75426,1,0,0:0:0:0:
320,192,75508,1,0,0:0:0:0:
192,192,75590,1,0,0:0:0:0:
64,192,75672,1,0,0:0:0:0:
192,192,75754,1,0,0:0:0:0:
320,192,75754,1,0,0:0:0:0:
448,192,75754,1,0,0:0:0:0:
64,192,75835,1,0,0:0:0:0:
192,192,75917,1,0,0:0:0:0:
320,192,75999,1,0,0:0:0:0:
64,192,76081,1,0,0:0:0:0:
192,192,76081,1,0,0:0:0:0:
448,192,76163,128,0,76409:0:0:0:0:
320,192,76245,128,0,76491:0:0:0:0:
192,192,76327,128,0,76573:0:0:0:0:
64,192,76409,128,0,76655:0:0:0:0:
448,192,76491,1,0,0:0:0:0:
320,192,76573,1,0,0:0:0:0:
192,192,76655,1,0,0:0:0:0:
64,192,76737,1,0,0:0:0:0:
448,192,76737,1,0,0:0:0:0:
64,192,76901,128,0,76983:0:0:0:0:
192,192,76901,128,0,76983:0:0:0:0:
320,192,76901,128,0,76983:0:0:0:0:
448,192,76901,128,0,76983:0:0:0:0:
320,192,77065,128,0,77147:0:0:0:0:
448,192,77065,128,0,77147:0:0:0:0:
64,192,77229,128,0,77311:0:0:0:0:
192,192,77229,128,0,77311:0:0:0:0:
320,192,77229,128,0,77311:0:0:0:0:
448,192,77229,128,0,77311:0:0:0:0:
64,192,77393,128,0,77475:0:0:0:0:
192,192,77393,128,0,77475:0:0:0:0:
64,192,77557,128,0,77639:0:0:0:0:
192,192,77557,128,0,77639:0:0:0:0:
320,192,77557,128,0,77639:0:0:0:0:
448,192,77557,128,0,77639:0:0:0:0:
448,192,77721,128,0,77803:0:0:0:0:
192,192,77721,128,0,77803:0:0:0:0:
64,192,77885,128,0,77967:0:0:0:0:
320,192,77885,128,0,77967:0:0:0:0:
448,192,78049,128,0,78131:0:0:0:0:
192,192,78049,128,0,78131:0:0:0:0:
64,192,78049,128,0,78131:0:0:0:0:
64,192,78376,1,0,0:0:0:0:
192,192,78376,1,0,0:0:0:0:
320,192,78376,1,0,0:0:0:0:
192,192,78540,1,0,0:0:0:0:
320,192,78540,1,0,0:0:0:0:
448,192,78540,1,0,0:0:0:0:
64,192,78704,1,0,0:0:0:0:
192,192,78704,1,0,0:0:0:0:
448,192,78704,1,0,0:0:0:0:
64,192,78868,1,0,0:0:0:0:
320,192,78868,1,0,0:0:0:0:
448,192,78868,1,0,0:0:0:0:
192,192,79032,1,0,0:0:0:0:
320,192,79032,1,0,0:0:0:0:
320,192,79360,1,0,0:0:0:0:
448,192,79524,128,0,80672:0:0:0:0:
64,192,79524,128,0,79688:0:0:0:0:
192,192,79606,128,0,79688:0:0:0:0:
320,192,79688,128,0,79852:0:0:0:0:
192,192,79770,128,0,79852:0:0:0:0:
64,192,79852,128,0,80016:0:0:0:0:
320,192,79934,128,0,80016:0:0:0:0:
192,192,80016,128,0,80180:0:0:0:0:
64,192,80098,128,0,80180:0:0:0:0:
320,192,80180,128,0,80344:0:0:0:0:
192,192,80262,128,0,80344:0:0:0:0:
64,192,80344,128,0,80508:0:0:0:0:
192,192,80426,128,0,80508:0:0:0:0:
320,192,80508,128,0,80672:0:0:0:0:
192,192,80672,128,0,82147:0:0:0:0:
64,192,80672,128,0,80835:0:0:0:0:
448,192,80754,128,0,80835:0:0:0:0:
320,192,80835,128,0,80999:0:0:0:0:
64,192,80917,128,0,80999:0:0:0:0:
448,192,80999,128,0,81163:0:0:0:0:
320,192,81081,128,0,81163:0:0:0:0:
64,192,81163,128,0,81327:0:0:0:0:
448,192,81245,128,0,81327:0:0:0:0:
320,192,81327,128,0,81491:0:0:0:0:
448,192,81409,128,0,81491:0:0:0:0:
64,192,81491,128,0,81655:0:0:0:0:
320,192,81573,128,0,81655:0:0:0:0:
448,192,81655,128,0,81819:0:0:0:0:
64,192,81737,128,0,81819:0:0:0:0:
320,192,81819,128,0,81983:0:0:0:0:
64,192,81901,128,0,81983:0:0:0:0:
448,192,81983,128,0,82147:0:0:0:0:
64,192,82147,128,0,84114:0:0:0:0:
320,192,82147,128,0,82311:0:0:0:0:
192,192,82229,128,0,82311:0:0:0:0:
448,192,82311,128,0,82475:0:0:0:0:
320,192,82393,128,0,82475:0:0:0:0:
192,192,82475,128,0,82639:0:0:0:0:
320,192,82557,128,0,82639:0:0:0:0:
448,192,82639,128,0,82803:0:0:0:0:
192,192,82721,128,0,82803:0:0:0:0:
320,192,82803,128,0,82967:0:0:0:0:
448,192,82885,128,0,82967:0:0:0:0:
192,192,82967,128,0,83131:0:0:0:0:
448,192,83049,128,0,83131:0:0:0:0:
320,192,83131,128,0,83295:0:0:0:0:
192,192,83213,128,0,83295:0:0:0:0:
448,192,83295,128,0,83458:0:0:0:0:
320,192,83376,128,0,83458:0:0:0:0:
192,192,83458,128,0,83622:0:0:0:0:
448,192,83540,128,0,83622:0:0:0:0:
320,192,83622,128,0,83786:0:0:0:0:
448,192,83704,128,0,83786:0:0:0:0:
192,192,83786,128,0,83950:0:0:0:0:
320,192,83868,128,0,83950:0:0:0:0:
448,192,83950,128,0,84114:0:0:0:0:
192,192,84114,128,0,84278:0:0:0:0:
320,192,84114,128,0,84278:0:0:0:0:
64,192,84196,128,0,84278:0:0:0:0:
448,192,84278,128,0,84442:0:0:0:0:
192,192,84360,128,0,84442:0:0:0:0:
320,192,84442,128,0,84606:0:0:0:0:
64,192,84442,128,0,84606:0:0:0:0:
448,192,84524,128,0,84606:0:0:0:0:
192,192,84606,128,0,84770:0:0:0:0:
320,192,84688,128,0,84770:0:0:0:0:
448,192,84770,128,0,85917:0:0:0:0:
64,192,84770,128,0,84934:0:0:0:0:
192,192,84852,128,0,84934:0:0:0:0:
320,192,84934,128,0,85098:0:0:0:0:
64,192,85016,128,0,85098:0:0:0:0:
192,192,85098,128,0,85262:0:0:0:0:
320,192,85180,128,0,85262:0:0:0:0:
64,192,85262,128,0,85426:0:0:0:0:
192,192,85344,128,0,85426:0:0:0:0:
320,192,85426,128,0,85590:0:0:0:0:
192,192,85508,128,0,85590:0:0:0:0:
64,192,85590,128,0,85754:0:0:0:0:
320,192,85672,128,0,85754:0:0:0:0:
192,192,85754,128,0,85917:0:0:0:0:
320,192,85917,128,0,86737:0:0:0:0:
64,192,85917,128,0,86081:0:0:0:0:
448,192,85999,128,0,86081:0:0:0:0:
192,192,86081,128,0,86245:0:0:0:0:
64,192,86163,128,0,86245:0:0:0:0:
448,192,86245,128,0,86409:0:0:0:0:
192,192,86327,128,0,86409:0:0:0:0:
64,192,86409,128,0,86573:0:0:0:0:
448,192,86491,128,0,86573:0:0:0:0:
192,192,86573,128,0,86737:0:0:0:0:
64,192,86737,128,0,87393:0:0:0:0:
448,192,86737,128,0,86901:0:0:0:0:
320,192,86819,128,0,86901:0:0:0:0:
192,192,86901,128,0,87065:0:0:0:0:
320,192,86983,128,0,87065:0:0:0:0:
448,192,87065,128,0,87229:0:0:0:0:
192,192,87147,128,0,87229:0:0:0:0:
320,192,87229,128,0,87393:0:0:0:0:
448,192,87393,128,0,88131:0:0:0:0:
192,192,87393,128,0,87475:0:0:0:0:
320,192,87475,128,0,87557:0:0:0:0:
64,192,87557,128,0,87639:0:0:0:0:
192,192,87557,128,0,87639:0:0:0:0:
320,192,87639,128,0,87721:0:0:0:0:
192,192,87721,128,0,87803:0:0:0:0:
64,192,87803,128,0,87885:0:0:0:0:
320,192,87885,128,0,87967:0:0:0:0:
192,192,87885,128,0,87967:0:0:0:0:
64,192,87967,128,0,88049:0:0:0:0:
320,192,88049,128,0,88131:0:0:0:0:
192,192,88131,128,0,88213:0:0:0:0:
64,192,88213,128,0,88295:0:0:0:0:
448,192,88213,128,0,88295:0:0:0:0:
320,192,88213,128,0,88295:0:0:0:0:
192,192,88376,128,0,88458:0:0:0:0:
320,192,88376,128,0,88458:0:0:0:0:
64,192,88376,128,0,88458:0:0:0:0:
64,192,88540,128,0,89278:0:0:0:0:
448,192,88540,128,0,88622:0:0:0:0:
320,192,88622,128,0,88704:0:0:0:0:
448,192,88704,128,0,88786:0:0:0:0:
320,192,88786,128,0,88868:0:0:0:0:
448,192,88868,128,0,88950:0:0:0:0:
320,192,88950,128,0,89032:0:0:0:0:
448,192,89032,128,0,89114:0:0:0:0:
320,192,89114,128,0,89196:0:0:0:0:
448,192,89196,128,0,89278:0:0:0:0:
320,192,89278,128,0,89360:0:0:0:0:
192,192,89360,128,0,89524:0:0:0:0:
64,192,89360,128,0,89524:0:0:0:0:
320,192,89606,128,0,89770:0:0:0:0:
192,192,89606,128,0,89770:0:0:0:0:
64,192,89606,1,0,0:0:0:0:
448,192,89852,128,0,89934:0:0:0:0:
320,192,89852,128,0,89934:0:0:0:0:
192,192,89852,1,0,0:0:0:0:
448,192,90016,1,0,0:0:0:0:
320,192,90016,1,0,0:0:0:0:
64,192,90016,128,0,90672:0:0:0:0:
320,192,90508,1,0,0:0:0:0:
192,192,90672,1,0,0:0:0:0:
448,192,90672,1,0,0:0:0:0:
320,192,90672,1,0,0:0:0:0:
320,192,90999,128,0,91163:0:0:0:0:
192,192,91163,128,0,91491:0:0:0:0:
448,192,91163,1,0,0:0:0:0:
448,192,91491,128,0,91819:0:0:0:0:
64,192,91491,1,0,0:0:0:0:
64,192,91819,128,0,92147:0:0:0:0:
192,192,91819,1,0,0:0:0:0:
192,192,91983,1,0,0:0:0:0:
320,192,91983,1,0,0:0:0:0:
448,192,91983,1,0,0:0:0:0:
320,192,92147,128,0,92311:0:0:0:0:
64,192,92311,1,0,0:0:0:0:
192,192,92475,128,0,92639:0:0:0:0:
320,192,92475,1,0,0:0:0:0:
448,192,92475,1,0,0:0:0:0:
448,192,92639,128,0,92967:0:0:0:0:
64,192,92639,1,0,0:0:0:0:
64,192,92967,128,0,93295:0:0:0:0:
192,192,92967,128,0,93049:0:0:0:0:
320,192,92967,128,0,93049:0:0:0:0:
192,192,93131,128,0,93213:0:0:0:0:
320,192,93131,128,0,93213:0:0:0:0:
448,192,93295,128,0,93458:0:0:0:0:
192,192,93295,1,0,0:0:0:0:
320,192,93295,1,0,0:0:0:0:
192,192,93622,128,0,93786:0:0:0:0:
448,192,93622,1,0,0:0:0:0:
320,192,93786,128,0,94032:0:0:0:0:
64,192,93786,1,0,0:0:0:0:
320,192,94114,128,0,94606:0:0:0:0:
192,192,94114,1,0,0:0:0:0:
192,192,94442,1,0,0:0:0:0:
64,192,94606,1,0,0:0:0:0:
192,192,94606,1,0,0:0:0:0:
448,192,94606,1,0,0:0:0:0:
320,192,94934,1,0,0:0:0:0:
64,192,95098,1,0,0:0:0:0:
192,192,95098,1,0,0:0:0:0:
320,192,95098,1,0,0:0:0:0:
448,192,95262,128,0,95835:0:0:0:0:
64,192,95262,1,0,0:0:0:0:
64,192,95590,128,0,95672:0:0:0:0:
192,192,95590,128,0,95672:0:0:0:0:
64,192,95754,128,0,95835:0:0:0:0:
192,192,95754,128,0,95835:0:0:0:0:
448,192,95917,1,0,0:0:0:0:
64,192,95917,1,0,0:0:0:0:
192,192,95917,1,0,0:0:0:0:
320,192,96245,128,0,96409:0:0:0:0:
192,192,96409,128,0,96737:0:0:0:0:
448,192,96409,1,0,0:0:0:0:
320,192,96737,128,0,97065:0:0:0:0:
64,192,96737,1,0,0:0:0:0:
448,192,97065,128,0,97393:0:0:0:0:
64,192,97065,1,0,0:0:0:0:
64,192,97229,1,0,0:0:0:0:
192,192,97229,1,0,0:0:0:0:
320,192,97229,1,0,0:0:0:0:
192,192,97393,128,0,97557:0:0:0:0:
320,192,97557,128,0,97639:0:0:0:0:
448,192,97557,128,0,97639:0:0:0:0:
64,192,97639,128,0,97721:0:0:0:0:
192,192,97639,128,0,97721:0:0:0:0:
320,192,97721,128,0,97803:0:0:0:0:
448,192,97721,128,0,97803:0:0:0:0:
64,192,97803,128,0,97885:0:0:0:0:
192,192,97803,128,0,97885:0:0:0:0:
320,192,97885,1,0,0:0:0:0:
448,192,97885,1,0,0:0:0:0:
64,192,99032,128,0,99360:0:0:0:0:
192,192,99360,128,0,99524:0:0:0:0:
320,192,99524,128,0,99688:0:0:0:0:
448,192,99688,128,0,100016:0:0:0:0:
64,192,99688,1,0,0:0:0:0:
192,192,99688,1,0,0:0:0:0:
64,192,100016,1,0,0:0:0:0:
192,192,100016,1,0,0:0:0:0:
320,192,100016,1,0,0:0:0:0:
320,192,100180,1,0,0:0:0:0:
448,192,100180,1,0,0:0:0:0:
64,192,100180,1,0,0:0:0:0:
192,192,100262,1,0,0:0:0:0:
64,192,100344,1,0,0:0:0:0:
448,192,100344,1,0,0:0:0:0:
320,192,100426,1,0,0:0:0:0:
192,192,100426,1,0,0:0:0:0:
448,192,100508,128,0,103131:0:0:0:0:
64,192,100508,128,0,100672:0:0:0:0:
320,192,100672,1,0,0:0:0:0:
64,192,100835,128,0,100917:0:0:0:0:
320,192,100835,128,0,100917:0:0:0:0:
192,192,100999,128,0,101081:0:0:0:0:
320,192,100999,128,0,101081:0:0:0:0:
64,192,101163,128,0,101327:0:0:0:0:
320,192,101163,1,0,0:0:0:0:
192,192,101327,1,0,0:0:0:0:
320,192,101491,128,0,101655:0:0:0:0:
64,192,101491,1,0,0:0:0:0:
192,192,101655,1,0,0:0:0:0:
192,192,101819,128,0,101983:0:0:0:0:
64,192,101819,1,0,0:0:0:0:
320,192,101983,1,0,0:0:0:0:
64,192,102147,128,0,102311:0:0:0:0:
320,192,102147,1,0,0:0:0:0:
192,192,102311,1,0,0:0:0:0:
320,192,102475,128,0,102639:0:0:0:0:
192,192,102475,1,0,0:0:0:0:
64,192,102639,1,0,0:0:0:0:
64,192,102803,128,0,102967:0:0:0:0:
192,192,102803,1,0,0:0:0:0:
320,192,102967,1,0,0:0:0:0:
192,192,103131,128,0,105754:0:0:0:0:
64,192,103131,128,0,103295:0:0:0:0:
320,192,103131,1,0,0:0:0:0:
448,192,103295,1,0,0:0:0:0:
448,192,103458,128,0,103540:0:0:0:0:
320,192,103458,128,0,103540:0:0:0:0:
64,192,103622,128,0,103704:0:0:0:0:
320,192,103622,128,0,103704:0:0:0:0:
448,192,103786,128,0,103950:0:0:0:0:
320,192,103786,1,0,0:0:0:0:
64,192,103950,1,0,0:0:0:0:
64,192,104114,128,0,104278:0:0:0:0:
320,192,104114,1,0,0:0:0:0:
448,192,104278,1,0,0:0:0:0:
320,192,104442,128,0,104606:0:0:0:0:
64,192,104442,1,0,0:0:0:0:
448,192,104606,1,0,0:0:0:0:
448,192,104770,128,0,104934:0:0:0:0:
64,192,104770,1,0,0:0:0:0:
320,192,104934,128,0,105098:0:0:0:0:
64,192,104934,1,0,0:0:0:0:
64,192,105098,128,0,105262:0:0:0:0:
448,192,105098,1,0,0:0:0:0:
448,192,105262,128,0,105426:0:0:0:0:
320,192,105262,1,0,0:0:0:0:
64,192,105426,128,0,105590:0:0:0:0:
320,192,105426,1,0,0:0:0:0:
320,192,105590,128,0,105754:0:0:0:0:
448,192,105590,1,0,0:0:0:0:
64,192,105754,128,0,107065:0:0:0:0:
448,192,105754,128,0,105835:0:0:0:0:
320,192,105835,128,0,105917:0:0:0:0:
192,192,105917,128,0,105999:0:0:0:0:
320,192,105999,128,0,106081:0:0:0:0:
448,192,106081,128,0,106163:0:0:0:0:
192,192,106081,128,0,106163:0:0:0:0:
320,192,106163,128,0,106245:0:0:0:0:
448,192,106245,128,0,106327:0:0:0:0:
192,192,106327,128,0,106409:0:0:0:0:
320,192,106409,128,0,106491:0:0:0:0:
448,192,106409,128,0,106491:0:0:0:0:
192,192,106491,128,0,106573:0:0:0:0:
448,192,106573,128,0,106655:0:0:0:0:
320,192,106655,128,0,106737:0:0:0:0:
192,192,106737,128,0,106819:0:0:0:0:
448,192,106737,128,0,106819:0:0:0:0:
320,192,106819,128,0,106901:0:0:0:0:
192,192,106901,128,0,106983:0:0:0:0:
448,192,106983,128,0,107065:0:0:0:0:
320,192,107065,128,0,108376:0:0:0:0:
192,192,107065,128,0,107147:0:0:0:0:
64,192,107147,128,0,107229:0:0:0:0:
448,192,107229,128,0,107311:0:0:0:0:
64,192,107311,128,0,107393:0:0:0:0:
192,192,107393,128,0,107475:0:0:0:0:
448,192,107393,128,0,107475:0:0:0:0:
64,192,107475,128,0,107557:0:0:0:0:
192,192,107557,128,0,107639:0:0:0:0:
448,192,107639,128,0,107721:0:0:0:0:
192,192,107721,128,0,107803:0:0:0:0:
64,192,107721,128,0,107803:0:0:0:0:
448,192,107803,128,0,107885:0:0:0:0:
192,192,107885,128,0,107967:0:0:0:0:
64,192,107967,128,0,108049:0:0:0:0:
448,192,108049,128,0,108131:0:0:0:0:
192,192,108049,128,0,108131:0:0:0:0:
64,192,108131,128,0,108213:0:0:0:0:
448,192,108213,128,0,108295:0:0:0:0:
192,192,108295,128,0,108376:0:0:0:0:
448,192,108376,128,0,108622:0:0:0:0:
64,192,108376,128,0,108540:0:0:0:0:
192,192,108458,128,0,108540:0:0:0:0:
320,192,108540,128,0,108622:0:0:0:0:
192,192,108622,128,0,108704:0:0:0:0:
64,192,108704,128,0,109032:0:0:0:0:
448,192,108704,128,0,108786:0:0:0:0:
320,192,108704,128,0,108868:0:0:0:0:
192,192,108786,128,0,108868:0:0:0:0:
448,192,108868,128,0,108950:0:0:0:0:
320,192,108950,128,0,109032:0:0:0:0:
192,192,109032,128,0,109278:0:0:0:0:
448,192,109032,128,0,109196:0:0:0:0:
64,192,109114,128,0,109196:0:0:0:0:
320,192,109196,128,0,109278:0:0:0:0:
64,192,109278,128,0,109360:0:0:0:0:
192,192,109360,128,0,109442:0:0:0:0:
320,192,109360,128,0,109442:0:0:0:0:
448,192,109360,128,0,109442:0:0:0:0:
64,192,109524,128,0,109770:0:0:0:0:
192,192,109524,128,0,109770:0:0:0:0:
448,192,109524,128,0,109770:0:0:0:0:
320,192,109770,128,0,109852:0:0:0:0:
64,192,109852,128,0,110180:0:0:0:0:
192,192,109852,128,0,110180:0:0:0:0:
448,192,109852,128,0,110180:0:0:0:0:
320,192,110180,128,0,110262:0:0:0:0:
192,192,110262,128,0,110344:0:0:0:0:
64,192,110344,1,0,0:0:0:0:
320,192,110344,1,0,0:0:0:0:
448,192,110344,1,0,0:0:0:0:
192,192,110508,1,0,0:0:0:0:
320,192,110508,1,0,0:0:0:0:
64,192,110508,1,0,0:0:0:0:
64,192,110672,1,0,0:0:0:0:
448,192,110672,1,0,0:0:0:0:
192,192,110672,1,0,0:0:0:0:
64,192,110835,1,0,0:0:0:0:
320,192,110835,1,0,0:0:0:0:
448,192,110835,1,0,0:0:0:0:
64,192,110999,128,0,111081:0:0:0:0:
320,192,110999,128,0,111081:0:0:0:0:
448,192,110999,128,0,111081:0:0:0:0:
192,192,111081,128,0,111163:0:0:0:0:
320,192,111163,128,0,111245:0:0:0:0:
64,192,111163,128,0,111245:0:0:0:0:
448,192,111163,128,0,111245:0:0:0:0:
192,192,111245,128,0,111327:0:0:0:0:
320,192,111327,128,0,111409:0:0:0:0:
448,192,111409,128,0,111491:0:0:0:0:
64,192,111491,128,0,111573:0:0:0:0:
192,192,111491,128,0,111573:0:0:0:0:
320,192,111491,128,0,111573:0:0:0:0:
448,192,111573,128,0,111655:0:0:0:0:
64,192,111655,128,0,111737:0:0:0:0:
192,192,111655,128,0,111737:0:0:0:0:
320,192,111655,128,0,111737:0:0:0:0:
448,192,111737,128,0,111819:0:0:0:0:
320,192,111819,128,0,111901:0:0:0:0:
192,192,111901,128,0,111983:0:0:0:0:
448,192,111983,128,0,112065:0:0:0:0:
320,192,111983,128,0,112065:0:0:0:0:
64,192,111983,128,0,112065:0:0:0:0:
192,192,112065,128,0,112147:0:0:0:0:
64,192,112147,128,0,112229:0:0:0:0:
320,192,112147,128,0,112229:0:0:0:0:
448,192,112147,128,0,112229:0:0:0:0:
192,192,112229,128,0,112311:0:0:0:0:
320,192,112311,128,0,112393:0:0:0:0:
448,192,112393,128,0,112475:0:0:0:0:
64,192,112475,128,0,112557:0:0:0:0:
192,192,112475,128,0,112557:0:0:0:0:
320,192,112475,128,0,112557:0:0:0:0:
448,192,112557,128,0,112639:0:0:0:0:
64,192,112639,128,0,112721:0:0:0:0:
192,192,112639,128,0,112721:0:0:0:0:
320,192,112639,128,0,112721:0:0:0:0:
448,192,112967,128,0,113049:0:0:0:0:
64,192,112967,128,0,113131:0:0:0:0:
320,192,112967,128,0,113049:0:0:0:0:
320,192,113131,128,0,113295:0:0:0:0:
192,192,113131,128,0,113213:0:0:0:0:
448,192,113131,128,0,113213:0:0:0:0:
64,192,113295,128,0,113458:0:0:0:0:
192,192,113295,128,0,113376:0:0:0:0:
448,192,113295,128,0,113376:0:0:0:0:
320,192,113458,128,0,113622:0:0:0:0:
192,192,113458,128,0,113540:0:0:0:0:
448,192,113458,128,0,113540:0:0:0:0:
64,192,113622,128,0,113704:0:0:0:0:
192,192,113622,128,0,113704:0:0:0:0:
448,192,113622,128,0,113704:0:0:0:0:
320,192,113704,128,0,113786:0:0:0:0:
64,192,113786,128,0,113868:0:0:0:0:
192,192,113786,128,0,113868:0:0:0:0:
448,192,113786,128,0,113868:0:0:0:0:
320,192,113868,128,0,113950:0:0:0:0:
192,192,113950,128,0,114032:0:0:0:0:
64,192,114032,128,0,114114:0:0:0:0:
192,192,114114,128,0,114196:0:0:0:0:
320,192,114114,128,0,114196:0:0:0:0:
448,192,114114,128,0,114196:0:0:0:0:
64,192,114196,128,0,114278:0:0:0:0:
192,192,114278,128,0,114360:0:0:0:0:
320,192,114278,128,0,114360:0:0:0:0:
448,192,114278,128,0,114360:0:0:0:0:
64,192,114360,128,0,114442:0:0:0:0:
192,192,114442,128,0,114524:0:0:0:0:
320,192,114524,128,0,114606:0:0:0:0:
448,192,114606,128,0,114688:0:0:0:0:
192,192,114606,128,0,114688:0:0:0:0:
64,192,114606,128,0,114688:0:0:0:0:
320,192,114688,128,0,114770:0:0:0:0:
192,192,114770,128,0,114852:0:0:0:0:
64,192,114770,128,0,114852:0:0:0:0:
448,192,114770,128,0,114852:0:0:0:0:
320,192,114852,128,0,114934:0:0:0:0:
192,192,114934,128,0,115016:0:0:0:0:
64,192,115016,128,0,115098:0:0:0:0:
192,192,115098,128,0,115180:0:0:0:0:
320,192,115098,128,0,115180:0:0:0:0:
448,192,115098,128,0,115180:0:0:0:0:
64,192,115180,128,0,115262:0:0:0:0:
192,192,115262,128,0,115344:0:0:0:0:
320,192,115262,128,0,115344:0:0:0:0:
448,192,115262,128,0,115344:0:0:0:0:
448,192,115590,128,0,115754:0:0:0:0:
64,192,115590,128,0,115672:0:0:0:0:
192,192,115590,128,0,115672:0:0:0:0:
192,192,115754,128,0,115917:0:0:0:0:
64,192,115754,128,0,115835:0:0:0:0:
320,192,115754,128,0,115835:0:0:0:0:
448,192,115917,128,0,116081:0:0:0:0:
64,192,115917,128,0,115999:0:0:0:0:
320,192,115917,128,0,115999:0:0:0:0:
192,192,116081,128,0,116245:0:0:0:0:
64,192,116081,128,0,116163:0:0:0:0:
320,192,116081,128,0,116163:0:0:0:0:
320,192,116245,128,0,116327:0:0:0:0:
64,192,116245,128,0,116327:0:0:0:0:
448,192,116245,128,0,116409:0:0:0:0:
192,192,116327,128,0,116409:0:0:0:0:
64,192,116409,128,0,116491:0:0:0:0:
320,192,116409,128,0,116491:0:0:0:0:
192,192,116491,128,0,116573:0:0:0:0:
320,192,116573,128,0,116655:0:0:0:0:
448,192,116655,128,0,116737:0:0:0:0:
320,192,116737,128,0,116819:0:0:0:0:
192,192,116737,128,0,116819:0:0:0:0:
64,192,116737,128,0,116901:0:0:0:0:
448,192,116819,128,0,116901:0:0:0:0:
320,192,116901,128,0,116983:0:0:0:0:
192,192,116901,128,0,116983:0:0:0:0:
448,192,116983,128,0,117065:0:0:0:0:
320,192,117065,128,0,117147:0:0:0:0:
192,192,117147,128,0,117229:0:0:0:0:
64,192,117229,128,0,117311:0:0:0:0:
320,192,117229,128,0,117311:0:0:0:0:
448,192,117229,128,0,117393:0:0:0:0:
192,192,117311,128,0,117393:0:0:0:0:
64,192,117393,128,0,117475:0:0:0:0:
320,192,117393,128,0,117475:0:0:0:0:
192,192,117475,128,0,117557:0:0:0:0:
320,192,117557,128,0,117639:0:0:0:0:
448,192,117639,128,0,117721:0:0:0:0:
64,192,117721,128,0,117885:0:0:0:0:
192,192,117721,128,0,117803:0:0:0:0:
320,192,117721,128,0,117803:0:0:0:0:
448,192,117803,128,0,117885:0:0:0:0:
192,192,117885,128,0,117967:0:0:0:0:
320,192,117885,128,0,117967:0:0:0:0:
64,192,117967,128,0,118049:0:0:0:0:
448,192,118049,128,0,118131:0:0:0:0:
320,192,118213,128,0,118376:0:0:0:0:
448,192,118213,128,0,118295:0:0:0:0:
64,192,118213,128,0,118458:0:0:0:0:
192,192,118213,128,0,118458:0:0:0:0:
64,192,118540,128,0,118622:0:0:0:0:
448,192,118540,128,0,118786:0:0:0:0:
192,192,118540,128,0,118704:0:0:0:0:
320,192,118540,128,0,118786:0:0:0:0:
64,192,118868,128,0,119032:0:0:0:0:
320,192,118868,128,0,118950:0:0:0:0:
448,192,118868,128,0,118950:0:0:0:0:
192,192,118950,128,0,119032:0:0:0:0:
320,192,119032,128,0,119114:0:0:0:0:
448,192,119032,128,0,119114:0:0:0:0:
192,192,119114,128,0,119196:0:0:0:0:
64,192,119196,128,0,119278:0:0:0:0:
448,192,119278,128,0,119360:0:0:0:0:
320,192,119360,128,0,119524:0:0:0:0:
192,192,119360,128,0,119442:0:0:0:0:
64,192,119360,128,0,119442:0:0:0:0:
448,192,119442,128,0,119524:0:0:0:0:
64,192,119524,128,0,119606:0:0:0:0:
192,192,119524,128,0,119606:0:0:0:0:
320,192,119606,128,0,119688:0:0:0:0:
448,192,119688,128,0,119770:0:0:0:0:
64,192,119770,128,0,119852:0:0:0:0:
192,192,119852,128,0,120016:0:0:0:0:
320,192,119852,128,0,119934:0:0:0:0:
448,192,119852,128,0,119934:0:0:0:0:
64,192,119934,128,0,120016:0:0:0:0:
320,192,120016,128,0,120098:0:0:0:0:
448,192,120016,128,0,120098:0:0:0:0:
192,192,120098,128,0,120180:0:0:0:0:
64,192,120180,128,0,120262:0:0:0:0:
320,192,120262,128,0,120344:0:0:0:0:
448,192,120344,128,0,120508:0:0:0:0:
192,192,120344,128,0,120426:0:0:0:0:
64,192,120344,128,0,120426:0:0:0:0:
320,192,120426,128,0,120508:0:0:0:0:
64,192,120508,128,0,120590:0:0:0:0:
192,192,120508,128,0,120590:0:0:0:0:
320,192,120590,128,0,120672:0:0:0:0:
448,192,120672,128,0,120754:0:0:0:0:
192,192,120754,128,0,120835:0:0:0:0:
320,192,120835,128,0,120917:0:0:0:0:
64,192,120835,128,0,120917:0:0:0:0:
192,192,120917,128,0,120999:0:0:0:0:
448,192,120917,128,0,120999:0:0:0:0:
320,192,120999,128,0,121081:0:0:0:0:
448,192,121081,128,0,121163:0:0:0:0:
64,192,121163,128,0,121245:0:0:0:0:
192,192,121163,128,0,121327:0:0:0:0:
320,192,121163,128,0,121409:0:0:0:0:
448,192,121245,128,0,121409:0:0:0:0:
64,192,121327,128,0,121491:0:0:0:0:
192,192,121409,128,0,121491:0:0:0:0:
448,192,121491,128,0,122803:0:0:0:0:
320,192,121491,128,0,121573:0:0:0:0:
64,192,121573,128,0,121655:0:0:0:0:
192,192,121655,128,0,121819:0:0:0:0:
320,192,121655,128,0,121737:0:0:0:0:
320,192,121819,128,0,121983:0:0:0:0:
64,192,121819,128,0,121901:0:0:0:0:
192,192,121901,128,0,121983:0:0:0:0:
64,192,121983,128,0,122147:0:0:0:0:
320,192,122065,128,0,122147:0:0:0:0:
192,192,122147,128,0,122311:0:0:0:0:
64,192,122229,128,0,122311:0:0:0:0:
320,192,122311,128,0,122475:0:0:0:0:
192,192,122393,128,0,122475:0:0:0:0:
64,192,122475,128,0,122639:0:0:0:0:
320,192,122557,128,0,122639:0:0:0:0:
192,192,122639,128,0,122803:0:0:0:0:
64,192,122803,128,0,122885:0:0:0:0:
320,192,122803,128,0,122885:0:0:0:0:
448,192,122885,128,0,122967:0:0:0:0:
192,192,122967,128,0,123049:0:0:0:0:
320,192,122967,128,0,123049:0:0:0:0:
64,192,123049,1,0,0:0:0:0:
320,192,123131,1,0,0:0:0:0:
448,192,123131,1,0,0:0:0:0:
192,192,123213,1,0,0:0:0:0:
64,192,123295,128,0,123376:0:0:0:0:
320,192,123295,128,0,123376:0:0:0:0:
192,192,123376,128,0,123458:0:0:0:0:
448,192,123458,128,0,123540:0:0:0:0:
64,192,123458,128,0,123540:0:0:0:0:
320,192,123540,1,0,0:0:0:0:
192,192,123622,1,0,0:0:0:0:
448,192,123622,1,0,0:0:0:0:
64,192,123704,1,0,0:0:0:0:
320,192,123786,128,0,123868:0:0:0:0:
448,192,123786,128,0,123868:0:0:0:0:
192,192,123868,128,0,123950:0:0:0:0:
64,192,123950,128,0,124032:0:0:0:0:
320,192,123950,128,0,124032:0:0:0:0:
448,192,124032,1,0,0:0:0:0:
64,192,124114,128,0,124196:0:0:0:0:
192,192,124114,128,0,124278:0:0:0:0:
448,192,124196,128,0,124278:0:0:0:0:
320,192,124196,128,0,124360:0:0:0:0:
64,192,124278,128,0,124442:0:0:0:0:
192,192,124360,128,0,124442:0:0:0:0:
448,192,124360,128,0,124524:0:0:0:0:
320,192,124442,128,0,124524:0:0:0:0:
192,192,124524,128,0,124688:0:0:0:0:
64,192,124524,128,0,124606:0:0:0:0:
320,192,124606,128,0,124770:0:0:0:0:
448,192,124606,128,0,124688:0:0:0:0:
64,192,124688,128,0,124852:0:0:0:0:
192,192,124770,128,0,124852:0:0:0:0:
448,192,124770,128,0,124934:0:0:0:0:
320,192,124852,128,0,124934:0:0:0:0:
64,192,124934,128,0,125016:0:0:0:0:
192,192,124934,128,0,125098:0:0:0:0:
320,192,125016,128,0,125180:0:0:0:0:
448,192,125016,128,0,125098:0:0:0:0:
64,192,125098,128,0,125262:0:0:0:0:
192,192,125180,128,0,125262:0:0:0:0:
448,192,125180,128,0,125344:0:0:0:0:
320,192,125262,128,0,125344:0:0:0:0:
64,192,125344,128,0,125426:0:0:0:0:
192,192,125344,128,0,125426:0:0:0:0:
320,192,125426,128,0,125754:0:0:0:0:
448,192,125426,1,0,0:0:0:0:
192,192,125508,1,0,0:0:0:0:
64,192,125590,1,0,0:0:0:0:
192,192,125672,1,0,0:0:0:0:
64,192,125754,128,0,126081:0:0:0:0:
448,192,125754,1,0,0:0:0:0:
320,192,125835,1,0,0:0:0:0:
192,192,125917,1,0,0:0:0:0:
320,192,125999,1,0,0:0:0:0:
448,192,126081,128,0,126409:0:0:0:0:
192,192,126081,1,0,0:0:0:0:
64,192,126163,1,0,0:0:0:0:
192,192,126245,1,0,0:0:0:0:
320,192,126327,1,0,0:0:0:0:
64,192,126409,1,0,0:0:0:0:
192,192,126409,1,0,0:0:0:0:
320,192,126573,128,0,128376:0:0:0:0:
64,192,126573,1,0,0:0:0:0:
448,192,126573,1,0,0:0:0:0:
192,192,126573,1,0,0:0:0:0:
64,192,126901,1,0,0:0:0:0:
192,192,126901,1,0,0:0:0:0:
448,192,126901,1,0,0:0:0:0:
64,192,127065,1,0,0:0:0:0:
192,192,127065,1,0,0:0:0:0:
448,192,127065,1,0,0:0:0:0:
64,192,127229,1,0,0:0:0:0:
192,192,127229,1,0,0:0:0:0:
448,192,127229,1,0,0:0:0:0:
64,192,127393,1,0,0:0:0:0:
192,192,127393,1,0,0:0:0:0:
448,192,127393,1,0,0:0:0:0:
64,192,127557,1,0,0:0:0:0:
192,192,127557,1,0,0:0:0:0:
448,192,127557,1,0,0:0:0:0:
64,192,127721,128,0,127803:0:0:0:0:
192,192,127721,128,0,127803:0:0:0:0:
448,192,127721,128,0,127803:0:0:0:0:
64,192,127885,128,0,127967:0:0:0:0:
192,192,127885,128,0,127967:0:0:0:0:
448,192,127885,128,0,127967:0:0:0:0:
64,192,128049,128,0,128131:0:0:0:0:
192,192,128049,128,0,128131:0:0:0:0:
448,192,128049,128,0,128131:0:0:0:0:
64,192,128213,128,0,128295:0:0:0:0:
192,192,128213,128,0,128295:0:0:0:0:
448,192,128213,128,0,128295:0:0:0:0:
64,192,128376,128,0,128458:0:0:0:0:
192,192,128376,128,0,128458:0:0:0:0:
448,192,128376,128,0,128458:0:0:0:0:
320,192,128458,1,0,0:0:0:0:
192,192,128540,1,0,0:0:0:0:
64,192,128622,1,0,0:0:0:0:
192,192,128704,1,0,0:0:0:0:
320,192,128786,1,0,0:0:0:0:
64,192,128868,128,0,128950:0:0:0:0:
192,192,128868,128,0,128950:0:0:0:0:
448,192,128868,1,0,0:0:0:0:
320,192,128950,1,0,0:0:0:0:
64,192,129032,128,0,129114:0:0:0:0:
192,192,129032,128,0,129114:0:0:0:0:
448,192,129032,1,0,0:0:0:0:
320,192,129114,1,0,0:0:0:0:
64,192,129196,128,0,129360:0:0:0:0:
192,192,129196,128,0,129360:0:0:0:0:
448,192,129196,1,0,0:0:0:0:
320,192,130016,128,0,130590:0:0:0:0:
320,192,130672,128,0,131245:0:0:0:0:
320,192,131327,128,0,131409:0:0:0:0:
448,192,131327,128,0,131409:0:0:0:0:
64,192,131409,128,0,131491:0:0:0:0:
192,192,131409,128,0,131491:0:0:0:0:
320,192,131491,128,0,131573:0:0:0:0:
448,192,131491,128,0,131573:0:0:0:0:
64,192,131573,128,0,131655:0:0:0:0:
192,192,131573,128,0,131655:0:0:0:0:
320,192,131655,128,0,131737:0:0:0:0:
448,192,131655,128,0,131764:0:0:0:0:
64,192,131737,128,0,131846:0:0:0:0:
192,192,131737,128,0,131819:0:0:0:0:
448,192,131819,128,0,131874:0:0:0:0:
320,192,131819,128,0,131928:0:0:0:0:
192,192,131901,128,0,131983:0:0:0:0:
64,192,131901,128,0,131983:0:0:0:0:
320,192,131983,1,0,0:0:0:0:
448,192,131983,1,0,0:0:0:0:
192,192,132065,1,0,0:0:0:0:
64,192,132147,1,0,0:0:0:0:
448,192,132147,1,0,0:0:0:0:
320,192,132229,1,0,0:0:0:0:
448,192,132311,128,0,132393:0:0:0:0:
192,192,132311,128,0,132393:0:0:0:0:
64,192,132311,128,0,132475:0:0:0:0:
320,192,132393,1,0,0:0:0:0:
192,192,132475,1,0,0:0:0:0:
64,192,132557,1,0,0:0:0:0:
320,192,132639,128,0,132721:0:0:0:0:
448,192,132639,128,0,132803:0:0:0:0:
192,192,132721,128,0,132803:0:0:0:0:
320,192,132803,128,0,132885:0:0:0:0:
448,192,132885,128,0,132967:0:0:0:0:
320,192,132967,128,0,133131:0:0:0:0:
192,192,132967,128,0,133049:0:0:0:0:
64,192,132967,128,0,133049:0:0:0:0:
448,192,133049,1,0,0:0:0:0:
64,192,133131,128,0,133295:0:0:0:0:
192,192,133131,128,0,133295:0:0:0:0:
448,192,133213,1,0,0:0:0:0:
320,192,133295,128,0,133458:0:0:0:0:
448,192,133376,128,0,133458:0:0:0:0:
64,192,133376,1,0,0:0:0:0:
192,192,133458,128,0,133622:0:0:0:0:
64,192,133540,128,0,133622:0:0:0:0:
320,192,133540,1,0,0:0:0:0:
448,192,133622,128,0,133786:0:0:0:0:
320,192,133704,128,0,133786:0:0:0:0:
192,192,133704,1,0,0:0:0:0:
64,192,133786,128,0,133950:0:0:0:0:
192,192,133868,128,0,133950:0:0:0:0:
448,192,133868,1,0,0:0:0:0:
320,192,133950,128,0,134114:0:0:0:0:
448,192,134032,128,0,134114:0:0:0:0:
64,192,134032,1,0,0:0:0:0:
192,192,134114,128,0,134278:0:0:0:0:
64,192,134196,128,0,134278:0:0:0:0:
320,192,134196,1,0,0:0:0:0:
448,192,134278,128,0,134442:0:0:0:0:
320,192,134360,128,0,134442:0:0:0:0:
192,192,134360,1,0,0:0:0:0:
64,192,134442,128,0,134606:0:0:0:0:
192,192,134524,128,0,134606:0:0:0:0:
320,192,134524,1,0,0:0:0:0:
448,192,134606,128,0,134770:0:0:0:0:
320,192,134688,128,0,134770:0:0:0:0:
192,192,134688,1,0,0:0:0:0:
64,192,134770,1,0,0:0:0:0:
192,192,134852,1,0,0:0:0:0:
64,192,134934,1,0,0:0:0:0:
448,192,134934,1,0,0:0:0:0:
320,192,134934,1,0,0:0:0:0:
192,192,135016,1,0,0:0:0:0:
320,192,135098,1,0,0:0:0:0:
448,192,135180,1,0,0:0:0:0:
192,192,135262,1,0,0:0:0:0:
320,192,135262,1,0,0:0:0:0:
192,192,135344,1,0,0:0:0:0:
448,192,135426,1,0,0:0:0:0:
64,192,135426,1,0,0:0:0:0:
448,192,135508,1,0,0:0:0:0:
64,192,135590,1,0,0:0:0:0:
192,192,135590,1,0,0:0:0:0:
320,192,135590,1,0,0:0:0:0:
64,192,135672,1,0,0:0:0:0:
192,192,135754,1,0,0:0:0:0:
320,192,135835,1,0,0:0:0:0:
448,192,135917,1,0,0:0:0:0:
64,192,135917,1,0,0:0:0:0:
448,192,135999,1,0,0:0:0:0:
320,192,136081,1,0,0:0:0:0:
192,192,136163,1,0,0:0:0:0:
320,192,136245,128,0,136327:0:0:0:0:
448,192,136245,128,0,136409:0:0:0:0:
64,192,136245,1,0,0:0:0:0:
192,192,136327,1,0,0:0:0:0:
64,192,136409,128,0,136491:0:0:0:0:
320,192,136409,128,0,136491:0:0:0:0:
192,192,136491,128,0,136573:0:0:0:0:
320,192,136573,128,0,136655:0:0:0:0:
64,192,136573,128,0,136655:0:0:0:0:
192,192,136655,128,0,136737:0:0:0:0:
320,192,136737,128,0,136819:0:0:0:0:
64,192,136737,128,0,136819:0:0:0:0:
192,192,136819,128,0,136901:0:0:0:0:
64,192,136901,1,0,0:0:0:0:
448,192,136901,128,0,136983:0:0:0:0:
320,192,136983,128,0,137065:0:0:0:0:
192,192,137065,128,0,137147:0:0:0:0:
448,192,137065,128,0,137147:0:0:0:0:
64,192,137147,128,0,137229:0:0:0:0:
192,192,137229,128,0,137311:0:0:0:0:
448,192,137229,1,0,0:0:0:0:
320,192,137229,128,0,137393:0:0:0:0:
64,192,137311,1,0,0:0:0:0:
192,192,137393,1,0,0:0:0:0:
320,192,137475,1,0,0:0:0:0:
448,192,137557,1,0,0:0:0:0:
64,192,137557,128,0,137721:0:0:0:0:
192,192,137557,128,0,137639:0:0:0:0:
320,192,137639,1,0,0:0:0:0:
192,192,137721,1,0,0:0:0:0:
64,192,137803,1,0,0:0:0:0:
192,192,137885,1,0,0:0:0:0:
448,192,137885,128,0,137967:0:0:0:0:
320,192,137885,128,0,138049:0:0:0:0:
64,192,137967,1,0,0:0:0:0:
448,192,138049,1,0,0:0:0:0:
320,192,138131,1,0,0:0:0:0:
448,192,138213,1,0,0:0:0:0:
192,192,138213,128,0,138295:0:0:0:0:
64,192,138213,128,0,138376:0:0:0:0:
320,192,138295,1,0,0:0:0:0:
192,192,138376,1,0,0:0:0:0:
64,192,138458,1,0,0:0:0:0:
320,192,138540,128,0,138704:0:0:0:0:
448,192,138540,128,0,138622:0:0:0:0:
64,192,138622,128,0,138786:0:0:0:0:
192,192,138704,128,0,138786:0:0:0:0:
448,192,138704,128,0,138868:0:0:0:0:
320,192,138786,128,0,138868:0:0:0:0:
64,192,138868,128,0,138950:0:0:0:0:
192,192,138868,128,0,139032:0:0:0:0:
448,192,138950,128,0,139114:0:0:0:0:
320,192,139032,128,0,139114:0:0:0:0:
64,192,139032,128,0,139196:0:0:0:0:
192,192,139114,128,0,139196:0:0:0:0:
320,192,139196,1,0,0:0:0:0:
448,192,139196,1,0,0:0:0:0:
192,192,139278,1,0,0:0:0:0:
448,192,139360,1,0,0:0:0:0:
64,192,139360,1,0,0:0:0:0:
320,192,139442,1,0,0:0:0:0:
192,192,139524,1,0,0:0:0:0:
448,192,139524,1,0,0:0:0:0:
64,192,139688,1,0,0:0:0:0:
192,192,139688,1,0,0:0:0:0:
320,192,139688,1,0,0:0:0:0:
448,192,139688,1,0,0:0:0:0:
64,192,140016,1,0,0:0:0:0:
192,192,140016,1,0,0:0:0:0:
448,192,140016,1,0,0:0:0:0:
64,192,140180,1,0,0:0:0:0:
192,192,140180,1,0,0:0:0:0:
320,192,140180,1,0,0:0:0:0:
64,192,140344,1,0,0:0:0:0:
320,192,140344,1,0,0:0:0:0:
448,192,140344,1,0,0:0:0:0:
64,192,140508,1,0,0:0:0:0:
192,192,140508,1,0,0:0:0:0:
448,192,140508,1,0,0:0:0:0:
64,192,140672,1,0,0:0:0:0:
192,192,140672,1,0,0:0:0:0:
320,192,140672,1,0,0:0:0:0:
64,192,140835,1,0,0:0:0:0:
192,192,140835,1,0,0:0:0:0:
64,192,140999,1,0,0:0:0:0:
192,192,140999,1,0,0:0:0:0:
320,192,140999,1,0,0:0:0:0:
448,192,140999,1,0,0:0:0:0:
192,192,141327,128,0,141437:0:0:0:0:
64,192,141327,128,0,141409:0:0:0:0:
320,192,141409,128,0,141519:0:0:0:0:
448,192,141409,128,0,141491:0:0:0:0:
64,192,141491,128,0,141601:0:0:0:0:
192,192,141491,128,0,141573:0:0:0:0:
448,192,141573,128,0,141682:0:0:0:0:
320,192,141573,128,0,141655:0:0:0:0:
192,192,141655,128,0,141764:0:0:0:0:
64,192,141655,128,0,141737:0:0:0:0:
320,192,141737,128,0,141819:0:0:0:0:
448,192,141737,128,0,141819:0:0:0:0:
64,192,141819,1,0,0:0:0:0:
192,192,141860,1,0,0:0:0:0:
448,192,141901,1,0,0:0:0:0:
320,192,141942,1,0,0:0:0:0:
64,192,141983,1,0,0:0:0:0:
192,192,142024,1,0,0:0:0:0:
448,192,142065,1,0,0:0:0:0:
320,192,142106,1,0,0:0:0:0:
64,192,142147,1,0,0:0:0:0:
192,192,142188,1,0,0:0:0:0:
448,192,142229,1,0,0:0:0:0:
320,192,142270,1,0,0:0:0:0:
64,192,142311,128,0,143131:0:0:0:0:
192,192,142311,128,0,142393:0:0:0:0:
448,192,142393,128,0,142475:0:0:0:0:
320,192,142475,128,0,142557:0:0:0:0:
192,192,142557,128,0,142639:0:0:0:0:
448,192,142639,128,0,142721:0:0:0:0:
192,192,142721,128,0,142803:0:0:0:0:
320,192,142803,128,0,142885:0:0:0:0:
448,192,142885,128,0,142967:0:0:0:0:
192,192,142967,128,0,143049:0:0:0:0:
320,192,143049,128,0,143131:0:0:0:0:
448,192,143131,128,0,143213:0:0:0:0:
192,192,143131,1,0,0:0:0:0:
320,192,143213,128,0,143295:0:0:0:0:
192,192,143295,128,0,143376:0:0:0:0:
448,192,143295,1,0,0:0:0:0:
64,192,143376,128,0,143458:0:0:0:0:
320,192,143458,128,0,143786:0:0:0:0:
448,192,143458,128,0,143622:0:0:0:0:
192,192,143540,1,0,0:0:0:0:
64,192,143622,1,0,0:0:0:0:
448,192,143704,1,0,0:0:0:0:
64,192,143786,128,0,144114:0:0:0:0:
192,192,143786,128,0,143950:0:0:0:0:
320,192,143868,1,0,0:0:0:0:
448,192,143950,1,0,0:0:0:0:
192,192,144032,1,0,0:0:0:0:
320,192,144114,128,0,144278:0:0:0:0:
448,192,144114,128,0,144442:0:0:0:0:
192,192,144196,1,0,0:0:0:0:
64,192,144278,1,0,0:0:0:0:
320,192,144360,1,0,0:0:0:0:
192,192,144442,128,0,144770:0:0:0:0:
64,192,144442,128,0,144606:0:0:0:0:
448,192,144524,1,0,0:0:0:0:
320,192,144606,1,0,0:0:0:0:
64,192,144688,1,0,0:0:0:0:
320,192,144770,128,0,145098:0:0:0:0:
448,192,144770,128,0,144934:0:0:0:0:
192,192,144852,1,0,0:0:0:0:
64,192,144934,1,0,0:0:0:0:
448,192,145016,1,0,0:0:0:0:
64,192,145098,128,0,145180:0:0:0:0:
192,192,145098,128,0,145180:0:0:0:0:
320,192,145180,128,0,145262:0:0:0:0:
448,192,145262,128,0,145344:0:0:0:0:
192,192,145262,128,0,145344:0:0:0:0:
64,192,145344,128,0,145426:0:0:0:0:
320,192,145426,128,0,145508:0:0:0:0:
448,192,145426,128,0,145508:0:0:0:0:
192,192,145426,128,0,145508:0:0:0:0:
64,192,145508,128,0,145590:0:0:0:0:
192,192,145590,128,0,145672:0:0:0:0:
448,192,145590,128,0,145672:0:0:0:0:
320,192,145672,128,0,145754:0:0:0:0:
64,192,145754,128,0,145835:0:0:0:0:
192,192,145754,128,0,145835:0:0:0:0:
448,192,145754,128,0,145835:0:0:0:0:
320,192,145835,128,0,145917:0:0:0:0:
64,192,145917,128,0,145999:0:0:0:0:
192,192,145917,128,0,145999:0:0:0:0:
448,192,145999,128,0,146081:0:0:0:0:
64,192,146081,128,0,146163:0:0:0:0:
320,192,146081,128,0,146163:0:0:0:0:
192,192,146081,128,0,146245:0:0:0:0:
448,192,146163,1,0,0:0:0:0:
320,192,146245,1,0,0:0:0:0:
192,192,146327,1,0,0:0:0:0:
320,192,146409,128,0,146573:0:0:0:0:
448,192,146409,128,0,146491:0:0:0:0:
64,192,146491,1,0,0:0:0:0:
192,192,146573,1,0,0:0:0:0:
320,192,146655,1,0,0:0:0:0:
64,192,146737,128,0,146819:0:0:0:0:
192,192,146737,128,0,146819:0:0:0:0:
448,192,146819,1,0,0:0:0:0:
64,192,146901,128,0,147065:0:0:0:0:
192,192,146901,128,0,146983:0:0:0:0:
320,192,146983,1,0,0:0:0:0:
192,192,147065,1,0,0:0:0:0:
448,192,147065,1,0,0:0:0:0:
64,192,147147,1,0,0:0:0:0:
192,192,147229,1,0,0:0:0:0:
320,192,147229,1,0,0:0:0:0:
448,192,147311,1,0,0:0:0:0:
64,192,147393,128,0,147557:0:0:0:0:
192,192,147393,128,0,147475:0:0:0:0:
320,192,147475,128,0,147557:0:0:0:0:
448,192,147557,128,0,147721:0:0:0:0:
192,192,147557,128,0,147639:0:0:0:0:
320,192,147721,128,0,147803:0:0:0:0:
192,192,147721,1,0,0:0:0:0:
64,192,147721,128,0,148540:0:0:0:0:
320,192,147885,1,0,0:0:0:0:
448,192,147885,1,0,0:0:0:0:
192,192,147885,128,0,147967:0:0:0:0:
192,192,148049,1,0,0:0:0:0:
448,192,148049,128,0,148131:0:0:0:0:
320,192,148049,1,0,0:0:0:0:
448,192,148213,1,0,0:0:0:0:
192,192,148213,128,0,148295:0:0:0:0:
320,192,148213,1,0,0:0:0:0:
320,192,148376,1,0,0:0:0:0:
192,192,148376,1,0,0:0:0:0:
448,192,148376,128,0,148458:0:0:0:0:
192,192,148540,128,0,148622:0:0:0:0:
320,192,148540,1,0,0:0:0:0:
448,192,148540,1,0,0:0:0:0:
448,192,148704,1,0,0:0:0:0:
64,192,148704,1,0,0:0:0:0:
320,192,148704,128,0,148786:0:0:0:0:
64,192,148868,128,0,149032:0:0:0:0:
192,192,148868,128,0,148950:0:0:0:0:
448,192,148868,1,0,0:0:0:0:
320,192,148950,1,0,0:0:0:0:
192,192,149032,1,0,0:0:0:0:
64,192,149114,1,0,0:0:0:0:
448,192,149196,128,0,149278:0:0:0:0:
320,192,149196,128,0,149278:0:0:0:0:
192,192,149196,1,0,0:0:0:0:
192,192,149360,128,0,149442:0:0:0:0:
320,192,149360,128,0,149442:0:0:0:0:
448,192,149360,1,0,0:0:0:0:
448,192,149524,128,0,149606:0:0:0:0:
192,192,149524,128,0,149606:0:0:0:0:
320,192,149524,1,0,0:0:0:0:
64,192,149606,128,0,149852:0:0:0:0:
192,192,149688,128,0,149934:0:0:0:0:
320,192,149770,128,0,150016:0:0:0:0:
448,192,149852,128,0,150098:0:0:0:0:
64,192,149934,128,0,150016:0:0:0:0:
192,192,150016,128,0,150098:0:0:0:0:
320,192,150098,128,0,150180:0:0:0:0:
448,192,150180,128,0,150262:0:0:0:0:
192,192,150180,128,0,150262:0:0:0:0:
448,192,150344,128,0,150590:0:0:0:0:
320,192,150344,128,0,150508:0:0:0:0:
192,192,150344,128,0,150426:0:0:0:0:
64,192,150426,1,0,0:0:0:0:
192,192,150508,1,0,0:0:0:0:
320,192,150590,1,0,0:0:0:0:
64,192,150672,1,0,0:0:0:0:
192,192,150672,1,0,0:0:0:0:
448,192,150672,128,0,150754:0:0:0:0:
64,192,150835,1,0,0:0:0:0:
192,192,150835,1,0,0:0:0:0:
448,192,150835,128,0,150917:0:0:0:0:
320,192,150917,1,0,0:0:0:0:
192,192,150999,1,0,0:0:0:0:
64,192,151081,1,0,0:0:0:0:
320,192,151163,1,0,0:0:0:0:
448,192,151163,1,0,0:0:0:0:
192,192,151245,1,0,0:0:0:0:
320,192,151327,1,0,0:0:0:0:
448,192,151327,1,0,0:0:0:0:
64,192,151409,1,0,0:0:0:0:
64,192,151491,128,0,151601:0:0:0:0:
192,192,151491,128,0,151655:0:0:0:0:
320,192,151491,128,0,151710:0:0:0:0:
448,192,151491,128,0,151764:0:0:0:0:
448,192,151819,128,0,151928:0:0:0:0:
320,192,151819,128,0,151983:0:0:0:0:
192,192,151819,128,0,152038:0:0:0:0:
64,192,151819,128,0,152092:0:0:0:0:
64,192,152147,128,0,152256:0:0:0:0:
192,192,152147,128,0,152311:0:0:0:0:
320,192,152147,128,0,152366:0:0:0:0:
448,192,152147,128,0,152420:0:0:0:0:
64,192,152475,128,0,152748:0:0:0:0:
192,192,152475,128,0,152693:0:0:0:0:
320,192,152475,128,0,152639:0:0:0:0:
448,192,152475,128,0,152584:0:0:0:0:
448,192,152803,128,0,153458:0:0:0:0:
192,192,152803,128,0,152885:0:0:0:0:
320,192,152803,1,0,0:0:0:0:
64,192,152885,128,0,152967:0:0:0:0:
320,192,152967,128,0,153049:0:0:0:0:
192,192,153049,128,0,153131:0:0:0:0:
64,192,153131,128,0,153213:0:0:0:0:
192,192,153213,128,0,153295:0:0:0:0:
320,192,153295,128,0,153376:0:0:0:0:
64,192,153376,128,0,153458:0:0:0:0:
192,192,153458,128,0,153540:0:0:0:0:
320,192,153458,128,0,153540:0:0:0:0:
448,192,153540,128,0,153622:0:0:0:0:
64,192,153622,128,0,153786:0:0:0:0:
192,192,153622,128,0,153704:0:0:0:0:
320,192,153704,128,0,153868:0:0:0:0:
448,192,153786,128,0,153868:0:0:0:0:
192,192,153786,128,0,153950:0:0:0:0:
64,192,153868,128,0,153950:0:0:0:0:
448,192,153950,128,0,154114:0:0:0:0:
320,192,153950,128,0,154032:0:0:0:0:
192,192,154032,128,0,154114:0:0:0:0:
320,192,154114,128,0,154196:0:0:0:0:
64,192,154114,128,0,154442:0:0:0:0:
448,192,154196,1,0,0:0:0:0:
192,192,154278,128,0,154360:0:0:0:0:
320,192,154360,1,0,0:0:0:0:
448,192,154442,128,0,154770:0:0:0:0:
192,192,154442,128,0,154524:0:0:0:0:
64,192,154524,1,0,0:0:0:0:
192,192,154606,128,0,154688:0:0:0:0:
320,192,154688,1,0,0:0:0:0:
192,192,154770,128,0,155098:0:0:0:0:
64,192,154770,128,0,154852:0:0:0:0:
448,192,154852,1,0,0:0:0:0:
320,192,154934,128,0,155016:0:0:0:0:
64,192,155016,1,0,0:0:0:0:
448,192,155098,128,0,155426:0:0:0:0:
320,192,155098,128,0,155180:0:0:0:0:
192,192,155180,1,0,0:0:0:0:
64,192,155262,128,0,155344:0:0:0:0:
320,192,155344,1,0,0:0:0:0:
64,192,155426,128,0,155508:0:0:0:0:
192,192,155426,128,0,155508:0:0:0:0:
64,192,155590,128,0,155672:0:0:0:0:
192,192,155590,128,0,155672:0:0:0:0:
320,192,155590,1,0,0:0:0:0:
448,192,155590,1,0,0:0:0:0:
320,192,155754,128,0,155835:0:0:0:0:
448,192,155754,128,0,155835:0:0:0:0:
320,192,155917,128,0,155999:0:0:0:0:
448,192,155917,128,0,155999:0:0:0:0:
192,192,155917,1,0,0:0:0:0:
64,192,155917,1,0,0:0:0:0:
192,192,156081,128,0,156163:0:0:0:0:
64,192,156081,128,0,156163:0:0:0:0:
320,192,156245,1,0,0:0:0:0:
448,192,156245,1,0,0:0:0:0:
64,192,156245,128,0,156327:0:0:0:0:
192,192,156245,128,0,156327:0:0:0:0:
320,192,156409,1,0,0:0:0:0:
448,192,156409,1,0,0:0:0:0:
192,192,156573,1,0,0:0:0:0:
320,192,156573,1,0,0:0:0:0:
64,192,156737,128,0,157475:0:0:0:0:
448,192,156737,128,0,157475:0:0:0:0:
192,192,156737,128,0,156819:0:0:0:0:
320,192,156819,128,0,156901:0:0:0:0:
192,192,156901,128,0,156983:0:0:0:0:
320,192,156983,128,0,157065:0:0:0:0:
192,192,157065,128,0,157147:0:0:0:0:
320,192,157147,128,0,157229:0:0:0:0:
192,192,157229,128,0,157311:0:0:0:0:
320,192,157311,128,0,157393:0:0:0:0:
192,192,157393,128,0,157475:0:0:0:0:
64,192,157557,1,0,0:0:0:0:
192,192,157557,1,0,0:0:0:0:
320,192,157557,1,0,0:0:0:0:
448,192,157557,1,0,0:0:0:0:
64,192,157721,1,0,0:0:0:0:
192,192,157721,1,0,0:0:0:0:
320,192,157721,1,0,0:0:0:0:
448,192,157721,1,0,0:0:0:0:
192,192,158049,128,0,158213:0:0:0:0:
448,192,158213,128,0,160508:0:0:0:0:
320,192,158213,128,0,158295:0:0:0:0:
192,192,158295,128,0,158376:0:0:0:0:
64,192,158376,128,0,158458:0:0:0:0:
192,192,158458,128,0,158540:0:0:0:0:
320,192,158540,128,0,158622:0:0:0:0:
64,192,158622,128,0,158704:0:0:0:0:
320,192,158704,128,0,158786:0:0:0:0:
64,192,158786,128,0,158868:0:0:0:0:
320,192,158868,128,0,158950:0:0:0:0:
64,192,158950,128,0,159032:0:0:0:0:
192,192,159032,128,0,159114:0:0:0:0:
320,192,159114,128,0,159196:0:0:0:0:
64,192,159196,128,0,159278:0:0:0:0:
320,192,159278,128,0,159360:0:0:0:0:
64,192,159360,128,0,159442:0:0:0:0:
320,192,159442,128,0,159524:0:0:0:0:
64,192,159524,128,0,159606:0:0:0:0:
192,192,159606,128,0,159688:0:0:0:0:
320,192,159688,128,0,159770:0:0:0:0:
192,192,159770,128,0,159852:0:0:0:0:
64,192,159852,128,0,159934:0:0:0:0:
320,192,159934,128,0,160016:0:0:0:0:
64,192,160016,128,0,160098:0:0:0:0:
320,192,160098,128,0,160180:0:0:0:0:
64,192,160180,128,0,160262:0:0:0:0:
320,192,160262,128,0,160344:0:0:0:0:
192,192,160344,128,0,160426:0:0:0:0:
64,192,160426,128,0,160508:0:0:0:0:
320,192,160508,128,0,160672:0:0:0:0:
192,192,160508,128,0,160590:0:0:0:0:
448,192,160672,128,0,160835:0:0:0:0:
64,192,160672,128,0,160754:0:0:0:0:
192,192,160835,128,0,162803:0:0:0:0:
64,192,160835,128,0,160917:0:0:0:0:
320,192,160917,128,0,160999:0:0:0:0:
448,192,160999,128,0,161081:0:0:0:0:
320,192,161081,128,0,161163:0:0:0:0:
64,192,161163,128,0,161245:0:0:0:0:
448,192,161245,128,0,161327:0:0:0:0:
64,192,161327,128,0,161409:0:0:0:0:
448,192,161409,128,0,161491:0:0:0:0:
64,192,161491,128,0,161573:0:0:0:0:
448,192,161573,128,0,161655:0:0:0:0:
320,192,161655,128,0,161737:0:0:0:0:
64,192,161737,128,0,161819:0:0:0:0:
448,192,161819,128,0,161901:0:0:0:0:
64,192,161901,128,0,161983:0:0:0:0:
448,192,161983,128,0,162065:0:0:0:0:
64,192,162065,128,0,162147:0:0:0:0:
448,192,162147,128,0,162229:0:0:0:0:
320,192,162229,128,0,162311:0:0:0:0:
64,192,162311,128,0,162393:0:0:0:0:
320,192,162393,128,0,162475:0:0:0:0:
448,192,162475,128,0,162557:0:0:0:0:
64,192,162557,128,0,162639:0:0:0:0:
448,192,162639,128,0,162721:0:0:0:0:
64,192,162721,128,0,162803:0:0:0:0:
320,192,162803,128,0,162967:0:0:0:0:
448,192,162803,128,0,162885:0:0:0:0:
192,192,162967,128,0,163131:0:0:0:0:
64,192,162967,128,0,163049:0:0:0:0:
320,192,163131,1,0,0:0:0:0:
448,192,163131,1,0,0:0:0:0:
448,192,163295,128,0,165754:0:0:0:0:
64,192,163295,128,0,163376:0:0:0:0:
192,192,163376,128,0,163458:0:0:0:0:
320,192,163458,128,0,163540:0:0:0:0:
192,192,163540,128,0,163622:0:0:0:0:
64,192,163622,128,0,163704:0:0:0:0:
320,192,163704,128,0,163786:0:0:0:0:
64,192,163786,128,0,163868:0:0:0:0:
192,192,163868,128,0,163950:0:0:0:0:
64,192,163950,128,0,164032:0:0:0:0:
192,192,164032,128,0,164114:0:0:0:0:
320,192,164114,128,0,164196:0:0:0:0:
192,192,164196,128,0,164278:0:0:0:0:
320,192,164278,128,0,164360:0:0:0:0:
192,192,164360,128,0,164442:0:0:0:0:
64,192,164442,128,0,164524:0:0:0:0:
192,192,164524,128,0,164606:0:0:0:0:
64,192,164606,128,0,164688:0:0:0:0:
192,192,164688,128,0,164770:0:0:0:0:
320,192,164770,128,0,164852:0:0:0:0:
192,192,164852,128,0,164934:0:0:0:0:
320,192,164934,128,0,165016:0:0:0:0:
192,192,165016,128,0,165098:0:0:0:0:
64,192,165098,128,0,165180:0:0:0:0:
192,192,165180,128,0,165262:0:0:0:0:
64,192,165262,128,0,165344:0:0:0:0:
192,192,165344,128,0,165426:0:0:0:0:
320,192,165426,128,0,165508:0:0:0:0:
192,192,165508,128,0,165590:0:0:0:0:
320,192,165590,128,0,165672:0:0:0:0:
192,192,165672,128,0,165754:0:0:0:0:
64,192,165754,128,0,165917:0:0:0:0:
320,192,165754,128,0,165835:0:0:0:0:
192,192,165917,128,0,165999:0:0:0:0:
448,192,165917,128,0,167229:0:0:0:0:
320,192,165999,128,0,166081:0:0:0:0:
192,192,166081,128,0,166163:0:0:0:0:
64,192,166163,128,0,166245:0:0:0:0:
320,192,166245,128,0,166327:0:0:0:0:
192,192,166327,128,0,166409:0:0:0:0:
64,192,166409,128,0,166491:0:0:0:0:
320,192,166491,128,0,166573:0:0:0:0:
64,192,166573,128,0,166655:0:0:0:0:
320,192,166655,128,0,166737:0:0:0:0:
64,192,166737,128,0,166819:0:0:0:0:
320,192,166819,128,0,166901:0:0:0:0:
192,192,166901,128,0,166983:0:0:0:0:
64,192,166983,128,0,167065:0:0:0:0:
320,192,167065,128,0,167147:0:0:0:0:
64,192,167147,128,0,167229:0:0:0:0:
192,192,167229,128,0,168704:0:0:0:0:
320,192,167229,128,0,167311:0:0:0:0:
64,192,167311,128,0,167393:0:0:0:0:
320,192,167393,128,0,167475:0:0:0:0:
448,192,167475,128,0,167557:0:0:0:0:
64,192,167557,128,0,167639:0:0:0:0:
320,192,167639,128,0,167721:0:0:0:0:
448,192,167721,128,0,167803:0:0:0:0:
64,192,167803,128,0,167885:0:0:0:0:
448,192,167885,128,0,167967:0:0:0:0:
64,192,167967,128,0,168049:0:0:0:0:
448,192,168049,128,0,168131:0:0:0:0:
64,192,168131,128,0,168213:0:0:0:0:
320,192,168213,128,0,168295:0:0:0:0:
448,192,168295,128,0,168376:0:0:0:0:
64,192,168376,128,0,168458:0:0:0:0:
448,192,168458,128,0,168540:0:0:0:0:
64,192,168540,128,0,168622:0:0:0:0:
448,192,168622,128,0,168704:0:0:0:0:
320,192,168704,128,0,168868:0:0:0:0:
64,192,168786,128,0,168868:0:0:0:0:
192,192,168868,128,0,169032:0:0:0:0:
448,192,168950,128,0,169032:0:0:0:0:
64,192,169032,128,0,169196:0:0:0:0:
320,192,169114,128,0,169196:0:0:0:0:
448,192,169196,128,0,169360:0:0:0:0:
192,192,169278,128,0,169360:0:0:0:0:
64,192,169360,128,0,169524:0:0:0:0:
320,192,169442,128,0,169524:0:0:0:0:
448,192,169524,128,0,169688:0:0:0:0:
192,192,169606,128,0,169688:0:0:0:0:
320,192,169688,128,0,169852:0:0:0:0:
64,192,169770,128,0,169852:0:0:0:0:
192,192,169852,128,0,170016:0:0:0:0:
448,192,169934,128,0,170016:0:0:0:0:
320,192,170016,128,0,170180:0:0:0:0:
64,192,170098,128,0,170180:0:0:0:0:
448,192,170180,128,0,170344:0:0:0:0:
192,192,170262,128,0,170344:0:0:0:0:
64,192,170344,128,0,170508:0:0:0:0:
320,192,170426,128,0,170508:0:0:0:0:
192,192,170508,128,0,170672:0:0:0:0:
448,192,170590,128,0,170672:0:0:0:0:
64,192,170672,128,0,170754:0:0:0:0:
320,192,170672,128,0,170754:0:0:0:0:
192,192,170754,128,0,170835:0:0:0:0:
320,192,170835,128,0,170917:0:0:0:0:
448,192,170917,128,0,170999:0:0:0:0:
64,192,170999,128,0,171081:0:0:0:0:
192,192,170999,128,0,171081:0:0:0:0:
448,192,171081,128,0,171163:0:0:0:0:
320,192,171163,128,0,171245:0:0:0:0:
192,192,171245,128,0,171327:0:0:0:0:
448,192,171327,128,0,171491:0:0:0:0:
64,192,171327,128,0,171409:0:0:0:0:
192,192,171491,128,0,171655:0:0:0:0:
320,192,171491,128,0,171573:0:0:0:0:
64,192,171655,128,0,171819:0:0:0:0:
448,192,171655,128,0,171737:0:0:0:0:
320,192,171819,128,0,171983:0:0:0:0:
192,192,171819,128,0,171901:0:0:0:0:
448,192,171983,128,0,172147:0:0:0:0:
64,192,171983,128,0,172065:0:0:0:0:
320,192,172147,128,0,172311:0:0:0:0:
64,192,172147,128,0,172229:0:0:0:0:
192,192,172311,128,0,172475:0:0:0:0:
448,192,172311,128,0,172393:0:0:0:0:
64,192,172475,128,0,172639:0:0:0:0:
320,192,172475,128,0,172557:0:0:0:0:
448,192,172557,1,0,0:0:0:0:
320,192,172639,128,0,172803:0:0:0:0:
192,192,172639,128,0,172721:0:0:0:0:
64,192,172721,1,0,0:0:0:0:
192,192,172803,128,0,172967:0:0:0:0:
448,192,172803,128,0,172885:0:0:0:0:
320,192,172885,1,0,0:0:0:0:
64,192,172967,128,0,173131:0:0:0:0:
448,192,172967,128,0,173049:0:0:0:0:
192,192,173049,1,0,0:0:0:0:
448,192,173131,128,0,173295:0:0:0:0:
320,192,173131,128,0,173213:0:0:0:0:
64,192,173213,1,0,0:0:0:0:
320,192,173295,128,0,173458:0:0:0:0:
192,192,173295,128,0,173376:0:0:0:0:
448,192,173376,1,0,0:0:0:0:
192,192,173458,128,0,173622:0:0:0:0:
64,192,173458,128,0,173540:0:0:0:0:
320,192,173540,1,0,0:0:0:0:
64,192,173622,128,0,173786:0:0:0:0:
448,192,173622,128,0,173704:0:0:0:0:
192,192,173704,1,0,0:0:0:0:
320,192,173786,128,0,173950:0:0:0:0:
448,192,173786,128,0,173868:0:0:0:0:
192,192,173868,1,0,0:0:0:0:
448,192,173950,128,0,174032:0:0:0:0:
64,192,173950,128,0,174114:0:0:0:0:
192,192,174032,128,0,174114:0:0:0:0:
320,192,174114,128,0,174278:0:0:0:0:
448,192,174114,128,0,174196:0:0:0:0:
64,192,174196,128,0,174278:0:0:0:0:
192,192,174278,128,0,174442:0:0:0:0:
448,192,174278,128,0,174360:0:0:0:0:
64,192,174360,128,0,174442:0:0:0:0:
448,192,174442,128,0,174606:0:0:0:0:
320,192,174442,128,0,174524:0:0:0:0:
192,192,174524,128,0,174606:0:0:0:0:
64,192,174606,128,0,174770:0:0:0:0:
320,192,174606,128,0,174688:0:0:0:0:
448,192,174688,128,0,174770:0:0:0:0:
320,192,174770,128,0,174934:0:0:0:0:
192,192,174770,128,0,174852:0:0:0:0:
64,192,174852,128,0,174934:0:0:0:0:
192,192,174934,128,0,175016:0:0:0:0:
448,192,174934,128,0,175016:0:0:0:0:
320,192,175016,128,0,175098:0:0:0:0:
64,192,175098,128,0,175262:0:0:0:0:
448,192,175098,128,0,175180:0:0:0:0:
192,192,175098,128,0,175180:0:0:0:0:
320,192,175180,128,0,175262:0:0:0:0:
448,192,175262,128,0,175426:0:0:0:0:
192,192,175262,128,0,175344:0:0:0:0:
64,192,175344,128,0,175426:0:0:0:0:
320,192,175426,128,0,175590:0:0:0:0:
192,192,175426,128,0,175508:0:0:0:0:
448,192,175508,128,0,175590:0:0:0:0:
192,192,175590,128,0,175754:0:0:0:0:
64,192,175590,128,0,175672:0:0:0:0:
320,192,175672,128,0,175754:0:0:0:0:
448,192,175754,128,0,175917:0:0:0:0:
64,192,175754,128,0,175835:0:0:0:0:
320,192,175835,128,0,175917:0:0:0:0:
64,192,175917,128,0,176081:0:0:0:0:
192,192,175917,128,0,175999:0:0:0:0:
448,192,175999,128,0,176081:0:0:0:0:
320,192,176081,128,0,176245:0:0:0:0:
192,192,176081,128,0,176163:0:0:0:0:
448,192,176163,128,0,176245:0:0:0:0:
64,192,176245,128,0,176409:0:0:0:0:
192,192,176245,128,0,176327:0:0:0:0:
320,192,176327,128,0,176409:0:0:0:0:
448,192,176409,128,0,176573:0:0:0:0:
192,192,176409,128,0,176491:0:0:0:0:
64,192,176491,128,0,176573:0:0:0:0:
320,192,176573,128,0,176655:0:0:0:0:
192,192,176573,128,0,176655:0:0:0:0:
64,192,176655,128,0,176737:0:0:0:0:
320,192,176737,128,0,176819:0:0:0:0:
448,192,176737,128,0,176819:0:0:0:0:
192,192,176819,128,0,176901:0:0:0:0:
64,192,176901,128,0,176983:0:0:0:0:
320,192,176901,128,0,176983:0:0:0:0:
448,192,176901,128,0,176983:0:0:0:0:
192,192,176983,128,0,177065:0:0:0:0:
320,192,177065,128,0,177147:0:0:0:0:
64,192,177065,128,0,177147:0:0:0:0:
448,192,177147,128,0,177229:0:0:0:0:
192,192,177229,128,0,177311:0:0:0:0:
320,192,177229,128,0,177311:0:0:0:0:
64,192,177311,128,0,177393:0:0:0:0:
320,192,177393,128,0,177475:0:0:0:0:
448,192,177393,128,0,177475:0:0:0:0:
64,192,177475,128,0,177557:0:0:0:0:
192,192,177557,128,0,177639:0:0:0:0:
320,192,177557,128,0,177639:0:0:0:0:
448,192,177557,128,0,177639:0:0:0:0:
64,192,177721,1,0,0:0:0:0:
320,192,177721,128,0,177803:0:0:0:0:
192,192,177803,1,0,0:0:0:0:
448,192,177803,128,0,177885:0:0:0:0:
320,192,177885,1,0,0:0:0:0:
64,192,177885,128,0,177967:0:0:0:0:
448,192,177967,1,0,0:0:0:0:
192,192,177967,128,0,178049:0:0:0:0:
320,192,178049,128,0,178131:0:0:0:0:
64,192,178049,1,0,0:0:0:0:
448,192,178131,128,0,178213:0:0:0:0:
192,192,178131,1,0,0:0:0:0:
320,192,178213,1,0,0:0:0:0:
64,192,178213,128,0,178295:0:0:0:0:
448,192,178295,1,0,0:0:0:0:
192,192,178295,128,0,178376:0:0:0:0:
320,192,178376,128,0,178458:0:0:0:0:
64,192,178376,1,0,0:0:0:0:
448,192,178458,128,0,178540:0:0:0:0:
192,192,178458,1,0,0:0:0:0:
320,192,178540,1,0,0:0:0:0:
448,192,178622,1,0,0:0:0:0:
64,192,178704,1,0,0:0:0:0:
192,192,178704,1,0,0:0:0:0:
192,192,178868,1,0,0:0:0:0:
320,192,178868,1,0,0:0:0:0:
320,192,179032,1,0,0:0:0:0:
448,192,179032,1,0,0:0:0:0:
64,192,179196,128,0,179278:0:0:0:0:
192,192,179196,128,0,179278:0:0:0:0:
448,192,179196,128,0,179278:0:0:0:0:
320,192,179278,128,0,179360:0:0:0:0:
64,192,179360,128,0,179442:0:0:0:0:
192,192,179360,128,0,179442:0:0:0:0:
448,192,179360,128,0,179442:0:0:0:0:
64,192,179688,128,0,179770:0:0:0:0:
448,192,179688,128,0,179770:0:0:0:0:
192,192,179688,128,0,179770:0:0:0:0:
320,192,179770,128,0,179852:0:0:0:0:
64,192,179852,128,0,179934:0:0:0:0:
448,192,179852,128,0,179934:0:0:0:0:
192,192,179852,128,0,179934:0:0:0:0:
64,192,180180,128,0,180262:0:0:0:0:
320,192,180180,128,0,180262:0:0:0:0:
448,192,180180,128,0,180262:0:0:0:0:
192,192,180262,128,0,180344:0:0:0:0:
64,192,180344,128,0,180426:0:0:0:0:
320,192,180344,128,0,180426:0:0:0:0:
448,192,180344,128,0,180426:0:0:0:0:
64,192,180672,128,0,180754:0:0:0:0:
320,192,180672,128,0,180754:0:0:0:0:
448,192,180672,128,0,180754:0:0:0:0:
192,192,180754,128,0,180835:0:0:0:0:
64,192,180835,128,0,180917:0:0:0:0:
320,192,180835,128,0,180917:0:0:0:0:
448,192,180835,128,0,180917:0:0:0:0:
64,192,181163,128,0,181245:0:0:0:0:
192,192,181163,128,0,181245:0:0:0:0:
448,192,181163,128,0,181245:0:0:0:0:
320,192,181245,128,0,181327:0:0:0:0:
192,192,181327,128,0,181409:0:0:0:0:
64,192,181409,128,0,181491:0:0:0:0:
320,192,181491,128,0,181573:0:0:0:0:
448,192,181491,128,0,181573:0:0:0:0:
192,192,181491,128,0,181573:0:0:0:0:
64,192,181819,128,0,181901:0:0:0:0:
320,192,181819,128,0,181901:0:0:0:0:
448,192,181819,128,0,181901:0:0:0:0:
192,192,181901,128,0,181983:0:0:0:0:
64,192,181983,128,0,182065:0:0:0:0:
320,192,181983,128,0,182065:0:0:0:0:
448,192,181983,128,0,182065:0:0:0:0:
64,192,182311,128,0,182393:0:0:0:0:
320,192,182311,128,0,182393:0:0:0:0:
448,192,182311,128,0,182393:0:0:0:0:
192,192,182393,128,0,182475:0:0:0:0:
64,192,182475,128,0,182557:0:0:0:0:
320,192,182475,128,0,182557:0:0:0:0:
448,192,182475,128,0,182557:0:0:0:0:
64,192,182803,128,0,182885:0:0:0:0:
192,192,182803,128,0,182885:0:0:0:0:
448,192,182803,128,0,182885:0:0:0:0:
320,192,182885,128,0,182967:0:0:0:0:
64,192,182967,128,0,183049:0:0:0:0:
192,192,182967,128,0,183049:0:0:0:0:
448,192,182967,128,0,183049:0:0:0:0:
64,192,183295,128,0,183376:0:0:0:0:
192,192,183295,128,0,183376:0:0:0:0:
448,192,183295,128,0,183376:0:0:0:0:
320,192,183376,128,0,183458:0:0:0:0:
64,192,183458,128,0,183540:0:0:0:0:
192,192,183458,128,0,183540:0:0:0:0:
448,192,183458,128,0,183540:0:0:0:0:
64,192,183786,128,0,183868:0:0:0:0:
320,192,183786,128,0,183868:0:0:0:0:
448,192,183786,128,0,183868:0:0:0:0:
192,192,183868,128,0,183950:0:0:0:0:
320,192,183950,128,0,184032:0:0:0:0:
448,192,184032,128,0,184114:0:0:0:0:
320,192,184114,128,0,184196:0:0:0:0:
192,192,184114,128,0,184196:0:0:0:0:
64,192,184114,128,0,184196:0:0:0:0:
320,192,184442,128,0,184524:0:0:0:0:
448,192,184442,128,0,184524:0:0:0:0:
192,192,184442,128,0,184524:0:0:0:0:
64,192,184442,128,0,184524:0:0:0:0:
320,192,184606,128,0,184688:0:0:0:0:
448,192,184606,128,0,184688:0:0:0:0:
192,192,184606,128,0,184688:0:0:0:0:
64,192,184934,128,0,185016:0:0:0:0:
192,192,184934,128,0,185016:0:0:0:0:
320,192,184934,128,0,185016:0:0:0:0:
448,192,184934,128,0,185016:0:0:0:0:
192,192,185098,128,0,185180:0:0:0:0:
64,192,185098,128,0,185180:0:0:0:0:
320,192,185098,128,0,185180:0:0:0:0:
64,192,185426,128,0,185508:0:0:0:0:
320,192,185426,128,0,185508:0:0:0:0:
448,192,185426,128,0,185508:0:0:0:0:
192,192,185426,128,0,185508:0:0:0:0:
64,192,185590,128,0,185672:0:0:0:0:
448,192,185590,128,0,185672:0:0:0:0:
192,192,185590,128,0,185672:0:0:0:0:
192,192,185917,128,0,185999:0:0:0:0:
320,192,185917,128,0,185999:0:0:0:0:
448,192,185917,128,0,185999:0:0:0:0:
64,192,185917,128,0,185999:0:0:0:0:
320,192,186081,128,0,186163:0:0:0:0:
448,192,186081,128,0,186163:0:0:0:0:
64,192,186081,128,0,186163:0:0:0:0:
64,192,186409,128,0,186573:0:0:0:0:
192,192,186409,128,0,186491:0:0:0:0:
448,192,186409,128,0,186491:0:0:0:0:
320,192,186491,128,0,186573:0:0:0:0:
448,192,186737,128,0,186901:0:0:0:0:
64,192,186737,128,0,186819:0:0:0:0:
320,192,186737,128,0,186819:0:0:0:0:
192,192,186819,128,0,186901:0:0:0:0:
64,192,187065,128,0,187147:0:0:0:0:
192,192,187065,128,0,187147:0:0:0:0:
320,192,187065,128,0,187147:0:0:0:0:
448,192,187065,128,0,187147:0:0:0:0:
64,192,187229,128,0,187311:0:0:0:0:
192,192,187229,128,0,187311:0:0:0:0:
320,192,187229,128,0,187311:0:0:0:0:
64,192,187557,128,0,187639:0:0:0:0:
192,192,187557,128,0,187639:0:0:0:0:
320,192,187557,128,0,187639:0:0:0:0:
448,192,187557,128,0,187639:0:0:0:0:
64,192,187721,128,0,187803:0:0:0:0:
192,192,187721,128,0,187803:0:0:0:0:
320,192,187721,128,0,187803:0:0:0:0:
64,192,188049,128,0,188131:0:0:0:0:
192,192,188049,128,0,188131:0:0:0:0:
320,192,188049,128,0,188131:0:0:0:0:
448,192,188049,128,0,188131:0:0:0:0:
192,192,188213,128,0,188295:0:0:0:0:
320,192,188213,128,0,188295:0:0:0:0:
448,192,188213,128,0,188295:0:0:0:0:
64,192,188540,128,0,188622:0:0:0:0:
192,192,188540,128,0,188622:0:0:0:0:
320,192,188540,128,0,188622:0:0:0:0:
448,192,188540,128,0,188622:0:0:0:0:
192,192,188704,128,0,188786:0:0:0:0:
320,192,188704,128,0,188786:0:0:0:0:
448,192,188704,128,0,188786:0:0:0:0:
64,192,189032,128,0,189114:0:0:0:0:
320,192,189032,128,0,189114:0:0:0:0:
192,192,189032,128,0,189114:0:0:0:0:
320,192,189360,128,0,189442:0:0:0:0:
448,192,189360,128,0,189469:0:0:0:0:
192,192,189442,128,0,189524:0:0:0:0:
64,192,189442,128,0,189551:0:0:0:0:
320,192,189524,128,0,189606:0:0:0:0:
448,192,189524,128,0,189633:0:0:0:0:
192,192,189606,128,0,189688:0:0:0:0:
64,192,189606,128,0,189715:0:0:0:0:
320,192,189688,128,0,189770:0:0:0:0:
448,192,189688,128,0,189770:0:0:0:0:
192,192,189770,1,0,0:0:0:0:
64,192,189852,1,0,0:0:0:0:
320,192,189852,128,0,189934:0:0:0:0:
448,192,189934,1,0,0:0:0:0:
64,192,190016,128,0,190180:0:0:0:0:
320,192,190016,1,0,0:0:0:0:
192,192,190016,128,0,190098:0:0:0:0:
448,192,190098,1,0,0:0:0:0:
192,192,190180,1,0,0:0:0:0:
320,192,190180,128,0,190262:0:0:0:0:
64,192,190262,1,0,0:0:0:0:
448,192,190344,128,0,190426:0:0:0:0:
320,192,190344,1,0,0:0:0:0:
64,192,190426,1,0,0:0:0:0:
192,192,190508,128,0,190590:0:0:0:0:
320,192,190508,1,0,0:0:0:0:
448,192,190590,1,0,0:0:0:0:
320,192,190672,128,0,190835:0:0:0:0:
192,192,190672,128,0,190754:0:0:0:0:
64,192,190672,1,0,0:0:0:0:
448,192,190754,1,0,0:0:0:0:
192,192,190835,1,0,0:0:0:0:
64,192,190835,128,0,190917:0:0:0:0:
320,192,190917,1,0,0:0:0:0:
448,192,190999,128,0,191081:0:0:0:0:
192,192,190999,128,0,191163:0:0:0:0:
320,192,191081,128,0,191163:0:0:0:0:
448,192,191163,128,0,191327:0:0:0:0:
64,192,191163,128,0,191245:0:0:0:0:
192,192,191245,128,0,191327:0:0:0:0:
320,192,191327,128,0,191491:0:0:0:0:
64,192,191327,128,0,191409:0:0:0:0:
448,192,191409,128,0,191491:0:0:0:0:
192,192,191491,128,0,191655:0:0:0:0:
64,192,191491,128,0,191573:0:0:0:0:
320,192,191573,128,0,191655:0:0:0:0:
64,192,191655,128,0,191819:0:0:0:0:
448,192,191655,128,0,191737:0:0:0:0:
192,192,191737,128,0,191819:0:0:0:0:
320,192,191819,128,0,191983:0:0:0:0:
448,192,191819,128,0,191901:0:0:0:0:
64,192,191901,128,0,191983:0:0:0:0:
192,192,191983,128,0,192147:0:0:0:0:
448,192,191983,128,0,192065:0:0:0:0:
64,192,192065,128,0,192147:0:0:0:0:
320,192,192147,128,0,192393:0:0:0:0:
448,192,192147,128,0,192311:0:0:0:0:
192,192,192229,128,0,192311:0:0:0:0:
64,192,192311,128,0,192557:0:0:0:0:
192,192,192393,128,0,192557:0:0:0:0:
448,192,192393,128,0,192475:0:0:0:0:
320,192,192475,128,0,192557:0:0:0:0:
448,192,192557,128,0,192639:0:0:0:0:
320,192,192639,128,0,192721:0:0:0:0:
192,192,192639,128,0,192803:0:0:0:0:
64,192,192639,128,0,192885:0:0:0:0:
448,192,192721,128,0,192885:0:0:0:0:
320,192,192803,128,0,192885:0:0:0:0:
192,192,192885,128,0,192967:0:0:0:0:
64,192,192967,128,0,193213:0:0:0:0:
448,192,192967,128,0,193131:0:0:0:0:
320,192,192967,128,0,193049:0:0:0:0:
192,192,193049,128,0,193213:0:0:0:0:
320,192,193131,128,0,193376:0:0:0:0:
448,192,193213,128,0,193295:0:0:0:0:
64,192,193295,128,0,193540:0:0:0:0:
192,192,193295,128,0,193458:0:0:0:0:
448,192,193376,128,0,193540:0:0:0:0:
320,192,193458,128,0,193540:0:0:0:0:
192,192,193540,128,0,193622:0:0:0:0:
64,192,193622,1,0,0:0:0:0:
320,192,193622,1,0,0:0:0:0:
448,192,193622,1,0,0:0:0:0:
192,192,193704,1,0,0:0:0:0:
320,192,193786,1,0,0:0:0:0:
64,192,193786,1,0,0:0:0:0:
448,192,193868,1,0,0:0:0:0:
64,192,193950,1,0,0:0:0:0:
192,192,193950,1,0,0:0:0:0:
320,192,193950,1,0,0:0:0:0:
448,192,194032,1,0,0:0:0:0:
320,192,194114,1,0,0:0:0:0:
192,192,194114,1,0,0:0:0:0:
64,192,194196,1,0,0:0:0:0:
192,192,194278,1,0,0:0:0:0:
320,192,194278,1,0,0:0:0:0:
448,192,194278,1,0,0:0:0:0:
64,192,194360,1,0,0:0:0:0:
448,192,194442,1,0,0:0:0:0:
192,192,194442,1,0,0:0:0:0:
320,192,194524,1,0,0:0:0:0:
64,192,194606,1,0,0:0:0:0:
192,192,194606,1,0,0:0:0:0:
448,192,194606,1,0,0:0:0:0:
64,192,194770,1,0,0:0:0:0:
192,192,194770,1,0,0:0:0:0:
320,192,194770,1,0,0:0:0:0:
448,192,194770,1,0,0:0:0:0:
64,192,195098,1,0,0:0:0:0:
320,192,195098,1,0,0:0:0:0:
448,192,195098,1,0,0:0:0:0:
64,192,195262,1,0,0:0:0:0:
320,192,195262,1,0,0:0:0:0:
448,192,195262,1,0,0:0:0:0:
64,192,195426,1,0,0:0:0:0:
320,192,195426,1,0,0:0:0:0:
448,192,195426,1,0,0:0:0:0:
64,192,195590,1,0,0:0:0:0:
320,192,195590,1,0,0:0:0:0:
448,192,195590,1,0,0:0:0:0:
64,192,195754,1,0,0:0:0:0:
320,192,195754,1,0,0:0:0:0:
448,192,195754,1,0,0:0:0:0:
192,192,195917,128,0,195999:0:0:0:0:
64,192,195917,128,0,195999:0:0:0:0:
448,192,195917,128,0,195999:0:0:0:0:
64,192,196081,128,0,196163:0:0:0:0:
192,192,196081,128,0,196163:0:0:0:0:
448,192,196081,128,0,196163:0:0:0:0:
64,192,196245,128,0,196327:0:0:0:0:
192,192,196245,128,0,196327:0:0:0:0:
448,192,196245,128,0,196327:0:0:0:0:
64,192,196409,128,0,196491:0:0:0:0:
192,192,196409,128,0,196491:0:0:0:0:
448,192,196409,128,0,196491:0:0:0:0:
64,192,196573,1,0,0:0:0:0:
320,192,196573,1,0,0:0:0:0:
448,192,196573,1,0,0:0:0:0:
192,192,196573,1,0,0:0:0:0:
448,192,196737,1,0,0:0:0:0:
320,192,196819,1,0,0:0:0:0:
192,192,196901,1,0,0:0:0:0:
64,192,196983,1,0,0:0:0:0:
320,192,197065,1,0,0:0:0:0:
448,192,197065,1,0,0:0:0:0:
192,192,197065,1,0,0:0:0:0:
64,192,197147,1,0,0:0:0:0:
320,192,197229,1,0,0:0:0:0:
448,192,197229,1,0,0:0:0:0:
192,192,197229,1,0,0:0:0:0:
64,192,197311,1,0,0:0:0:0:
448,192,197393,1,0,0:0:0:0:
320,192,197393,1,0,0:0:0:0:
192,192,197393,1,0,0:0:0:0:
320,192,198213,128,0,198868:0:0:0:0:
64,192,198868,128,0,199524:0:0:0:0:
448,192,199524,128,0,200016:0:0:0:0:
64,192,200835,128,0,201491:0:0:0:0:
192,192,201491,128,0,202147:0:0:0:0:
320,192,202147,128,0,202803:0:0:0:0:
448,192,202147,1,0,0:0:0:0:
64,192,202229,1,0,0:0:0:0:
192,192,202311,1,0,0:0:0:0:
448,192,202393,1,0,0:0:0:0:
64,192,202475,1,0,0:0:0:0:
192,192,202475,1,0,0:0:0:0:
192,192,202639,1,0,0:0:0:0:
448,192,202639,1,0,0:0:0:0:
448,192,202803,128,0,203622:0:0:0:0:
64,192,202803,128,0,202967:0:0:0:0:
192,192,202885,128,0,202967:0:0:0:0:
320,192,202967,128,0,203131:0:0:0:0:
64,192,203049,128,0,203131:0:0:0:0:
192,192,203131,128,0,203295:0:0:0:0:
320,192,203213,128,0,203295:0:0:0:0:
64,192,203295,128,0,203458:0:0:0:0:
192,192,203376,128,0,203458:0:0:0:0:
320,192,203458,128,0,203622:0:0:0:0:
64,192,203540,128,0,203622:0:0:0:0:
192,192,203622,1,0,0:0:0:0:
320,192,203704,1,0,0:0:0:0:
448,192,203786,1,0,0:0:0:0:
192,192,203786,128,0,203868:0:0:0:0:
64,192,203786,128,0,203950:0:0:0:0:
320,192,203868,1,0,0:0:0:0:
192,192,203950,1,0,0:0:0:0:
448,192,203950,128,0,204278:0:0:0:0:
64,192,204032,1,0,0:0:0:0:
320,192,204114,1,0,0:0:0:0:
192,192,204196,1,0,0:0:0:0:
320,192,204278,1,0,0:0:0:0:
64,192,204278,128,0,204606:0:0:0:0:
448,192,204360,1,0,0:0:0:0:
192,192,204442,1,0,0:0:0:0:
320,192,204524,1,0,0:0:0:0:
192,192,204606,128,0,204934:0:0:0:0:
448,192,204606,1,0,0:0:0:0:
320,192,204688,1,0,0:0:0:0:
64,192,204770,1,0,0:0:0:0:
448,192,204852,1,0,0:0:0:0:
320,192,204934,128,0,205262:0:0:0:0:
64,192,204934,1,0,0:0:0:0:
192,192,205016,1,0,0:0:0:0:
448,192,205098,1,0,0:0:0:0:
64,192,205180,1,0,0:0:0:0:
192,192,205262,128,0,205344:0:0:0:0:
448,192,205262,128,0,205344:0:0:0:0:
320,192,205344,128,0,205426:0:0:0:0:
64,192,205426,128,0,205508:0:0:0:0:
448,192,205426,128,0,205508:0:0:0:0:
192,192,205508,128,0,205590:0:0:0:0:
320,192,205590,128,0,205672:0:0:0:0:
448,192,205590,128,0,205672:0:0:0:0:
64,192,205672,128,0,205754:0:0:0:0:
192,192,205754,128,0,205835:0:0:0:0:
320,192,205754,128,0,205835:0:0:0:0:
448,192,205835,128,0,205917:0:0:0:0:
64,192,205917,128,0,205999:0:0:0:0:
320,192,205917,128,0,205999:0:0:0:0:
192,192,205999,128,0,206081:0:0:0:0:
64,192,206081,128,0,206163:0:0:0:0:
448,192,206081,128,0,206163:0:0:0:0:
320,192,206163,128,0,206245:0:0:0:0:
192,192,206245,128,0,206327:0:0:0:0:
448,192,206245,128,0,206327:0:0:0:0:
64,192,206327,128,0,206409:0:0:0:0:
320,192,206409,128,0,206737:0:0:0:0:
448,192,206409,128,0,206573:0:0:0:0:
64,192,206491,1,0,0:0:0:0:
192,192,206573,1,0,0:0:0:0:
448,192,206655,1,0,0:0:0:0:
64,192,206737,128,0,207065:0:0:0:0:
192,192,206737,128,0,206901:0:0:0:0:
448,192,206819,1,0,0:0:0:0:
320,192,206901,1,0,0:0:0:0:
192,192,206983,1,0,0:0:0:0:
448,192,207065,128,0,207393:0:0:0:0:
320,192,207065,128,0,207229:0:0:0:0:
192,192,207147,1,0,0:0:0:0:
64,192,207229,1,0,0:0:0:0:
320,192,207311,1,0,0:0:0:0:
192,192,207393,128,0,207721:0:0:0:0:
64,192,207393,128,0,207557:0:0:0:0:
320,192,207475,1,0,0:0:0:0:
448,192,207557,1,0,0:0:0:0:
64,192,207639,1,0,0:0:0:0:
320,192,207721,1,0,0:0:0:0:
448,192,207721,1,0,0:0:0:0:
64,192,207803,1,0,0:0:0:0:
192,192,207803,1,0,0:0:0:0:
320,192,207885,1,0,0:0:0:0:
448,192,207885,1,0,0:0:0:0:
64,192,207967,1,0,0:0:0:0:
192,192,207967,1,0,0:0:0:0:
64,192,208049,1,0,0:0:0:0:
320,192,208049,1,0,0:0:0:0:
448,192,208049,1,0,0:0:0:0:
64,192,209196,1,0,0:0:0:0:
320,192,209196,1,0,0:0:0:0:
448,192,209196,1,0,0:0:0:0:
64,192,209360,1,0,0:0:0:0:
192,192,209360,1,0,0:0:0:0:
320,192,209360,1,0,0:0:0:0:
320,192,210344,1,0,0:0:0:0:
448,192,210344,1,0,0:0:0:0:
64,192,210508,128,0,210590:0:0:0:0:
320,192,210508,128,0,210590:0:0:0:0:
192,192,210590,128,0,210672:0:0:0:0:
64,192,210672,128,0,210754:0:0:0:0:
448,192,210672,128,0,210754:0:0:0:0:
320,192,210754,128,0,210835:0:0:0:0:
64,192,210835,128,0,210917:0:0:0:0:
192,192,210835,128,0,210917:0:0:0:0:
448,192,210917,128,0,210999:0:0:0:0:
64,192,210999,128,0,211081:0:0:0:0:
192,192,210999,128,0,211081:0:0:0:0:
320,192,211081,128,0,211163:0:0:0:0:
64,192,211163,128,0,211245:0:0:0:0:
192,192,211163,128,0,211245:0:0:0:0:
448,192,211245,128,0,211327:0:0:0:0:
64,192,211327,128,0,211409:0:0:0:0:
192,192,211327,128,0,211409:0:0:0:0:
320,192,211409,128,0,211491:0:0:0:0:
448,192,211491,128,0,211573:0:0:0:0:
192,192,211491,128,0,211573:0:0:0:0:
64,192,211573,128,0,211655:0:0:0:0:
320,192,211655,128,0,211737:0:0:0:0:
192,192,211737,128,0,211819:0:0:0:0:
448,192,211819,128,0,211901:0:0:0:0:
64,192,211819,128,0,211901:0:0:0:0:
320,192,211819,128,0,211901:0:0:0:0:
64,192,212147,128,0,212311:0:0:0:0:
448,192,212147,128,0,212229:0:0:0:0:
320,192,212229,128,0,212311:0:0:0:0:
448,192,212311,128,0,212475:0:0:0:0:
192,192,212311,128,0,212393:0:0:0:0:
64,192,212393,128,0,212475:0:0:0:0:
320,192,212475,128,0,212639:0:0:0:0:
192,192,212475,128,0,212557:0:0:0:0:
448,192,212557,128,0,212639:0:0:0:0:
64,192,212639,128,0,212803:0:0:0:0:
192,192,212639,128,0,212721:0:0:0:0:
320,192,212721,128,0,212803:0:0:0:0:
192,192,212803,1,0,0:0:0:0:
448,192,212803,1,0,0:0:0:0:
320,192,212885,1,0,0:0:0:0:
64,192,212885,1,0,0:0:0:0:
192,192,212967,1,0,0:0:0:0:
448,192,212967,1,0,0:0:0:0:
320,192,213049,1,0,0:0:0:0:
64,192,213131,128,0,213950:0:0:0:0:
192,192,213131,128,0,213213:0:0:0:0:
448,192,213131,1,0,0:0:0:0:
320,192,213213,128,0,213295:0:0:0:0:
448,192,213295,128,0,213376:0:0:0:0:
320,192,213376,128,0,213458:0:0:0:0:
192,192,213458,128,0,213540:0:0:0:0:
320,192,213540,128,0,213622:0:0:0:0:
448,192,213622,128,0,213704:0:0:0:0:
320,192,213704,128,0,213786:0:0:0:0:
192,192,213786,128,0,213868:0:0:0:0:
320,192,213868,128,0,213950:0:0:0:0:
448,192,213950,1,0,0:0:0:0:
192,192,213950,1,0,0:0:0:0:
320,192,214032,1,0,0:0:0:0:
192,192,214114,1,0,0:0:0:0:
64,192,214196,1,0,0:0:0:0:
448,192,214278,128,0,214360:0:0:0:0:
320,192,214278,128,0,214360:0:0:0:0:
192,192,214278,1,0,0:0:0:0:
64,192,214360,1,0,0:0:0:0:
320,192,214442,128,0,214524:0:0:0:0:
448,192,214442,128,0,214524:0:0:0:0:
192,192,214442,1,0,0:0:0:0:
64,192,214524,1,0,0:0:0:0:
192,192,214606,1,0,0:0:0:0:
320,192,214688,1,0,0:0:0:0:
448,192,214770,128,0,214852:0:0:0:0:
192,192,214770,128,0,214852:0:0:0:0:
320,192,214852,1,0,0:0:0:0:
192,192,214934,1,0,0:0:0:0:
64,192,215016,1,0,0:0:0:0:
192,192,215098,128,0,215180:0:0:0:0:
320,192,215098,128,0,215180:0:0:0:0:
448,192,215180,1,0,0:0:0:0:
64,192,215262,1,0,0:0:0:0:
192,192,215344,1,0,0:0:0:0:
320,192,215426,128,0,215508:0:0:0:0:
64,192,215426,128,0,215508:0:0:0:0:
192,192,215508,1,0,0:0:0:0:
448,192,215590,1,0,0:0:0:0:
320,192,215672,1,0,0:0:0:0:
192,192,215754,128,0,216573:0:0:0:0:
64,192,215754,128,0,215835:0:0:0:0:
320,192,215835,128,0,215917:0:0:0:0:
64,192,215917,128,0,215999:0:0:0:0:
320,192,215999,128,0,216081:0:0:0:0:
64,192,216081,128,0,216163:0:0:0:0:
320,192,216163,128,0,216245:0:0:0:0:
448,192,216245,128,0,216327:0:0:0:0:
64,192,216327,128,0,216409:0:0:0:0:
448,192,216409,128,0,216491:0:0:0:0:
64,192,216491,128,0,216573:0:0:0:0:
320,192,216573,128,0,216655:0:0:0:0:
448,192,216573,128,0,216655:0:0:0:0:
64,192,216655,128,0,216737:0:0:0:0:
192,192,216655,128,0,216737:0:0:0:0:
320,192,216737,128,0,216819:0:0:0:0:
448,192,216737,128,0,216819:0:0:0:0:
64,192,216819,128,0,216901:0:0:0:0:
192,192,216819,128,0,216983:0:0:0:0:
320,192,216901,128,0,216983:0:0:0:0:
64,192,216983,128,0,217065:0:0:0:0:
448,192,216983,128,0,217065:0:0:0:0:
192,192,217065,128,0,217147:0:0:0:0:
320,192,217065,128,0,217147:0:0:0:0:
64,192,217147,128,0,217229:0:0:0:0:
448,192,217147,128,0,217311:0:0:0:0:
192,192,217229,128,0,217311:0:0:0:0:
320,192,217311,128,0,217393:0:0:0:0:
64,192,217311,128,0,217393:0:0:0:0:
192,192,217393,128,0,217475:0:0:0:0:
448,192,217393,128,0,217475:0:0:0:0:
64,192,217475,128,0,217557:0:0:0:0:
320,192,217475,128,0,217557:0:0:0:0:
192,192,217557,128,0,217639:0:0:0:0:
448,192,217557,128,0,217639:0:0:0:0:
320,192,217639,128,0,217721:0:0:0:0:
64,192,217639,128,0,217803:0:0:0:0:
192,192,217721,128,0,217803:0:0:0:0:
320,192,217803,128,0,217885:0:0:0:0:
448,192,217803,128,0,217885:0:0:0:0:
64,192,217885,128,0,217967:0:0:0:0:
192,192,217885,128,0,217967:0:0:0:0:
320,192,217967,128,0,218049:0:0:0:0:
448,192,217967,128,0,218049:0:0:0:0:
64,192,218049,128,0,218131:0:0:0:0:
192,192,218049,128,0,218131:0:0:0:0:
320,192,218131,128,0,218213:0:0:0:0:
448,192,218131,128,0,218213:0:0:0:0:
64,192,218213,1,0,0:0:0:0:
192,192,218213,1,0,0:0:0:0:
320,192,218295,1,0,0:0:0:0:
448,192,218376,1,0,0:0:0:0:
64,192,218376,1,0,0:0:0:0:
320,192,218458,1,0,0:0:0:0:
192,192,218540,1,0,0:0:0:0:
448,192,218540,1,0,0:0:0:0:
64,192,218540,1,0,0:0:0:0:
320,192,218704,128,0,218868:0:0:0:0:
64,192,218704,1,0,0:0:0:0:
192,192,218704,1,0,0:0:0:0:
64,192,218868,128,0,219032:0:0:0:0:
192,192,218868,1,0,0:0:0:0:
448,192,218868,1,0,0:0:0:0:
448,192,219032,128,0,219196:0:0:0:0:
192,192,219032,1,0,0:0:0:0:
320,192,219032,1,0,0:0:0:0:
192,192,219196,128,0,219360:0:0:0:0:
64,192,219196,1,0,0:0:0:0:
320,192,219196,1,0,0:0:0:0:
64,192,219360,128,0,219524:0:0:0:0:
448,192,219360,1,0,0:0:0:0:
320,192,219360,1,0,0:0:0:0:
192,192,219524,128,0,219606:0:0:0:0:
320,192,219524,128,0,219606:0:0:0:0:
64,192,219688,128,0,219770:0:0:0:0:
320,192,219688,128,0,219770:0:0:0:0:
448,192,219688,128,0,219770:0:0:0:0:
64,192,219852,1,0,0:0:0:0:
192,192,219852,1,0,0:0:0:0:
320,192,220016,128,0,220098:0:0:0:0:
448,192,220016,128,0,220098:0:0:0:0:
64,192,220016,1,0,0:0:0:0:
192,192,220098,1,0,0:0:0:0:
320,192,220180,128,0,220262:0:0:0:0:
448,192,220180,128,0,220262:0:0:0:0:
64,192,220180,1,0,0:0:0:0:
192,192,220262,1,0,0:0:0:0:
320,192,220344,128,0,220426:0:0:0:0:
448,192,220344,128,0,220426:0:0:0:0:
64,192,220344,1,0,0:0:0:0:
192,192,220426,1,0,0:0:0:0:
320,192,220508,1,0,0:0:0:0:
448,192,220590,1,0,0:0:0:0:
320,192,220672,1,0,0:0:0:0:
64,192,220672,128,0,220754:0:0:0:0:
192,192,220672,128,0,220754:0:0:0:0:
448,192,220754,1,0,0:0:0:0:
320,192,220835,1,0,0:0:0:0:
64,192,220835,128,0,220917:0:0:0:0:
192,192,220835,128,0,220917:0:0:0:0:
448,192,220917,1,0,0:0:0:0:
64,192,220999,128,0,221081:0:0:0:0:
192,192,220999,128,0,221081:0:0:0:0:
320,192,220999,1,0,0:0:0:0:
448,192,221163,128,0,221327:0:0:0:0:
320,192,221163,128,0,221245:0:0:0:0:
192,192,221163,1,0,0:0:0:0:
64,192,221245,1,0,0:0:0:0:
320,192,221327,1,0,0:0:0:0:
192,192,221409,1,0,0:0:0:0:
64,192,221491,128,0,221573:0:0:0:0:
320,192,221491,128,0,221573:0:0:0:0:
192,192,221573,1,0,0:0:0:0:
64,192,221655,128,0,221737:0:0:0:0:
448,192,221655,128,0,221737:0:0:0:0:
320,192,221737,1,0,0:0:0:0:
192,192,221819,1,0,0:0:0:0:
64,192,221901,1,0,0:0:0:0:
320,192,221983,128,0,222065:0:0:0:0:
448,192,221983,128,0,222065:0:0:0:0:
64,192,222065,1,0,0:0:0:0:
192,192,222147,128,0,222229:0:0:0:0:
320,192,222147,128,0,222229:0:0:0:0:
64,192,222229,1,0,0:0:0:0:
192,192,222311,128,0,222393:0:0:0:0:
448,192,222311,128,0,222557:0:0:0:0:
320,192,222311,128,0,222475:0:0:0:0:
64,192,222393,1,0,0:0:0:0:
192,192,222475,1,0,0:0:0:0:
320,192,222557,1,0,0:0:0:0:
64,192,222639,128,0,222885:0:0:0:0:
192,192,222639,128,0,222803:0:0:0:0:
320,192,222639,128,0,222721:0:0:0:0:
448,192,222721,1,0,0:0:0:0:
320,192,222803,1,0,0:0:0:0:
192,192,222885,1,0,0:0:0:0:
192,192,222967,128,0,223049:0:0:0:0:
320,192,222967,128,0,223131:0:0:0:0:
448,192,222967,128,0,223213:0:0:0:0:
64,192,223049,1,0,0:0:0:0:
192,192,223131,1,0,0:0:0:0:
320,192,223213,1,0,0:0:0:0:
64,192,223295,128,0,223540:0:0:0:0:
192,192,223295,128,0,223458:0:0:0:0:
320,192,223295,128,0,223376:0:0:0:0:
448,192,223376,1,0,0:0:0:0:
320,192,223458,1,0,0:0:0:0:
192,192,223540,1,0,0:0:0:0:
64,192,223622,128,0,224442:0:0:0:0:
448,192,223622,1,0,0:0:0:0:
320,192,223704,1,0,0:0:0:0:
192,192,223786,1,0,0:0:0:0:
320,192,223868,1,0,0:0:0:0:
448,192,223950,1,0,0:0:0:0:
192,192,224032,1,0,0:0:0:0:
320,192,224114,1,0,0:0:0:0:
448,192,224196,1,0,0:0:0:0:
320,192,224278,1,0,0:0:0:0:
192,192,224360,1,0,0:0:0:0:
320,192,224442,1,0,0:0:0:0:
448,192,224442,1,0,0:0:0:0:
192,192,224606,1,0,0:0:0:0:
64,192,224770,1,0,0:0:0:0:
320,192,224770,1,0,0:0:0:0:
448,192,224770,1,0,0:0:0:0:
64,192,224934,1,0,0:0:0:0:
192,192,224934,1,0,0:0:0:0:
320,192,224934,1,0,0:0:0:0:
448,192,224934,1,0,0:0:0:0:
192,192,225098,1,0,0:0:0:0:
448,192,225098,1,0,0:0:0:0:
64,192,225262,1,0,0:0:0:0:
320,192,225262,1,0,0:0:0:0:
192,192,225262,1,0,0:0:0:0:
64,192,225426,1,0,0:0:0:0:
448,192,225426,1,0,0:0:0:0:
192,192,225590,1,0,0:0:0:0:
320,192,225590,1,0,0:0:0:0:
448,192,225590,1,0,0:0:0:0:
64,192,225590,1,0,0:0:0:0:
192,192,225754,1,0,0:0:0:0:
320,192,225754,1,0,0:0:0:0:
64,192,225917,1,0,0:0:0:0:
448,192,225917,1,0,0:0:0:0:
320,192,225917,1,0,0:0:0:0:
64,192,226081,1,0,0:0:0:0:
192,192,226081,1,0,0:0:0:0:
448,192,226245,1,0,0:0:0:0:
320,192,226245,1,0,0:0:0:0:
192,192,226245,1,0,0:0:0:0:
64,192,226409,128,0,226491:0:0:0:0:
192,192,226409,128,0,226491:0:0:0:0:
320,192,226409,128,0,226491:0:0:0:0:
448,192,226409,128,0,226491:0:0:0:0:
64,192,226573,128,0,226655:0:0:0:0:
192,192,226573,128,0,226655:0:0:0:0:
64,192,226737,128,0,226819:0:0:0:0:
192,192,226737,128,0,226819:0:0:0:0:
320,192,226737,128,0,226819:0:0:0:0:
448,192,226737,128,0,226819:0:0:0:0:
320,192,226901,128,0,226983:0:0:0:0:
448,192,226901,128,0,226983:0:0:0:0:
192,192,227065,128,0,227147:0:0:0:0:
64,192,227065,128,0,227147:0:0:0:0:
320,192,227065,128,0,227147:0:0:0:0:
448,192,227065,128,0,227147:0:0:0:0:
64,192,227229,1,0,0:0:0:0:
192,192,227229,1,0,0:0:0:0:
192,192,227393,1,0,0:0:0:0:
320,192,227393,1,0,0:0:0:0:
64,192,227557,128,0,227967:0:0:0:0:
448,192,227557,128,0,227639:0:0:0:0:
320,192,227639,128,0,227721:0:0:0:0:
448,192,227721,128,0,227803:0:0:0:0:
320,192,227803,128,0,227885:0:0:0:0:
448,192,227885,128,0,227967:0:0:0:0:
320,192,227967,128,0,228049:0:0:0:0:
192,192,228049,1,0,0:0:0:0:
64,192,228049,1,0,0:0:0:0:
320,192,228213,1,0,0:0:0:0:
448,192,228213,1,0,0:0:0:0:
64,192,228376,1,0,0:0:0:0:
192,192,228376,1,0,0:0:0:0:
448,192,228376,1,0,0:0:0:0:
64,192,228540,1,0,0:0:0:0:
192,192,228540,1,0,0:0:0:0:
448,192,228540,1,0,0:0:0:0:
320,192,228868,128,0,229688:0:0:0:0:
64,192,228868,128,0,228950:0:0:0:0:
192,192,228950,128,0,229032:0:0:0:0:
448,192,229032,128,0,229114:0:0:0:0:
64,192,229114,128,0,229196:0:0:0:0:
192,192,229196,128,0,229278:0:0:0:0:
448,192,229278,128,0,229360:0:0:0:0:
192,192,229360,128,0,229442:0:0:0:0:
64,192,229442,128,0,229524:0:0:0:0:
448,192,229524,128,0,229606:0:0:0:0:
192,192,229606,128,0,229688:0:0:0:0:
64,192,229688,128,0,229852:0:0:0:0:
448,192,229688,1,0,0:0:0:0:
320,192,229852,1,0,0:0:0:0:
192,192,229852,128,0,230016:0:0:0:0:
448,192,230016,128,0,230180:0:0:0:0:
320,192,230016,1,0,0:0:0:0:
64,192,230180,128,0,230508:0:0:0:0:
192,192,230180,128,0,230262:0:0:0:0:
320,192,230180,128,0,230262:0:0:0:0:
448,192,230262,128,0,230344:0:0:0:0:
320,192,230344,128,0,230426:0:0:0:0:
192,192,230426,128,0,230508:0:0:0:0:
320,192,230508,128,0,230590:0:0:0:0:
448,192,230508,128,0,230835:0:0:0:0:
192,192,230590,128,0,230672:0:0:0:0:
64,192,230672,128,0,230754:0:0:0:0:
320,192,230754,128,0,230835:0:0:0:0:
192,192,230835,128,0,231163:0:0:0:0:
64,192,230835,128,0,230917:0:0:0:0:
320,192,230917,128,0,230999:0:0:0:0:
448,192,230999,128,0,231081:0:0:0:0:
64,192,231081,128,0,231163:0:0:0:0:
448,192,231163,128,0,231245:0:0:0:0:
320,192,231163,128,0,231491:0:0:0:0:
192,192,231245,128,0,231327:0:0:0:0:
64,192,231327,128,0,231409:0:0:0:0:
448,192,231409,128,0,231491:0:0:0:0:
64,192,231491,128,0,231573:0:0:0:0:
192,192,231491,128,0,231573:0:0:0:0:
320,192,231655,128,0,231737:0:0:0:0:
448,192,231655,128,0,231737:0:0:0:0:
64,192,231655,128,0,231901:0:0:0:0:
192,192,231655,128,0,231901:0:0:0:0:
320,192,231819,128,0,231901:0:0:0:0:
448,192,231819,128,0,231901:0:0:0:0:
320,192,231983,128,0,232229:0:0:0:0:
448,192,231983,128,0,232229:0:0:0:0:
64,192,231983,128,0,232065:0:0:0:0:
192,192,231983,128,0,232065:0:0:0:0:
64,192,232147,128,0,232229:0:0:0:0:
192,192,232147,128,0,232229:0:0:0:0:
320,192,232311,1,0,0:0:0:0:
448,192,232311,1,0,0:0:0:0:
192,192,232475,1,0,0:0:0:0:
320,192,232475,1,0,0:0:0:0:
64,192,232639,1,0,0:0:0:0:
192,192,232639,1,0,0:0:0:0:
64,192,232803,128,0,233540:0:0:0:0:
448,192,232803,128,0,233540:0:0:0:0:
320,192,232803,128,0,232885:0:0:0:0:
192,192,232885,128,0,232967:0:0:0:0:
320,192,232967,128,0,233049:0:0:0:0:
192,192,233049,128,0,233131:0:0:0:0:
320,192,233131,128,0,233213:0:0:0:0:
192,192,233213,128,0,233295:0:0:0:0:
320,192,233295,128,0,233376:0:0:0:0:
192,192,233376,128,0,233458:0:0:0:0:
320,192,233458,128,0,233540:0:0:0:0:
64,192,233622,1,0,0:0:0:0:
192,192,233622,1,0,0:0:0:0:
320,192,233622,1,0,0:0:0:0:
448,192,233622,1,0,0:0:0:0:
64,192,233786,1,0,0:0:0:0:
192,192,233786,1,0,0:0:0:0:
320,192,233786,1,0,0:0:0:0:
448,192,233786,1,0,0:0:0:0:
