osu file format v14

[General]
AudioFilename: audio.mp3
AudioLeadIn: 0
PreviewTime: -1
Countdown: 1
SampleSet: None
StackLeniency: 0.7
Mode: 0
LetterboxInBreaks: 0
WidescreenStoryboard: 0

[Editor]
Bookmarks: 39442
DistanceSpacing: 1.7
BeatDivisor: 4
GridSize: 8
TimelineZoom: 1

[Metadata]
Title:closing eyes
TitleUnicode:closing eyes
Artist:*namirin
ArtistUnicode:*なみりん
Creator:LimeTwist
Version:Insane
Source:
Tags:Anime
BeatmapID:2017028
BeatmapSetID:963367

[Difficulty]
HPDrainRate:5
CircleSize:4
OverallDifficulty:5
ApproachRate:8
SliderMultiplier:1.4
SliderTickRate:1

[Events]
//Background and Video events
//Break Periods
//Storyboard Layer 0 (Background)
//Storyboard Layer 1 (Fail)
//Storyboard Layer 2 (Pass)
//Storyboard Layer 3 (Foreground)
//Storyboard Sound Samples

[TimingPoints]
836,327.868852459016,4,2,0,100,1,0
10999,-100,4,3,1,100,0,0
14688,-71.4285714285714,4,3,2,100,0,0
14934,-100,4,3,2,100,0,0
26983,-66.6666666666667,4,3,2,100,0,0
27229,-86.9565217391304,4,3,2,100,0,0
29800,-66.6666666666667,4,3,2,100,0,0
29934,-86.9565217391304,4,3,2,100,0,0
30262,-66.6666666666667,4,3,2,100,0,0
31163,-66.6666666666667,4,3,2,100,0,0
32885,-66.6666666666667,4,3,2,100,0,0
33049,-86.9565217391304,4,3,2,100,0,0
33868,-66.6666666666667,4,3,2,100,0,0

[HitObjects]
168,304,180,5,8,0:0:0:0:
256,248,344,1,8,0:0:0:0:
232,344,508,5,2,0:0:0:0:
344,256,672,1,2,0:0:0:0:
256,192,836,12,2,1737,0:0:0:0:
256,192,1901,12,0,3376,0:0:0:0:
256,192,3540,12,0,5999,0:0:0:0:
256,192,6163,12,0,7311,0:0:0:0:
256,192,7475,12,0,7967,0:0:0:0:
256,192,8131,12,0,8622,0:0:0:0:
256,192,8786,12,0,9360,0:0:0:0:
184,144,11327,6,8,B|200:208|200:208|176:280,1,140
120,200,11819,1,0,0:0:0:0:
104,112,11983,2,4,B|160:72|160:72|248:64,1,140
312,56,12475,1,0,0:0:0:0:
448,64,12639,6,8,B|448:128|448:128|400:208,1,140
280,120,13295,1,0,0:0:0:0:
200,128,13458,2,8,B|204:154|204:154|256:192,1,70
368,112,13786,2,0,B|366:86|366:86|320:48,1,70,8|8,0:0|0:0,0:0:0:0:
280,120,14114,6,8,L|324:184,1,70
240,224,14442,2,0,L|176:144,1,70
64,320,14770,2,8,P|112:348|160:320,1,97.9999970092774
216,336,15098,2,0,B|288:336,2,70
352,336,15590,1,8,0:0:0:0:
424,336,15754,2,0,P|412:304|384:284,2,70
344,336,16245,5,8,0:0:0:0:
432,224,16409,1,0,0:0:0:0:
448,88,16573,2,8,B|400:96|400:104|344:80|344:72|288:80,1,140
224,72,17065,2,0,L|136:80,2,70
304,48,17557,1,8,0:0:0:0:
386,70,17721,2,0,L|456:76,2,70
304,48,18213,5,8,0:0:0:0:
304,48,18376,1,0,0:0:0:0:
416,256,18540,2,0,B|400:280|400:280|360:291,2,70
288,292,19032,1,0,0:0:0:0:
160,256,19196,6,8,B|168:275|168:275|216:291,2,70
96,160,19688,1,0,0:0:0:0:
64,56,19852,2,0,P|112:48|136:48,1,70
212,56,20180,1,0,0:0:0:0:
288,64,20344,2,0,B|328:80|328:80|352:112,1,70
400,192,20672,1,0,0:0:0:0:
304,304,20835,5,8,0:0:0:0:
304,304,20999,1,0,0:0:0:0:
80,304,21163,2,0,L|160:304,1,70
192,224,21491,1,0,0:0:0:0:
296,192,21655,1,0,0:0:0:0:
376,328,21819,1,0,0:0:0:0:
408,232,21983,1,0,0:0:0:0:
400,144,22147,5,8,0:0:0:0:
336,96,22311,1,0,0:0:0:0:
80,80,22475,1,0,0:0:0:0:
160,152,22639,1,0,0:0:0:0:
64,240,22803,1,0,0:0:0:0:
160,256,22967,2,0,B|176:288|176:288|160:328,1,70
96,320,23295,6,8,B|64:336|64:336|26:320,1,70
64,240,23622,1,0,0:0:0:0:
64,40,23786,2,0,L|56:104,2,35
80,144,24032,2,0,L|96:192,2,35
160,176,24442,2,0,B|176:192|176:192|224:192,1,70
176,96,24770,5,8,0:0:0:0:
176,96,24934,1,0,0:0:0:0:
264,96,25098,2,0,B|328:88|328:88|360:160,1,140
256,240,25590,1,0,0:0:0:0:
128,144,25754,1,0,0:0:0:0:
176,288,25917,5,0,0:0:0:0:
200,80,26081,1,0,0:0:0:0:
320,16,26245,2,0,B|356:13|400:48,1,70
456,48,26573,2,0,P|456:80|456:136,1,70
336,96,27065,6,2,P|320:192|360:312,1,210.000008010865
296,288,27557,1,0,0:0:0:0:
280,192,27721,1,0,0:0:0:0:
288,104,27885,1,0,0:0:0:0:
216,104,28049,6,8,P|201:166|188:179,1,80.5000015354157
120,200,28376,2,0,P|110:161|126:125,1,80.5000015354157
312,72,28704,6,8,P|312:111|289:144,1,80.5000015354157
8,184,29032,2,0,P|11:145|45:110,1,80.5000015354157
128,64,29360,2,0,P|192:48|240:48,1,80.5000015354157
304,48,29688,5,12,0:0:0:0:
384,88,29852,2,0,P|416:136|432:192,1,105.000004005432
448,288,30180,1,0,0:0:0:0:
368,336,30344,6,8,P|320:336|240:320,2,105.000004005432
400,256,30835,1,0,0:0:0:0:
368,160,30999,1,0,0:0:0:0:
304,96,31163,1,0,0:0:0:0:
240,184,31327,1,0,0:0:0:0:
176,112,31491,1,0,0:0:0:0:
104,224,31655,1,0,0:0:0:0:
96,320,31819,2,0,L|208:320,1,105.000004005432
416,320,32311,6,8,P|432:224|416:96,1,210.000008010865
368,64,32967,2,0,L|224:64,1,105.000004005432
128,80,33295,1,0,0:0:0:0:
144,160,33458,2,6,P|154:225|181:248,1,80.5000015354157
208,304,33786,1,0,0:0:0:0:
288,320,33950,6,8,P|352:336|416:288,1,105.000004005432
448,240,34278,2,0,P|464:176|464:144,1,80.5000015354157
448,48,34606,5,8,0:0:0:0:
352,128,34770,2,0,L|336:224,1,80.5000015354157
320,336,35098,1,2,0:0:0:0:
432,304,35262,1,0,0:0:0:0:
432,208,35426,6,8,L|320:128,1,105.000004005432
120,224,35917,6,0,L|96:64,1,161.000003070831
223,162,36409,2,0,L|192:320,1,161.000003070831
0,192,36901,2,0,L|26:33,1,161.000003070831
128,64,37557,2,0,L|320:64,1,161.000003070831
384,112,38049,6,8,B|416:144|416:144|384:208,1,80.5000015354157
320,160,38376,1,0,0:0:0:0:
480,152,38540,2,0,L|480:264,1,80.5000015354157
424,304,38868,1,0,0:0:0:0:
352,328,39032,2,0,B|288:328|288:328|216:328,1,105.000004005432,2|8,0:0|0:0,0:0:0:0:
288,176,39360,2,0,L|400:224,1,105.000004005432
224,352,39688,2,0,L|144:272,1,105.000004005432
368,96,40016,2,0,L|448:176,1,105.000004005432
