osu file format v14

[General]
AudioFilename: audio.mp3
AudioLeadIn: 0
PreviewTime: 51286
Countdown: 0
SampleSet: Soft
StackLeniency: 0.7
Mode: 0
LetterboxInBreaks: 0
WidescreenStoryboard: 0

[Editor]
DistanceSpacing: 1.4
BeatDivisor: 4
GridSize: 32
TimelineZoom: 1.3

[Metadata]
Title:closing eyes
TitleUnicode:closing eyes
Artist:*namirin
ArtistUnicode:*なみりん
Creator:Lasse
Version:Hard
Source:
Tags:5colors mapping with rewards mwr 2017 featured artist
BeatmapID:1418225
BeatmapSetID:670579

[Difficulty]
HPDrainRate:5.8
CircleSize:3.8
OverallDifficulty:6.5
ApproachRate:7.8
SliderMultiplier:1.4
SliderTickRate:1

[Events]
//Background and Video events
0,0,"bg.jpg",0,0
//Break Periods
2,158213,167919
2,198166,200835
//Storyboard Layer 0 (Background)
//Storyboard Layer 1 (Fail)
//Storyboard Layer 2 (Pass)
//Storyboard Layer 3 (Foreground)
//Storyboard Sound Samples

[TimingPoints]
830,327.868852459016,4,2,0,68,1,0
3698,-100,4,2,0,5,0,0
3780,-100,4,2,0,68,0,0
11157,-100,4,2,0,54,0,0
11321,-111.111111111111,4,2,0,56,0,0
14190,-111.111111111111,4,2,0,5,0,0
14272,-111.111111111111,4,2,0,56,0,0
19436,-111.111111111111,4,2,0,5,0,0
19518,-111.111111111111,4,2,0,56,0,0
32305,-111.111111111111,4,2,0,58,0,0
42797,-100,4,2,0,66,0,0
43043,-100,4,2,0,5,0,0
43125,-100,4,2,0,66,0,0
45666,-100,4,2,0,5,0,0
45748,-100,4,2,0,66,0,0
48698,-100,4,2,0,68,0,0
49354,-100,4,2,0,60,0,0
50010,-100,4,2,0,64,0,0
50092,-100,4,2,0,66,0,0
50174,-100,4,2,0,68,0,0
50338,-100,4,2,0,70,0,0
50502,-100,4,2,0,72,0,0
52633,-125,4,2,0,50,0,0
52879,-125,4,2,0,5,0,0
52961,-111.111111111111,4,2,0,60,0,0
53289,-90.9090909090909,4,2,0,74,0,1
56157,-90.9090909090909,4,2,0,5,0,1
56239,-90.9090909090909,4,2,0,74,0,1
58780,-90.9090909090909,4,2,0,5,0,1
58862,-90.9090909090909,4,2,0,74,0,1
60993,-83.3333333333333,4,2,0,74,0,1
61239,-83.3333333333333,4,2,0,5,0,1
61321,-83.3333333333333,4,2,0,74,0,1
62305,-76.9230769230769,4,2,0,76,0,1
62797,-76.9230769230769,4,2,0,68,0,1
63125,-100,4,2,0,70,0,0
63616,-90.9090909090909,4,2,0,74,0,1
66649,-90.9090909090909,4,2,0,5,0,1
66731,-90.9090909090909,4,2,0,74,0,1
72797,-90.9090909090909,4,2,0,76,0,1
73043,-90.9090909090909,4,2,0,5,0,1
73125,-90.9090909090909,4,2,0,74,0,1
73452,-90.9090909090909,4,2,0,78,0,1
73698,-90.9090909090909,4,2,0,5,0,1
73780,-90.9090909090909,4,2,0,74,0,1
75420,-90.9090909090909,4,2,0,76,0,1
75666,-90.9090909090909,4,2,0,5,0,1
75748,-90.9090909090909,4,2,0,74,0,1
76321,-90.9090909090909,4,2,0,5,0,1
76403,-90.9090909090909,4,2,0,74,0,1
76895,-90.9090909090909,4,2,0,76,0,1
77141,-90.9090909090909,4,2,0,5,0,1
77223,-90.9090909090909,4,2,0,76,0,1
77469,-90.9090909090909,4,2,0,5,0,1
77551,-83.3333333333333,4,2,0,74,0,1
78043,-83.3333333333333,4,2,0,78,0,1
78289,-90.9090909090909,4,2,0,5,0,1
78370,-90.9090909090909,4,2,0,76,0,1
79026,-100,4,2,0,70,0,0
79354,-100,4,2,0,48,0,0
79518,-100,4,2,0,68,0,0
82387,-100,4,2,0,5,0,0
82469,-100,4,2,0,68,0,0
89354,-100,4,2,0,66,0,0
89600,-100,4,2,0,64,0,0
89846,-100,4,2,0,62,0,0
90009,-111.111111111111,4,2,0,56,0,0
92879,-111.111111111111,4,2,0,5,0,0
92961,-111.111111111111,4,2,0,56,0,0
95502,-111.111111111111,4,2,0,5,0,0
95584,-111.111111111111,4,2,0,56,0,0
97551,-111.111111111111,4,2,0,58,0,0
97633,-111.111111111111,4,2,0,56,0,0
97715,-111.111111111111,4,2,0,54,0,0
97797,-111.111111111111,4,2,0,52,0,0
97879,-111.111111111111,4,2,0,50,0,0
99026,-125,4,2,0,34,0,0
99354,-125,4,2,0,32,0,0
99682,-125,4,2,0,48,0,0
100010,-125,4,2,0,50,0,0
100174,-125,4,2,0,52,0,0
100256,-125,4,2,0,54,0,0
100338,-125,4,2,0,56,0,0
100420,-125,4,2,0,58,0,0
100502,-111.111111111111,4,2,0,56,0,0
100748,-111.111111111111,4,2,0,5,0,0
100829,-111.111111111111,4,2,0,56,0,0
103370,-111.111111111111,4,2,0,5,0,0
103452,-111.111111111111,4,2,0,56,0,0
104928,-111.111111111111,4,2,0,58,0,0
105092,-111.111111111111,4,2,0,56,0,0
105256,-111.111111111111,4,2,0,54,0,0
105420,-111.111111111111,4,2,0,52,0,0
105584,-111.111111111111,4,2,0,50,0,0
105748,-111.111111111111,4,2,0,60,0,0
105993,-111.111111111111,4,2,0,5,0,0
106075,-111.111111111111,4,2,0,60,0,0
110993,-111.111111111111,4,2,0,58,0,0
121485,-100,4,2,0,66,0,0
121731,-100,4,2,0,5,0,0
121813,-100,4,2,0,66,0,0
124354,-100,4,2,0,5,0,0
124436,-100,4,2,0,66,0,0
127386,-100,4,2,0,68,0,0
128042,-100,4,2,0,60,0,0
128698,-100,4,2,0,64,0,0
128780,-100,4,2,0,66,0,0
128862,-100,4,2,0,68,0,0
129026,-100,4,2,0,70,0,0
129190,-100,4,2,0,72,0,0
131321,-125,4,2,0,50,0,0
131567,-125,4,2,0,5,0,0
131649,-111.111111111111,4,2,0,60,0,0
131977,-90.9090909090909,4,2,0,74,0,1
134846,-90.9090909090909,4,2,0,5,0,1
134928,-90.9090909090909,4,2,0,74,0,1
137469,-90.9090909090909,4,2,0,5,0,1
137551,-90.9090909090909,4,2,0,74,0,1
139682,-83.3333333333333,4,2,0,74,0,1
139928,-83.3333333333333,4,2,0,5,0,1
140009,-83.3333333333333,4,2,0,74,0,1
140993,-83.3333333333333,4,2,0,76,0,1
141485,-83.3333333333333,4,2,0,68,0,1
141813,-100,4,2,0,70,0,0
142305,-90.9090909090909,4,2,0,74,0,1
145338,-90.9090909090909,4,2,0,5,0,1
145420,-90.9090909090909,4,2,0,74,0,1
151485,-90.9090909090909,4,2,0,76,0,1
151731,-90.9090909090909,4,2,0,5,0,1
151813,-90.9090909090909,4,2,0,74,0,1
152141,-90.9090909090909,4,2,0,78,0,1
152387,-90.9090909090909,4,2,0,5,0,1
152469,-90.9090909090909,4,2,0,74,0,1
154108,-90.9090909090909,4,2,0,76,0,1
154354,-90.9090909090909,4,2,0,5,0,1
154436,-90.9090909090909,4,2,0,74,0,1
155010,-90.9090909090909,4,2,0,5,0,1
155092,-90.9090909090909,4,2,0,74,0,1
155584,-90.9090909090909,4,2,0,76,0,1
155829,-90.9090909090909,4,2,0,5,0,1
155911,-90.9090909090909,4,2,0,76,0,1
156157,-90.9090909090909,4,2,0,5,0,1
156239,-83.3333333333333,4,2,0,74,0,1
156731,-83.3333333333333,4,2,0,78,0,1
156977,-90.9090909090909,4,2,0,5,0,1
157059,-90.9090909090909,4,2,0,76,0,1
157715,-100,4,2,0,70,0,0
158043,-100,4,2,0,48,0,0
158207,-125,4,2,0,64,0,0
168698,-125,4,2,0,60,0,0
173944,-111.111111111111,4,2,0,62,0,0
176567,-99.9999999999999,4,2,0,64,0,0
179190,-111.111111111111,4,2,0,58,0,0
189682,-100,4,2,0,66,0,0
189928,-100,4,2,0,5,0,0
190010,-100,4,2,0,66,0,0
192551,-100,4,2,0,5,0,0
192633,-100,4,2,0,66,0,0
195584,-100,4,2,0,68,0,0
196239,-100,4,2,0,60,0,0
196895,-100,4,2,0,64,0,0
196977,-100,4,2,0,66,0,0
197059,-100,4,2,0,68,0,0
197223,-100,4,2,0,70,0,0
197387,-100,4,2,0,72,0,0
202141,-125,4,2,0,50,0,0
202387,-100,4,2,0,5,0,0
202469,-111.111111111111,4,2,0,60,0,0
202797,-86.9565217391304,4,2,0,76,0,1
205666,-86.9565217391304,4,2,0,5,0,1
205748,-86.9565217391304,4,2,0,76,0,1
208043,-100,4,2,0,74,0,0
209190,-100,4,2,0,76,0,1
209354,-100,4,2,0,72,0,0
210338,-100,4,2,0,58,0,0
210502,-83.3333333333333,4,2,0,74,0,1
210748,-83.3333333333333,4,2,0,5,0,1
210829,-83.3333333333333,4,2,0,74,0,1
211813,-83.3333333333333,4,2,0,76,0,1
211814,-76.9230769230769,4,2,0,76,0,1
212305,-76.9230769230769,4,2,0,62,0,1
212387,-76.9230769230769,4,2,0,64,0,1
212469,-76.9230769230769,4,2,0,66,0,1
212551,-76.9230769230769,4,2,0,68,0,1
212633,-100,4,2,0,70,0,0
213125,-90.9090909090909,4,2,0,74,0,1
216157,-90.9090909090909,4,2,0,5,0,1
216239,-90.9090909090909,4,2,0,74,0,1
222305,-90.9090909090909,4,2,0,76,0,1
222551,-90.9090909090909,4,2,0,5,0,1
222633,-90.9090909090909,4,2,0,74,0,1
222961,-90.9090909090909,4,2,0,78,0,1
223207,-90.9090909090909,4,2,0,5,0,1
223289,-90.9090909090909,4,2,0,74,0,1
224928,-90.9090909090909,4,2,0,76,0,1
225174,-90.9090909090909,4,2,0,5,0,1
225256,-90.9090909090909,4,2,0,74,0,1
225829,-90.9090909090909,4,2,0,5,0,1
225911,-90.9090909090909,4,2,0,74,0,1
226403,-90.9090909090909,4,2,0,76,0,1
226649,-90.9090909090909,4,2,0,5,0,1
226731,-90.9090909090909,4,2,0,76,0,1
226977,-90.9090909090909,4,2,0,5,0,1
227059,-83.3333333333333,4,2,0,74,0,1
227551,-83.3333333333333,4,2,0,76,0,1
227797,-90.9090909090909,4,2,0,5,0,1
227879,-90.9090909090909,4,2,0,76,0,1
228370,-100,4,2,0,72,0,0
228534,-100,4,2,0,70,0,0
228862,-86.9565217391304,4,2,0,76,0,1
229190,-86.9565217391304,4,2,0,74,0,1
230174,-86.9565217391304,4,2,0,76,0,1
230420,-86.9565217391304,4,2,0,5,0,1
230502,-86.9565217391304,4,2,0,74,0,1
231075,-86.9565217391304,4,2,0,5,0,1
231157,-86.9565217391304,4,2,0,74,0,1
231649,-86.9565217391304,4,2,0,77,0,1
231895,-86.9565217391304,4,2,0,5,0,1
231977,-86.9565217391304,4,2,0,77,0,1
232223,-86.9565217391304,4,2,0,5,0,1
232305,-80,4,2,0,74,0,1
232797,-80,4,2,0,77,0,1
233043,-86.9565217391304,4,2,0,5,0,1
233125,-86.9565217391304,4,2,0,78,0,1
233289,-86.9565217391304,4,2,0,75,0,1
233780,-76.9230769230769,4,2,0,70,0,0
234108,-100,4,2,0,48,0,0
234272,-100,4,2,0,68,0,0
237141,-100,4,2,0,5,0,0
237223,-100,4,2,0,68,0,0
242141,-100,4,2,0,68,0,0
244108,-100,4,2,0,70,0,0

[Colours]
Combo1 : 250,140,140
Combo2 : 150,240,240
Combo3 : 255,230,150
Combo4 : 160,240,160

[HitObjects]
7,72,174,6,0,L|104:58,1,70,2|2,3:0|3:0,0:0:0:0:
141,117,502,2,0,L|231:105,1,70,2|2,3:0|3:0,0:0:0:0:
288,168,830,6,0,P|291:98|303:23,2,140,6|0|0,3:2|1:2|0:3,0:0:0:0:
288,168,1649,1,0,3:2:0:0:
363,230,1813,1,0,1:2:0:0:
451,186,1977,2,0,P|461:116|464:46,1,140,2|0,3:2|3:2,0:0:0:0:
382,102,2469,1,0,1:2:0:0:
382,102,2633,1,2,0:2:0:0:
198,32,2961,1,0,3:2:0:0:
198,32,3125,1,0,1:2:0:0:
62,172,3452,6,0,P|59:102|47:27,2,140,2|2|2,3:2|1:2|0:2,0:0:0:0:
62,172,4272,1,0,3:2:0:0:
117,252,4436,1,0,1:2:0:0:
202,204,4600,2,0,P|271:193|341:190,1,140,2|0,3:2|3:2,0:0:0:0:
432,226,5092,1,0,1:2:0:0:
273,110,5420,2,0,P|273:84|277:57,2,35,2|0|2,3:2|0:2|3:2,0:0:0:0:
232,199,5748,2,0,P|234:220|236:252,2,35,6|0|2,1:2|0:2|3:2,0:0:0:0:
175,119,6075,6,0,P|146:92|54:105,2,140,6|0|0,3:2|1:2|0:2,0:0:0:0:
175,119,6895,1,0,3:2:0:0:
232,199,7059,1,0,1:2:0:0:
273,110,7223,2,0,P|330:74|394:96,1,140,2|0,3:2|3:2,0:0:0:0:
449,178,7715,1,0,1:2:0:0:
299,305,8043,2,0,P|264:298|202:293,2,70,2|0|0,0:2|3:2|1:2,0:0:0:0:
449,178,8698,6,0,B|464:138|464:138|452:107|452:107|458:34,2,140,6|0|0,3:2|1:2|0:2,0:0:0:0:
380,248,9518,1,2,3:2:0:0:
293,205,9682,1,2,1:2:0:0:
307,108,9846,1,6,3:2:0:0:
476,273,10174,2,0,P|476:302|480:350,2,70,2|0|0,3:2|1:2|3:2,0:0:0:0:
449,178,10666,1,0,1:2:0:0:
380,248,10829,1,0,3:2:0:0:
221,140,11157,1,2,0:2:0:0:
160,195,11321,6,0,L|28:185,2,125.999996154785,6|0|0,3:2|1:2|0:2,0:0:0:0:
271,315,12305,1,2,1:2:0:0:
329,257,12469,2,0,L|333:194,1,62.9999980773926,2|0,3:2|0:2,0:0:0:0:
300,118,12797,2,0,L|247:82,1,62.9999980773926,2|0,3:2|1:2,0:0:0:0:
165,73,13125,2,0,L|108:100,1,62.9999980773926,2|0,0:2|0:2,0:0:0:0:
58,167,13452,2,0,L|53:229,1,62.9999980773926,2|0,3:2|1:2,0:0:0:0:
180,333,13944,5,2,3:2:0:0:
255,187,14272,1,2,1:2:0:0:
343,324,14600,2,0,L|433:316,1,62.9999980773926,2|0,0:2|3:2,0:0:0:0:
484,357,14928,1,2,1:2:0:0:
484,357,15092,1,2,0:2:0:0:
469,193,15420,2,0,L|379:177,1,62.9999980773926,2|0,3:2|1:2,0:0:0:0:
314,47,15911,2,0,L|403:31,2,62.9999980773926,2|0|0,0:2|3:2|1:2,0:0:0:0:
158,101,16567,6,0,L|7:90,2,125.999996154785,2|0|0,3:2|1:2|0:2,0:0:0:0:
221,252,17551,1,0,1:2:0:0:
265,182,17715,2,0,L|276:112,1,62.9999980773926,2|0,0:2|0:2,0:0:0:0:
314,47,18043,2,0,L|383:35,1,62.9999980773926,2|0,3:2|1:2,0:0:0:0:
457,51,18370,2,0,L|489:112,1,62.9999980773926,2|0,0:2|0:2,0:0:0:0:
497,188,18698,2,0,L|448:238,1,62.9999980773926,2|0,3:2|1:2,0:0:0:0:
434,316,19026,1,2,0:2:0:0:
372,259,19190,6,0,L|239:249,2,125.999996154785,2|0|0,3:2|1:2|0:2,0:0:0:0:
434,316,20010,1,2,3:2:0:0:
453,232,20174,1,2,1:2:0:0:
472,148,20338,1,2,0:2:0:0:
318,90,20666,2,0,L|298:9,1,62.9999980773926,2|2,3:2|1:2,0:0:0:0:
101,171,21321,2,0,L|113:91,1,62.9999980773926,0|0,3:2|1:2,0:0:0:0:
141,32,21649,1,2,0:2:0:0:
192,101,21813,6,0,L|324:89,2,125.999996154785,6|0|0,3:2|1:2|0:2,0:0:0:0:
40,37,22797,1,2,1:2:0:0:
9,112,22961,2,0,L|13:175,1,62.9999980773926,2|0,2:2|0:2,0:0:0:0:
41,252,23289,2,0,L|88:293,1,62.9999980773926,2|0,3:2|1:2,0:0:0:0:
162,328,23616,2,0,L|225:324,1,62.9999980773926,2|0,0:2|0:2,0:0:0:0:
301,296,23944,2,0,L|342:248,1,62.9999980773926,2|0,3:2|1:2,0:0:0:0:
422,240,24272,1,2,0:2:0:0:
376,175,24436,6,0,L|367:40,2,125.999996154785,2|2|0,3:2|1:2|0:2,0:0:0:0:
422,240,25256,1,2,3:2:0:0:
342,248,25420,1,0,1:2:0:0:
262,256,25584,1,2,3:2:0:0:
118,334,25911,2,0,L|28:318,1,62.9999980773926,2|0,3:2|1:2,0:0:0:0:
0,166,26403,2,0,L|-2:77,2,62.9999980773926,2|0|0,0:2|3:2|1:2,0:0:0:0:
136,256,27059,6,0,L|268:255,1,125.999996154785,6|0,3:2|1:2,0:0:0:0:
386,362,27715,1,2,0:2:0:0:
455,319,27879,2,0,L|458:249,1,62.9999980773926,2|0,3:2|1:2,0:0:0:0:
507,189,28207,2,0,L|463:138,1,62.9999980773926,2|0,0:2|0:2,0:0:0:0:
452,60,28534,2,0,L|385:55,1,62.9999980773926,2|0,3:2|1:2,0:0:0:0:
322,8,28862,2,0,L|271:51,1,62.9999980773926,2|0,0:2|0:2,0:0:0:0:
193,63,29190,2,0,L|188:129,1,62.9999980773926,2|0,3:2|1:2,0:0:0:0:
206,206,29518,1,2,0:2:0:0:
127,181,29682,6,0,L|-6:171,2,125.999996154785,4|0|0,3:2|1:2|0:2,0:0:0:0:
206,206,30502,1,2,3:2:0:0:
188,125,30666,1,0,1:2:0:0:
170,44,30829,2,0,L|37:34,2,125.999996154785,6|8|0,3:2|3:3|3:0,0:0:0:0:
250,69,31649,2,0,L|342:75,2,62.9999980773926,10|8|12,3:3|3:3|3:3,0:0:0:0:
157,155,32305,6,0,P|125:143|86:142,1,62.9999980773926,6|2,3:2|0:2,0:0:0:0:
0,223,32797,1,2,3:2:0:0:
0,223,32961,1,2,1:2:0:0:
82,318,33289,2,0,P|114:306|153:305,1,62.9999980773926,2|2,3:2|0:2,0:0:0:0:
256,346,33780,1,2,3:2:0:0:
256,346,33944,1,2,1:2:0:0:
370,303,34272,1,2,3:2:0:0:
390,178,34600,1,2,1:2:0:0:
333,65,34928,6,0,P|303:53|272:50,1,62.9999980773926,2|2,3:2|0:2,0:0:0:0:
153,94,35420,1,2,3:2:0:0:
153,94,35584,1,2,1:2:0:0:
254,167,35911,2,0,P|283:155|314:152,1,62.9999980773926,2|2,3:2|0:2,0:0:0:0:
430,204,36403,1,2,3:2:0:0:
430,204,36567,1,2,1:2:0:0:
378,318,36895,1,2,3:2:0:0:
256,284,37223,1,2,1:2:0:0:
134,318,37551,6,0,P|102:315|73:303,1,62.9999980773926,6|2,3:2|0:2,0:0:0:0:
4,197,38043,1,2,3:2:0:0:
4,197,38207,1,2,1:2:0:0:
129,187,38534,2,0,P|160:184|189:172,1,62.9999980773926,2|2,3:2|0:2,0:0:0:0:
256,63,39026,1,2,3:2:0:0:
256,63,39190,1,2,1:2:0:0:
323,172,39518,1,2,3:2:0:0:
364,291,39846,1,2,1:2:0:0:
469,222,40174,6,0,P|437:219|408:207,1,62.9999980773926,2|2,3:2|0:2,0:0:0:0:
357,92,40666,1,2,3:2:0:0:
357,92,40829,1,2,1:2:0:0:
232,112,41157,2,0,P|199:112|169:104,1,62.9999980773926,2|2,3:2|0:2,0:0:0:0:
63,49,41649,1,2,3:2:0:0:
63,49,41813,1,2,1:2:0:0:
22,168,42141,2,0,B|32:242,1,62.9999980773926,2|0,0:2|3:3,0:0:0:0:
35,245,42387,1,8,3:3:0:0:
38,261,42469,1,6,3:2:0:0:
186,340,42797,6,0,P|263:317|343:318,1,140,6|0,3:2|1:2,0:0:0:0:
408,363,43289,2,0,P|411:324|417:274,1,70,2|0,0:2|0:2,0:0:0:0:
476,217,43616,2,0,P|473:178|467:128,1,70,2|0,3:2|1:2,0:0:0:0:
399,77,43944,6,0,P|329:73|262:52,1,140,2|0,0:2|3:2,0:0:0:0:
164,54,44436,1,2,1:2:0:0:
164,54,44600,1,2,0:2:0:0:
268,219,44928,2,0,P|273:183|274:149,1,70,2|0,3:2|1:2,0:0:0:0:
179,177,45256,5,2,0:2:0:0:
179,177,45420,2,0,P|112:155|42:152,1,140,2|0,3:2|1:2,0:0:0:0:
154,313,46075,2,0,P|186:300|221:295,2,70,2|0|0,3:2|3:2|1:2,0:0:0:0:
68,361,46567,1,2,0:2:0:0:
6,284,46731,5,2,3:2:0:0:
115,121,47059,1,2,1:2:0:0:
154,313,47387,2,0,P|186:325|221:330,1,70,2|0,0:2|3:2,0:0:0:0:
303,275,47715,1,2,1:2:0:0:
393,312,47879,1,6,3:2:0:0:
459,127,48207,6,0,P|461:83|464:50,2,70,8|8|8,3:3|3:3|3:3,0:0:0:0:
417,215,48698,1,12,1:3:0:0:
417,215,48862,1,8,1:3:0:0:
336,159,49026,1,8,1:3:0:0:
336,159,49190,1,8,1:3:0:0:
243,190,49354,6,0,L|93:178,2,140,2|6|12,0:3|0:3|3:3,0:0:0:0:
256,201,50092,1,8,3:3:0:0:
266,215,50174,1,2,1:2:0:0:
341,298,50338,1,2,1:2:0:0:
417,215,50502,1,6,1:2:0:0:
441,361,52633,6,0,P|444:322|443:288,1,56,2|0,0:2|0:0,0:0:0:0:
491,228,52961,2,0,P|490:196|493:155,1,62.9999980773926,0|8,1:0|0:3,0:0:0:0:
439,68,53289,6,0,B|362:46|367:104|290:81,2,154.000004699707,6|0|0,3:2|1:2|0:2,0:0:0:0:
439,68,54108,1,0,3:2:0:0:
492,165,54272,1,0,1:2:0:0:
410,235,54436,6,0,P|364:220|327:219,1,77.0000023498536,2|0,0:2|0:2,0:0:0:0:
275,308,54764,2,0,P|311:321|350:325,1,77.0000023498536,2|0,3:2|1:2,0:0:0:0:
336,218,55092,2,0,P|290:203|253:202,1,77.0000023498536,2|0,0:2|0:2,0:0:0:0:
201,292,55420,2,0,P|237:305|275:308,1,77.0000023498536,2|0,0:2|1:2,0:0:0:0:
265,205,55748,5,2,0:2:0:0:
265,205,55911,2,0,B|254:174|275:143|275:143|289:89|247:60,2,154.000004699707,2|0|2,3:2|1:2|0:2,0:0:0:0:
265,205,56731,1,0,3:2:0:0:
201,292,56895,2,0,P|161:277|116:281,1,77.0000023498536,2|0,1:2|0:2,0:0:0:0:
90,176,57223,6,0,P|105:136|102:91,2,77.0000023498536,2|0|0,0:2|3:2|1:2,0:0:0:0:
131,282,57715,1,2,0:2:0:0:
131,282,57879,2,0,P|153:312|164:348,2,77.0000023498536,2|0|0,0:2|3:2|1:2,0:0:0:0:
24,262,58370,5,2,0:2:0:0:
90,176,58534,1,2,3:2:0:0:
299,226,58862,1,2,1:2:0:0:
376,151,59026,2,0,P|388:114|381:77,1,77.0000023498536,2|0,0:2|3:2,0:0:0:0:
274,59,59354,2,0,P|252:90|250:128,1,77.0000023498536,2|0,0:2|1:2,0:0:0:0:
299,226,59682,6,0,P|369:199|438:229,1,154.000004699707,2|0,3:2|3:2,0:0:0:0:
472,330,60174,1,2,1:2:0:0:
367,310,60338,1,2,0:2:0:0:
509,148,60666,2,0,P|517:111|508:64,1,77.0000023498536,2|0,3:2|1:2,0:0:0:0:
394,62,60993,6,0,B|334:40|280:72|280:72|219:46,1,167.999994873047,6|2,3:2|3:2,0:0:0:0:
117,35,61485,1,0,1:2:0:0:
161,154,61649,1,0,1:2:0:0:
161,154,61731,1,0,1:2:0:0:
161,154,61813,2,0,P|168:193|161:242,2,83.9999974365235,0|8|8,3:3|3:3|1:3,0:0:0:0:
43,204,62305,6,0,B|89:184|134:193|134:193|161:154|161:154|225:188|292:167,1,272.999987503052,6|0,0:2|1:2,0:0:0:0:
471,94,63125,2,0,L|473:59,4,35,2|2|2|2|2,3:2|3:2|3:2|3:2|1:3,0:0:0:0:
428,191,63616,6,0,P|363:153|289:168,1,154.000004699707,6|0,3:2|3:2,0:0:0:0:
206,237,64108,2,0,P|272:275|346:261,1,154.000004699707,0|0,1:2|0:2,0:0:0:0:
345,261,64600,1,0,3:2:0:0:
428,191,64764,1,2,1:2:0:0:
471,94,64928,6,0,P|431:84|390:92,1,77.0000023498536,2|0,3:2|0:2,0:0:0:0:
309,154,65256,2,0,P|279:125|239:111,1,77.0000023498536,2|0,0:2|1:2,0:0:0:0:
138,124,65584,2,0,P|126:84|99:52,1,77.0000023498536,2|0,0:2|0:2,0:0:0:0:
29,134,65911,2,0,P|39:171|63:202,1,77.0000023498536,2|0,3:2|1:2,0:0:0:0:
172,233,66239,5,2,0:2:0:0:
172,233,66403,2,0,B|262:220|238:265|321:255,2,154.000004699707,2|0|0,3:2|1:2|3:2,0:0:0:0:
18,384,67387,2,0,P|11:347|21:303,1,77.0000023498536,2|0,1:2|3:2,0:0:0:0:
59,208,67715,6,0,P|66:171|56:127,2,77.0000023498536,2|0|0,0:2|3:2|1:2,0:0:0:0:
125,294,68207,2,0,P|188:252|264:254,1,154.000004699707,2|0,0:2|3:2,0:0:0:0:
348,321,68698,1,2,1:2:0:0:
508,176,69026,6,0,P|501:139|511:95,1,77.0000023498536,4|2,3:2|3:2,0:0:0:0:
439,16,69354,1,2,1:2:0:0:
439,16,69518,1,2,0:2:0:0:
357,86,69682,1,2,0:2:0:0:
256,47,69846,2,0,P|219:34|181:36,1,77.0000023498536,2|0,3:2|1:2,0:0:0:0:
128,153,70174,6,0,P|164:140|203:142,1,77.0000023498536,6|0,0:2|0:2,0:0:0:0:
304,178,70502,1,2,3:2:0:0:
302,285,70666,1,2,1:2:0:0:
206,333,70829,2,0,P|167:333|131:320,1,77.0000023498536,2|0,0:2|0:2,0:0:0:0:
59,240,71157,1,2,3:2:0:0:
128,153,71321,2,0,P|141:117|140:78,1,77.0000023498536,2|0,1:2|0:2,0:0:0:0:
18,28,71649,5,6,3:2:0:0:
59,240,71977,1,2,1:2:0:0:
138,167,72141,2,0,P|173:153|212:154,1,77.0000023498536,2|0,0:2|3:2,0:0:0:0:
301,216,72469,1,2,0:2:0:0:
408,209,72633,1,2,1:2:0:0:
469,120,72797,5,6,3:2:0:0:
323,287,73125,2,0,P|303:253|301:215,1,77.0000023498536,2|0,3:2|1:2,0:0:0:0:
212,154,73452,2,0,P|229:120|230:81,1,77.0000023498536,6|0,3:2|0:0,0:0:0:0:
125,56,73780,2,0,P|107:89|106:128,1,77.0000023498536,2|0,3:2|1:2,0:0:0:0:
135,244,74108,5,2,0:2:0:0:
135,244,74272,2,0,P|81:198|-2:203,2,154.000004699707,6|0|0,3:2|1:2|0:2,0:0:0:0:
135,244,75092,1,0,3:2:0:0:
219,311,75256,1,2,1:2:0:0:
323,287,75420,5,6,3:2:0:0:
231,117,75748,2,0,P|231:78|250:45,1,77.0000023498536,2|0,3:2|1:2,0:0:0:0:
355,22,76075,2,0,P|387:41|407:74,1,77.0000023498536,6|0,3:2|0:0,0:0:0:0:
375,176,76403,2,0,P|341:194|303:195,1,77.0000023498536,2|0,3:2|1:2,0:0:0:0:
231,117,76731,1,2,0:2:0:0:
186,234,76895,5,6,3:2:0:0:
355,22,77223,1,4,1:2:0:0:
434,281,77551,2,0,L|523:297,2,83.9999974365235,4|8|4,0:2|3:3|1:3,0:0:0:0:
315,322,78043,6,0,B|253:312|253:312|212:326|212:326|151:319,1,167.999994873047,6|0,3:2|3:2,0:0:0:0:
61,273,78534,2,0,L|55:178,1,77.0000023498536,2|0,1:2|3:3,0:0:0:0:
63,177,78780,1,8,3:3:0:0:
72,160,78862,1,2,3:2:0:0:
104,67,79026,1,2,0:2:0:0:
256,128,79354,1,2,0:2:0:0:
330,64,79518,6,0,P|401:49|488:47,2,140,6|0|0,3:2|1:2|0:3,0:0:0:0:
330,64,80338,1,0,3:2:0:0:
261,125,80502,1,0,1:2:0:0:
182,64,80666,2,0,P|111:49|24:47,1,140,2|0,3:2|3:2,0:0:0:0:
11,141,81157,1,0,1:2:0:0:
11,141,81321,1,2,0:2:0:0:
62,330,81649,1,0,3:2:0:0:
62,330,81813,1,0,1:2:0:0:
240,249,82141,6,0,P|311:234|398:232,2,140,2|2|2,3:2|1:2|0:2,0:0:0:0:
240,249,82961,1,0,3:2:0:0:
174,322,83125,1,0,1:2:0:0:
104,253,83289,2,0,P|89:182|87:95,1,140,2|0,3:2|3:2,0:0:0:0:
135,29,83780,1,0,1:2:0:0:
329,52,84108,2,0,P|343:48|362:42,2,35,2|0|2,3:2|0:2|3:2,0:0:0:0:
256,119,84436,2,0,P|241:115|222:111,2,35,6|0|2,1:2|0:2|3:2,0:0:0:0:
347,152,84764,6,0,P|379:213|356:276,2,140,6|0|0,3:2|1:2|0:2,0:0:0:0:
348,153,85584,1,0,3:2:0:0:
256,119,85748,1,0,1:2:0:0:
164,152,85911,2,0,P|132:213|155:276,1,140,2|0,3:2|3:2,0:0:0:0:
256,302,86403,1,0,1:2:0:0:
68,358,86731,2,0,P|33:351|-29:346,2,70,2|0|0,0:2|3:2|1:2,0:0:0:0:
146,179,87387,6,0,P|155:133|158:103,1,70,2|0,3:2|3:2,0:0:0:0:
234,48,87715,2,0,B|274:33|274:33|304:43|304:43|369:39,1,140,4|0,1:2|1:0,0:0:0:0:
466,25,88207,1,2,3:2:0:0:
510,113,88370,1,2,1:2:0:0:
439,182,88534,1,6,3:2:0:0:
489,371,88862,2,0,P|497:329|498:287,1,70,2|0,3:2|1:2,0:0:0:0:
414,271,89190,1,12,3:3:0:0:
414,271,89272,1,8,3:3:0:0:
414,271,89354,2,0,P|359:260|310:244,2,105,10|8|8,3:3|3:3|3:3,0:0:0:0:
439,182,90010,6,0,L|444:50,1,125.999996154785,6|0,3:2|0:2,0:0:0:0:
356,69,90502,2,0,L|277:55,1,62.9999980773926,0|0,3:0|1:0,0:0:0:0:
121,22,90993,1,2,0:2:0:0:
186,81,91157,2,0,L|233:122,1,62.9999980773926,2|0,3:2|0:0,0:0:0:0:
264,200,91485,2,0,L|251:262,1,62.9999980773926,2|0,0:2|0:0,0:0:0:0:
200,327,91813,2,0,L|140:348,1,62.9999980773926,2|0,0:2|1:0,0:0:0:0:
58,337,92141,2,0,L|10:296,1,62.9999980773926,2|0,0:0|0:0,0:0:0:0:
23,207,92469,1,2,1:2:0:0:
101,168,92633,5,2,3:2:0:0:
256,265,92961,1,2,0:2:0:0:
256,265,93125,1,2,3:2:0:0:
328,215,93289,2,0,L|412:202,1,62.9999980773926,2|0,1:2|0:2,0:0:0:0:
471,240,93616,1,2,0:2:0:0:
499,156,93780,2,0,L|508:22,2,125.999996154785,2|2|0,3:2|3:2|3:2,0:0:0:0:
471,240,94600,2,0,L|462:375,1,125.999996154785,0|0,1:2|0:2,0:0:0:0:
375,381,95092,1,0,1:2:0:0:
291,351,95256,5,2,3:2:0:0:
394,209,95584,1,2,0:2:0:0:
394,209,95748,2,0,L|400:144,1,62.9999980773926,2|0,3:2|1:2,0:0:0:0:
279,17,96239,1,2,0:2:0:0:
205,66,96403,2,0,L|67:55,1,125.999996154785,2|2,3:2|3:2,0:0:0:0:
5,216,97059,2,0,L|10:278,1,62.9999980773926,2|0,3:2|1:2,0:0:0:0:
96,302,97387,2,0,L|101:239,1,62.9999980773926,2|2,0:2|2:2,0:0:0:0:
153,167,97715,1,2,1:2:0:0:
227,214,97879,5,2,1:2:0:0:
227,214,99026,2,0,L|355:199,1,112,2|0,0:2|0:2,0:0:0:0:
418,228,99518,1,2,0:2:0:0:
485,179,99682,2,0,L|501:50,1,112,0|0,1:2|1:2,0:0:0:0:
432,13,100174,2,0,L|383:6,1,28,12|8,3:3|3:3,0:0:0:0:
376,37,100338,2,0,L|327:30,1,28,8|8,3:3|3:3,0:0:0:0:
320,61,100502,5,6,3:2:0:0:
151,97,100829,1,2,1:2:0:0:
151,97,100993,2,0,L|5:84,1,125.999996154785,2|0,0:2|3:2,0:0:0:0:
1,171,101485,1,2,1:2:0:0:
45,247,101649,2,0,L|48:311,1,62.9999980773926,2|0,3:2|0:2,0:0:0:0:
131,339,101977,2,0,L|144:277,1,62.9999980773926,2|0,3:2|1:2,0:0:0:0:
231,265,102305,2,0,L|234:329,1,62.9999980773926,2|0,0:2|0:2,0:0:0:0:
316,360,102633,2,0,L|329:298,1,62.9999980773926,2|0,3:2|1:2,0:0:0:0:
386,230,102961,1,2,0:2:0:0:
456,282,103125,5,2,3:2:0:0:
506,113,103452,1,2,1:2:0:0:
506,113,103616,1,2,0:2:0:0:
339,55,103944,1,2,3:2:0:0:
263,100,104108,2,0,L|200:93,1,62.9999980773926,2|2,1:2|3:2,0:0:0:0:
323,223,104600,2,0,L|385:229,1,62.9999980773926,0|0,3:2|1:2,0:0:0:0:
463,187,104928,2,0,P|473:150|469:119,2,62.9999980773926,2|2|2,0:2|0:2|3:2,0:0:0:0:
385,229,105420,2,0,P|375:266|379:297,1,62.9999980773926,2|0,1:2|0:2,0:0:0:0:
429,361,105748,5,6,3:2:0:0:
463,187,106075,1,0,1:2:0:0:
296,245,106403,1,2,0:2:0:0:
224,193,106567,2,0,L|220:103,1,62.9999980773926,2|0,3:2|1:2,0:0:0:0:
143,87,106895,1,2,3:2:0:0:
2,194,107223,2,0,L|4:131,1,62.9999980773926,2|0,3:2|1:2,0:0:0:0:
63,64,107551,1,2,3:2:0:0:
221,130,107879,2,0,L|223:67,1,62.9999980773926,2|0,3:2|1:2,0:0:0:0:
300,23,108207,1,2,0:2:0:0:
375,68,108370,6,0,L|510:65,2,125.999996154785,6|0|0,3:2|1:2|0:2,0:0:0:0:
306,124,109190,1,2,3:2:0:0:
350,200,109354,1,2,1:2:0:0:
279,252,109518,2,0,L|144:249,2,125.999996154785,6|0|0,0:2|1:2|3:0,0:0:0:0:
361,285,110338,2,0,L|452:287,2,62.9999980773926,10|8|12,3:3|3:3|3:3,0:0:0:0:
230,355,110993,6,0,P|198:343|159:342,1,62.9999980773926,6|2,3:2|0:2,0:0:0:0:
49,301,111485,1,2,3:2:0:0:
49,301,111649,1,2,1:2:0:0:
95,183,111977,2,0,P|127:171|166:170,1,62.9999980773926,2|2,3:2|0:2,0:0:0:0:
256,241,112469,1,2,3:2:0:0:
256,241,112633,1,2,1:2:0:0:
357,168,112961,1,2,3:2:0:0:
256,91,113289,1,2,1:2:0:0:
155,168,113616,6,0,P|123:164|94:152,1,62.9999980773926,2|2,3:2|0:2,0:0:0:0:
8,70,114108,1,2,3:2:0:0:
8,70,114272,1,2,1:2:0:0:
131,56,114600,2,0,P|162:53|191:41,1,62.9999980773926,2|2,3:2|0:2,0:0:0:0:
302,101,115092,1,2,3:2:0:0:
302,101,115256,1,2,1:2:0:0:
414,45,115584,1,2,3:2:0:0:
486,147,115911,1,2,1:2:0:0:
397,236,116239,6,0,P|367:224|336:221,1,62.9999980773926,6|2,3:2|0:2,0:0:0:0:
217,263,116731,1,2,3:2:0:0:
217,263,116895,1,2,1:2:0:0:
110,331,117223,2,0,P|78:328|49:316,1,62.9999980773926,2|2,3:2|0:2,0:0:0:0:
32,192,117715,1,2,3:2:0:0:
32,192,117879,1,2,1:2:0:0:
138,124,118207,1,2,3:2:0:0:
256,171,118534,1,2,1:2:0:0:
374,124,118862,6,0,P|403:112|434:109,1,62.9999980773926,2|2,3:2|0:2,0:0:0:0:
497,219,119354,1,2,3:2:0:0:
497,219,119518,1,2,1:2:0:0:
388,283,119846,2,0,P|356:280|327:268,1,62.9999980773926,2|2,3:2|0:2,0:0:0:0:
256,171,120338,1,2,3:2:0:0:
256,171,120502,1,2,1:2:0:0:
133,143,120829,2,0,B|128:70,1,62.9999980773926,2|0,0:2|3:3,0:0:0:0:
127,64,121075,1,8,3:3:0:0:
126,48,121157,1,6,3:2:0:0:
293,63,121485,6,0,P|362:59|429:38,1,140,6|0,3:2|1:2,0:0:0:0:
506,100,121977,2,0,P|500:139|497:189,1,70,2|0,0:2|0:2,0:0:0:0:
451,256,122305,2,0,P|458:293|460:345,1,70,2|0,3:2|1:2,0:0:0:0:
359,358,122633,6,0,P|292:337|222:333,1,140,2|0,0:2|3:2,0:0:0:0:
131,370,123125,1,2,1:2:0:0:
131,370,123289,1,2,0:2:0:0:
23,205,123616,2,0,P|30:170|35:136,1,70,2|0,3:2|1:2,0:0:0:0:
103,65,123944,5,2,0:2:0:0:
103,65,124108,2,0,P|172:61|238:39,1,140,2|0,3:2|1:2,0:0:0:0:
412,131,124764,2,0,P|444:118|479:113,2,70,2|0|0,3:2|3:2|1:2,0:0:0:0:
372,221,125256,1,2,0:2:0:0:
314,141,125420,5,2,3:2:0:0:
226,317,125748,1,2,1:2:0:0:
117,152,126075,2,0,P|85:140|50:135,1,70,2|0,0:2|3:2,0:0:0:0:
4,222,126403,1,2,1:2:0:0:
41,312,126567,1,6,3:2:0:0:
200,198,126895,6,0,P|202:154|205:121,2,70,8|8|8,3:3|3:3|3:3,0:0:0:0:
230,291,127387,1,12,1:3:0:0:
230,291,127551,1,8,1:3:0:0:
313,239,127715,1,8,1:3:0:0:
313,239,127879,1,8,1:3:0:0:
373,316,128043,6,0,L|523:328,2,140,2|6|12,0:3|0:3|3:3,0:0:0:0:
361,329,128780,1,8,3:3:0:0:
351,343,128862,1,2,1:2:0:0:
313,239,129026,1,2,1:2:0:0:
397,165,129190,1,6,1:2:0:0:
424,59,131321,6,0,P|385:62|351:61,1,56,2|0,0:2|0:0,0:0:0:0:
277,76,131649,2,0,P|238:73|196:78,1,62.9999980773926,0|8,1:2|3:3,0:0:0:0:
200,87,131895,1,8,3:3:0:0:
192,101,131977,6,0,B|163:174|222:177|190:250,2,154.000004699707,6|0|0,3:2|1:2|0:2,0:0:0:0:
192,101,132797,1,0,3:2:0:0:
275,34,132961,1,0,1:2:0:0:
365,92,133125,6,0,P|380:138|381:175,1,77.0000023498536,2|0,0:2|0:2,0:0:0:0:
466,234,133452,2,0,P|426:262|392:274,1,77.0000023498536,2|0,3:2|1:2,0:0:0:0:
362,373,133780,2,0,P|322:344|300:315,1,77.0000023498536,2|0,0:2|0:2,0:0:0:0:
197,317,134108,2,0,P|211:270|232:240,1,77.0000023498536,2|0,0:2|1:2,0:0:0:0:
303,169,134436,5,2,0:2:0:0:
303,169,134600,2,0,B|340:160|368:184|368:184|419:197|454:171,2,154.000004699707,2|0|2,3:2|1:2|0:2,0:0:0:0:
303,169,135420,1,0,3:2:0:0:
227,247,135584,2,0,P|187:232|142:236,1,77.0000023498536,2|0,1:2|0:2,0:0:0:0:
71,304,135911,6,0,P|65:341|46:374,2,77.0000023498536,2|0|0,0:2|3:2|1:2,0:0:0:0:
50,196,136403,1,2,0:2:0:0:
50,196,136567,2,0,P|35:160|36:122,2,77.0000023498536,2|0|0,0:2|3:2|1:2,0:0:0:0:
153,233,137059,5,2,0:2:0:0:
208,140,137223,1,2,3:2:0:0:
409,219,137551,1,2,1:2:0:0:
482,140,137715,2,0,P|491:102|481:65,1,77.0000023498536,2|0,0:2|3:2,0:0:0:0:
375,55,138043,2,0,P|355:87|355:125,1,77.0000023498536,2|0,0:2|1:2,0:0:0:0:
413,223,138370,5,2,3:2:0:0:
413,223,138534,2,0,P|363:207|322:216,1,77.0000023498536,2|0,0:2|3:2,0:0:0:0:
262,286,138862,1,2,1:2:0:0:
356,322,139026,1,2,0:2:0:0:
489,116,139354,2,0,P|498:78|488:41,1,77.0000023498536,2|0,3:2|1:2,0:0:0:0:
362,80,139682,6,0,B|321:85|296:52|296:52|251:25|208:58,1,167.999994873047,6|2,3:2|3:2,0:0:0:0:
137,149,140174,1,0,1:2:0:0:
38,107,140338,1,0,1:2:0:0:
38,107,140420,1,0,1:2:0:0:
38,107,140502,2,0,P|26:69|27:19,2,83.9999974365235,0|8|8,3:3|3:3|1:3,0:0:0:0:
103,236,140993,6,0,B|134:224|161:237|161:237|179:218|179:218|229:222|252:250|252:250|291:222|333:238,1,251.999992309571,6|0,0:2|1:2,0:0:0:0:
505,326,141813,2,0,L|508:363,4,35,2|2|2|2|2,3:2|3:2|3:2|3:2|1:3,0:0:0:0:
472,223,142305,6,0,P|400:204|332:237,1,154.000004699707,6|0,3:2|3:2,0:0:0:0:
271,327,142797,2,0,P|203:360|130:340,1,154.000004699707,0|0,1:2|0:2,0:0:0:0:
130,340,143289,1,0,3:2:0:0:
82,246,143452,1,2,1:2:0:0:
191,237,143616,6,0,P|219:207|233:167,1,77.0000023498536,2|0,3:2|0:2,0:0:0:0:
223,66,143944,2,0,P|193:37|153:23,1,77.0000023498536,2|0,0:2|1:2,0:0:0:0:
52,34,144272,2,0,P|23:63|9:103,1,77.0000023498536,2|0,0:2|0:2,0:0:0:0:
20,205,144600,2,0,P|49:233|89:247,1,77.0000023498536,2|0,3:2|1:2,0:0:0:0:
195,241,144928,5,2,0:2:0:0:
195,241,145092,2,0,B|284:230|264:273|344:263,2,154.000004699707,2|0|0,3:2|1:2|3:2,0:0:0:0:
16,119,146075,2,0,P|9:81|16:43,1,77.0000023498536,2|0,1:2|3:2,0:0:0:0:
116,86,146403,6,0,P|152:73|181:48,2,77.0000023498536,2|0|0,0:2|3:2|1:2,0:0:0:0:
16,119,146895,2,0,P|64:164|70:254,1,154.000004699707,2|0,0:2|3:2,0:0:0:0:
41,351,147387,1,2,1:2:0:0:
256,345,147715,6,0,P|290:328|328:325,1,77.0000023498536,4|2,3:2|3:2,0:0:0:0:
436,362,148043,1,2,1:2:0:0:
436,362,148207,1,2,0:2:0:0:
496,272,148370,1,2,0:2:0:0:
416,198,148534,2,0,P|399:163|396:125,1,77.0000023498536,2|0,3:2|1:2,0:0:0:0:
512,39,148862,6,0,P|476:51|437:50,1,77.0000023498536,6|0,0:2|0:2,0:0:0:0:
334,18,149190,1,2,3:2:0:0:
267,102,149354,1,2,1:2:0:0:
173,47,149518,2,0,P|137:34|98:35,1,77.0000023498536,2|0,0:2|0:2,0:0:0:0:
30,119,149846,1,2,3:2:0:0:
110,191,150010,2,0,P|123:227|122:266,1,77.0000023498536,2|0,1:2|0:2,0:0:0:0:
39,335,150338,5,6,3:2:0:0:
30,119,150666,1,2,1:2:0:0:
110,191,150829,2,0,P|146:200|185:194,1,77.0000023498536,2|0,0:2|3:2,0:0:0:0:
285,154,151157,1,2,0:2:0:0:
376,210,151321,1,2,1:2:0:0:
471,160,151485,5,6,3:2:0:0:
407,366,151813,2,0,P|372:346|351:314,1,77.0000023498536,2|0,3:2|1:2,0:0:0:0:
288,228,152141,2,0,P|295:190|284:153,1,77.0000023498536,6|0,3:2|0:0,0:0:0:0:
177,142,152469,2,0,P|160:176|160:214,1,77.0000023498536,2|0,3:2|1:2,0:0:0:0:
217,306,152797,5,2,0:2:0:0:
217,306,152961,2,0,P|150:269|60:277,2,154.000004699707,6|0|0,3:2|1:2|0:2,0:0:0:0:
217,306,153780,1,0,3:2:0:0:
288,228,153944,1,2,1:2:0:0:
352,315,154108,5,6,3:2:0:0:
494,152,154436,2,0,P|507:115|502:77,1,77.0000023498536,2|0,3:2|1:2,0:0:0:0:
412,26,154764,2,0,P|375:32|344:55,1,77.0000023498536,6|0,3:2|0:0,0:0:0:0:
337,154,155092,2,0,P|362:182|397:197,1,77.0000023498536,2|0,3:2|1:2,0:0:0:0:
494,152,155420,1,2,0:2:0:0:
500,259,155584,5,6,3:2:0:0:
312,366,155911,1,4,1:2:0:0:
144,229,156239,2,0,L|55:213,2,83.9999974365235,4|8|4,0:2|3:3|1:3,0:0:0:0:
261,283,156731,6,0,B|318:274|318:274|356:287|356:287|429:278,1,167.999994873047,6|0,3:2|3:2,0:0:0:0:
473,184,157223,2,0,L|479:89,1,77.0000023498536,2|0,1:2|3:3,0:0:0:0:
481,87,157469,1,8,3:3:0:0:
484,68,157551,1,2,3:2:0:0:
381,34,157715,1,2,0:2:0:0:
47,151,168698,6,0,P|42:80|31:18,2,112,6|0|0,3:2|1:2|0:2,0:0:0:0:
47,151,169518,1,0,3:2:0:0:
96,219,169682,1,0,1:2:0:0:
162,177,169846,2,0,P|218:169|274:165,1,112,0|0,3:2|3:2,0:0:0:0:
348,187,170338,1,0,1:2:0:0:
234,295,170666,2,0,P|206:291|178:290,2,56,2|0|0,0:2|3:2|1:2,0:0:0:0:
384,338,171321,6,0,P|455:333|517:322,2,112,2|0|0,3:2|1:2|0:2,0:0:0:0:
384,338,172141,1,0,3:2:0:0:
321,297,172305,1,0,1:2:0:0:
365,232,172469,2,0,P|371:176|375:120,1,112,2|0,3:2|3:2,0:0:0:0:
333,53,172961,1,0,1:2:0:0:
188,113,173289,2,0,P|160:110|132:105,1,56,2|0,0:2|3:2,0:0:0:0:
72,55,173616,1,4,1:2:0:0:
12,221,173944,6,0,P|20:285|23:352,2,125.999996154785,6|0|0,3:2|1:2|0:2,0:0:0:0:
12,221,174764,1,0,3:2:0:0:
63,149,174928,1,0,1:2:0:0:
150,161,175092,2,0,P|212:168|275:171,1,125.999996154785,6|2,0:2|3:2,0:0:0:0:
342,229,175584,1,0,1:2:0:0:
488,128,175911,2,0,P|487:101|493:60,2,62.9999980773926,2|0|0,0:2|3:2|1:2,0:0:0:0:
330,245,176567,6,0,P|266:237|188:235,2,140,6|0|0,3:2|1:2|0:2,0:0:0:0:
330,245,177387,1,0,3:2:0:0:
402,179,177551,1,0,1:2:0:0:
344,99,177715,2,0,P|274:97|204:88,1,140,4|0,3:2|3:2,0:0:0:0:
106,92,178207,2,0,P|69:82|20:80,1,70,2|4,1:2|3:3,0:0:0:0:
0,181,178534,2,0,L|-6:269,2,70,10|8|12,0:3|3:3|0:3,0:0:0:0:
106,92,179190,6,0,P|135:80|166:77,1,62.9999980773926,6|2,3:2|0:2,0:0:0:0:
256,174,179682,1,2,3:2:0:0:
256,174,179846,1,2,1:2:0:0:
379,148,180174,2,0,P|390:118|393:87,1,62.9999980773926,2|2,3:2|0:2,0:0:0:0:
298,13,180666,1,2,3:2:0:0:
298,13,180829,1,2,1:2:0:0:
185,70,181157,1,2,3:2:0:0:
256,174,181485,1,2,1:2:0:0:
147,238,181813,6,0,P|115:234|86:222,1,62.9999980773926,2|2,3:2|0:2,0:0:0:0:
14,126,182305,1,2,3:2:0:0:
14,126,182469,1,2,1:2:0:0:
122,68,182797,2,0,P|153:63|183:69,1,62.9999980773926,2|2,3:2|0:2,0:0:0:0:
283,155,183289,1,2,3:2:0:0:
283,155,183452,1,2,1:2:0:0:
405,113,183780,1,2,3:2:0:0:
506,184,184108,1,2,1:2:0:0:
412,268,184436,6,0,P|379:268|349:259,1,62.9999980773926,6|2,3:2|0:2,0:0:0:0:
287,159,184928,1,2,3:2:0:0:
287,159,185092,1,2,1:2:0:0:
165,190,185420,2,0,P|135:179|110:159,1,62.9999980773926,2|2,3:2|0:2,0:0:0:0:
93,34,185911,1,2,3:2:0:0:
93,34,186075,1,2,1:2:0:0:
217,56,186403,1,2,3:2:0:0:
287,159,186731,1,2,1:2:0:0:
165,190,187059,6,0,P|134:201|109:220,1,62.9999980773926,2|2,3:2|0:2,0:0:0:0:
96,345,187551,1,2,3:2:0:0:
96,345,187715,1,2,1:2:0:0:
221,330,188043,2,0,P|252:326|283:331,1,62.9999980773926,2|2,3:2|0:2,0:0:0:0:
401,375,188534,1,2,3:2:0:0:
401,375,188698,1,2,1:2:0:0:
490,285,189026,2,0,B|495:209,1,62.9999980773926,2|0,0:2|3:3,0:0:0:0:
496,207,189272,1,8,3:3:0:0:
498,192,189354,1,6,3:2:0:0:
416,45,189682,6,0,P|349:23|279:20,1,140,6|0,3:2|1:2,0:0:0:0:
231,105,190174,2,0,P|239:131|242:177,1,70,2|0,0:2|0:2,0:0:0:0:
186,255,190502,2,0,P|178:281|175:327,1,70,2|0,3:2|1:2,0:0:0:0:
264,363,190829,6,0,P|330:342|400:338,1,140,2|0,0:2|3:2,0:0:0:0:
496,377,191321,1,2,1:2:0:0:
496,377,191485,1,2,0:2:0:0:
341,256,191813,2,0,P|333:230|330:184,1,70,2|0,3:2|1:2,0:0:0:0:
289,103,192141,5,2,0:2:0:0:
289,103,192305,2,0,P|222:81|152:78,1,140,2|0,3:2|1:2,0:0:0:0:
184,271,192961,2,0,P|216:258|251:253,2,70,2|0|0,3:2|3:2|1:2,0:0:0:0:
116,342,193452,1,2,0:2:0:0:
44,275,193616,5,2,3:2:0:0:
129,98,193944,1,2,1:2:0:0:
250,253,194272,2,0,P|282:265|317:270,1,70,2|0,0:2|3:2,0:0:0:0:
409,234,194600,1,2,1:2:0:0:
476,305,194764,1,6,3:2:0:0:
497,110,195092,6,0,P|502:66|508:33,2,70,8|8|8,3:3|3:3|3:3,0:0:0:0:
407,141,195584,1,12,1:3:0:0:
407,141,195748,1,8,1:3:0:0:
330,89,195911,1,8,1:3:0:0:
330,89,196075,1,8,1:3:0:0:
245,138,196239,6,0,L|95:126,2,140,2|6|12,0:3|0:3|3:3,0:0:0:0:
251,154,196977,1,8,3:3:0:0:
256,170,197059,1,2,1:2:0:0:
365,195,197223,1,2,1:2:0:0:
330,89,197387,1,6,1:2:0:0:
36,346,202141,6,0,P|39:307|38:273,1,56,2|0,0:2|0:0,0:0:0:0:
69,213,202469,2,0,P|66:174|71:132,1,62.9999980773926,0|8,1:2|3:3,0:0:0:0:
155,78,202797,6,0,B|236:55|232:113|313:87,2,161.000003070831,6|0|0,3:2|1:2|0:2,0:0:0:0:
155,78,203616,1,0,3:2:0:0:
67,150,203780,1,0,1:2:0:0:
149,226,203944,6,0,P|188:234|228:231,1,80.5000015354157,2|0,0:2|0:2,0:0:0:0:
302,317,204272,2,0,P|328:286|346:251,1,80.5000015354157,2|0,3:2|1:2,0:0:0:0:
457,229,204600,2,0,P|444:190|422:157,1,80.5000015354157,2|0,0:2|0:2,0:0:0:0:
458,50,204928,2,0,P|418:41|378:44,1,80.5000015354157,2|0,0:2|1:2,0:0:0:0:
271,82,205256,5,2,0:2:0:0:
271,82,205420,2,0,B|233:80|203:49|203:49|151:32|112:62,2,161.000003070831,2|0|2,3:2|1:2|0:2,0:0:0:0:
271,82,206239,1,0,3:2:0:0:
348,171,206403,2,0,P|388:156|433:160,1,80.5000015354157,2|0,1:2|0:2,0:0:0:0:
411,270,206731,6,0,P|371:285|326:281,2,80.5000015354157,2|0|0,0:2|3:2|1:2,0:0:0:0:
429,161,207223,1,2,0:2:0:0:
429,161,207387,2,0,P|394:136|349:128,2,80.5000015354157,2|0|0,0:2|3:2|1:2,0:0:0:0:
333,283,207879,5,2,0:2:0:0:
334,129,208043,1,6,3:2:0:0:
332,125,209190,5,6,1:2:0:0:
268,278,209354,1,2,3:2:0:0:
268,278,210338,5,12,3:3:0:0:
376,301,210502,6,0,B|398:259|398:259|399:189|348:150,1,167.999994873047,6|2,3:2|3:2,0:0:0:0:
237,124,210993,1,0,1:2:0:0:
161,214,211157,1,0,1:2:0:0:
161,214,211239,1,0,1:2:0:0:
161,214,211321,2,0,P|122:221|73:214,2,83.9999974365235,0|8|8,3:3|3:3|1:3,0:0:0:0:
164,332,211813,6,0,B|140:316|138:279|138:279|158:259|161:214|161:214|126:189|120:147|140:103,1,251.999992309571,6|0,0:2|3:2,0:0:0:0:
149,97,212387,1,0,3:0:0:0:
161,91,212469,1,0,3:0:0:0:
174,89,212551,1,0,3:0:0:0:
186,87,212633,2,0,L|197:31,4,35,2|2|2|2|2,0:2|0:2|0:2|0:2|1:3,0:0:0:0:
271,153,213125,6,0,P|339:120|411:142,1,154.000004699707,6|0,3:2|3:2,0:0:0:0:
424,249,213616,2,0,P|355:281|283:259,1,154.000004699707,0|0,1:2|0:2,0:0:0:0:
283,259,214108,1,0,3:2:0:0:
183,216,214272,1,2,1:2:0:0:
271,153,214436,6,0,P|281:113|273:72,1,77.0000023498536,2|0,3:2|0:2,0:0:0:0:
180,26,214764,2,0,P|140:37|108:64,1,77.0000023498536,2|0,0:2|1:2,0:0:0:0:
79,162,215092,2,0,P|84:199|74:236,1,77.0000023498536,2|0,0:2|0:2,0:0:0:0:
120,335,215420,2,0,P|150:358|187:368,1,77.0000023498536,2|0,3:2|1:2,0:0:0:0:
283,319,215748,5,2,0:2:0:0:
283,319,215911,2,0,B|271:274|302:222|302:222|294:193|258:171,2,154.000004699707,2|0|0,3:2|1:2|3:2,0:0:0:0:
501,378,216895,2,0,P|511:342|510:294,1,77.0000023498536,2|0,1:2|3:2,0:0:0:0:
452,211,217223,6,0,P|442:175|443:127,2,77.0000023498536,2|0|0,0:2|3:2|1:2,0:0:0:0:
384,296,217715,2,0,P|321:254|243:267,1,154.000004699707,2|0,0:2|3:2,0:0:0:0:
170,342,218207,1,2,1:2:0:0:
8,199,218534,6,0,P|15:162|5:118,1,77.0000023498536,4|2,3:2|3:2,0:0:0:0:
78,42,218862,1,2,1:2:0:0:
78,42,219026,1,2,0:2:0:0:
166,103,219190,1,2,0:2:0:0:
264,58,219354,2,0,P|301:45|339:47,1,77.0000023498536,2|0,3:2|1:2,0:0:0:0:
386,183,219682,6,0,P|355:161|318:153,1,77.0000023498536,6|0,0:2|0:2,0:0:0:0:
224,208,220010,1,2,3:2:0:0:
308,276,220174,1,2,1:2:0:0:
211,324,220338,2,0,P|173:315|142:293,1,77.0000023498536,2|0,0:2|0:2,0:0:0:0:
69,213,220666,1,2,3:2:0:0:
158,154,220829,2,0,P|171:118|170:79,1,77.0000023498536,2|0,1:2|0:2,0:0:0:0:
84,13,221157,5,6,3:2:0:0:
69,213,221485,1,2,1:2:0:0:
158,154,221649,2,0,P|193:140|232:141,1,77.0000023498536,2|0,0:2|3:2,0:0:0:0:
331,182,221977,1,2,0:2:0:0:
418,120,222141,1,2,1:2:0:0:
409,12,222305,5,6,3:2:0:0:
231,140,222633,2,0,P|192:141|157:126,1,77.0000023498536,2|0,3:2|1:2,0:0:0:0:
139,19,222961,2,0,P|177:17|212:32,1,77.0000023498536,6|0,3:2|0:0,0:0:0:0:
157,126,223289,2,0,P|118:127|83:112,1,77.0000023498536,2|0,3:2|1:2,0:0:0:0:
3,49,223616,5,2,0:2:0:0:
3,49,223780,2,0,P|46:107|36:186,2,154.000004699707,6|0|0,3:2|1:2|0:2,0:0:0:0:
3,49,224600,1,0,3:2:0:0:
112,28,224764,1,2,1:2:0:0:
157,126,224928,5,6,3:2:0:0:
364,68,225256,2,0,P|325:70|293:90,1,77.0000023498536,2|0,3:2|1:2,0:0:0:0:
276,196,225584,2,0,P|296:226|330:245,1,77.0000023498536,6|0,3:2|0:0,0:0:0:0:
431,209,225911,2,0,P|447:174|446:136,1,77.0000023498536,2|0,3:2|1:2,0:0:0:0:
364,68,226239,1,2,0:2:0:0:
463,27,226403,5,6,3:2:0:0:
416,237,226731,1,4,1:2:0:0:
257,91,227059,2,0,L|168:75,2,83.9999974365235,4|8|4,0:2|3:3|1:3,0:0:0:0:
333,153,227551,6,0,B|389:144|389:144|433:158|433:158|497:151,1,167.999994873047,6|0,3:2|3:2,0:0:0:0:
509,259,228043,2,0,L|500:353,1,77.0000023498536,2|0,1:2|3:3,0:0:0:0:
492,353,228289,1,0,0:0:0:0:
481,368,228370,1,2,3:2:0:0:
407,302,228534,1,2,1:2:0:0:
189,363,228862,6,0,B|151:350|125:316|125:316|90:343|51:346,1,161.000003070831,6|0,3:2|3:2,0:0:0:0:
10,240,229354,2,0,B|39:213|82:207|82:207|76:164|93:129,1,161.000003070831,0|0,1:2|0:2,0:0:0:0:
93,128,229846,1,0,3:2:0:0:
194,79,230010,1,2,1:2:0:0:
288,141,230174,6,0,P|325:145|369:131,1,80.5000015354157,6|0,3:2|0:0,0:0:0:0:
396,24,230502,2,0,P|358:19|314:33,1,80.5000015354157,2|0,3:2|0:0,0:0:0:0:
366,133,230829,2,0,P|403:137|447:123,1,80.5000015354157,6|0,3:2|0:0,0:0:0:0:
474,17,231157,2,0,P|436:12|392:26,1,80.5000015354157,2|0,3:2|1:2,0:0:0:0:
344,131,231485,1,2,0:2:0:0:
245,63,231649,5,6,3:2:0:0:
176,277,231977,1,4,1:2:0:0:
26,108,232305,2,0,L|15:14,2,87.5,4|8|4,0:2|3:3|1:3,0:0:0:0:
124,157,232797,6,0,B|184:149|184:149|233:165|233:165|295:155,1,175,6|0,3:2|3:2,0:0:0:0:
385,208,233289,2,0,L|391:112,1,80.5000015354157,2|0,1:2|3:3,0:0:0:0:
394,108,233534,1,8,3:3:0:0:
397,89,233616,1,2,3:2:0:0:
496,8,233780,1,2,0:2:0:0:
480,174,234108,1,2,0:2:0:0:
385,208,234272,6,0,P|314:193|227:191,2,140,6|0|0,3:2|1:2|0:3,0:0:0:0:
385,208,235092,1,0,3:2:0:0:
435,292,235256,1,0,1:2:0:0:
368,364,235420,2,0,P|298:360|229:345,1,140,2|0,3:2|3:2,0:0:0:0:
179,268,235911,1,0,1:2:0:0:
179,268,236075,1,2,0:2:0:0:
14,374,236403,1,0,3:2:0:0:
14,374,236567,1,0,1:2:0:0:
63,184,236895,6,0,P|73:112|68:25,2,140,2|2|2,3:2|1:2|0:2,0:0:0:0:
63,184,237715,1,0,3:2:0:0:
29,275,237879,1,0,1:2:0:0:
103,339,238043,2,0,P|174:324|261:322,1,140,2|0,3:2|3:2,0:0:0:0:
334,350,238534,1,0,1:2:0:0:
492,234,238862,2,0,P|490:210|488:195,2,35,2|0|2,3:2|0:2|3:2,0:0:0:0:
483,332,239190,2,0,P|485:356|487:371,2,35,6|0|2,1:2|0:2|3:2,0:0:0:0:
405,270,239518,6,0,P|345:237|278:255,2,140,6|0|0,3:2|1:2|0:2,0:0:0:0:
405,270,240338,1,0,3:2:0:0:
333,337,240502,1,0,1:2:0:0:
279,254,240666,2,0,P|219:220|153:236,1,140,2|0,3:2|3:2,0:0:0:0:
85,307,241157,1,0,1:2:0:0:
15,123,241485,2,0,P|12:88|4:40,2,70,2|0|0,0:2|3:2|1:2,0:0:0:0:
165,249,242141,6,0,B|201:238|201:238|259:251|259:251|308:238,2,140,6|0|0,3:2|1:0|0:0,0:0:0:0:
85,307,242961,1,2,3:2:0:0:
78,209,243125,1,2,1:2:0:0:
153,145,243289,2,0,B|164:109|164:109|151:51|151:51|164:2,1,140,6|0,3:2|3:0,0:0:0:0:
250,51,243780,2,0,L|327:43,1,70,0|0,1:2|3:3,0:0:0:0:
337,44,244026,1,8,3:3:0:0:
354,43,244108,1,2,1:2:0:0:
436,96,244272,1,2,3:2:0:0:
