osu file format v14

[General]
AudioFilename: audio.mp3
AudioLeadIn: 0
PreviewTime: 51286
Countdown: 0
SampleSet: Soft
StackLeniency: 0.7
Mode: 0
LetterboxInBreaks: 0
WidescreenStoryboard: 0

[Editor]
DistanceSpacing: 1.05
BeatDivisor: 4
GridSize: 32
TimelineZoom: 1.3

[Metadata]
Title:closing eyes
TitleUnicode:closing eyes
Artist:*namirin
ArtistUnicode:*なみりん
Creator:Lasse
Version:Advanced
Source:
Tags:5colors mapping with rewards mwr 2017 featured artist
BeatmapID:1419121
BeatmapSetID:670579

[Difficulty]
HPDrainRate:4
CircleSize:3.4
OverallDifficulty:4
ApproachRate:5
SliderMultiplier:1.1
SliderTickRate:1

[Events]
//Background and Video events
0,0,"bg.jpg",0,0
//Break Periods
2,158213,167498
2,198166,200835
//Storyboard Layer 0 (Background)
//Storyboard Layer 1 (Fail)
//Storyboard Layer 2 (Pass)
//Storyboard Layer 3 (Foreground)
//Storyboard Sound Samples

[TimingPoints]
830,327.868852459016,4,2,0,68,1,0
3698,-100,4,2,0,5,0,0
3780,-100,4,2,0,68,0,0
11157,-100,4,2,0,54,0,0
11321,-111.111111111111,4,2,0,56,0,0
14190,-111.111111111111,4,2,0,5,0,0
14272,-111.111111111111,4,2,0,56,0,0
19436,-111.111111111111,4,2,0,5,0,0
19518,-111.111111111111,4,2,0,56,0,0
32305,-111.111111111111,4,2,0,58,0,0
42797,-100,4,2,0,66,0,0
43043,-100,4,2,0,5,0,0
43125,-100,4,2,0,66,0,0
45666,-100,4,2,0,5,0,0
45748,-100,4,2,0,66,0,0
48698,-100,4,2,0,68,0,0
49354,-100,4,2,0,60,0,0
50010,-100,4,2,0,64,0,0
50092,-100,4,2,0,66,0,0
50174,-100,4,2,0,68,0,0
50338,-100,4,2,0,70,0,0
50502,-100,4,2,0,72,0,0
52633,-111.111111111111,4,2,0,50,0,0
52879,-111.111111111111,4,2,0,5,0,0
52961,-111.111111111111,4,2,0,60,0,0
53289,-90.9090909090909,4,2,0,74,0,1
56157,-90.9090909090909,4,2,0,5,0,1
56239,-90.9090909090909,4,2,0,74,0,1
58780,-90.9090909090909,4,2,0,5,0,1
58862,-90.9090909090909,4,2,0,74,0,1
60993,-90.9090909090909,4,2,0,74,0,1
61239,-90.9090909090909,4,2,0,5,0,1
61321,-90.9090909090909,4,2,0,74,0,1
62305,-90.9090909090909,4,2,0,76,0,1
62797,-90.9090909090909,4,2,0,68,0,1
63125,-90.9090909090909,4,2,0,70,0,0
63616,-90.9090909090909,4,2,0,74,0,1
66649,-90.9090909090909,4,2,0,5,0,1
66731,-90.9090909090909,4,2,0,74,0,1
72797,-90.9090909090909,4,2,0,76,0,1
73043,-90.9090909090909,4,2,0,5,0,1
73125,-90.9090909090909,4,2,0,74,0,1
73452,-90.9090909090909,4,2,0,78,0,1
73698,-90.9090909090909,4,2,0,5,0,1
73780,-90.9090909090909,4,2,0,74,0,1
75420,-90.9090909090909,4,2,0,76,0,1
75666,-90.9090909090909,4,2,0,5,0,1
75748,-90.9090909090909,4,2,0,74,0,1
76321,-90.9090909090909,4,2,0,5,0,1
76403,-90.9090909090909,4,2,0,74,0,1
76895,-90.9090909090909,4,2,0,76,0,1
77141,-90.9090909090909,4,2,0,5,0,1
77223,-90.9090909090909,4,2,0,76,0,1
77469,-90.9090909090909,4,2,0,5,0,1
77551,-90.9090909090909,4,2,0,74,0,1
78043,-90.9090909090909,4,2,0,78,0,1
78289,-90.9090909090909,4,2,0,5,0,1
78370,-90.9090909090909,4,2,0,76,0,1
79026,-100,4,2,0,70,0,0
79354,-100,4,2,0,48,0,0
79518,-100,4,2,0,68,0,0
82387,-100,4,2,0,5,0,0
82469,-100,4,2,0,68,0,0
89354,-100,4,2,0,66,0,0
89600,-100,4,2,0,64,0,0
89846,-100,4,2,0,62,0,0
90009,-111.111111111111,4,2,0,56,0,0
92879,-111.111111111111,4,2,0,5,0,0
92961,-111.111111111111,4,2,0,56,0,0
95502,-111.111111111111,4,2,0,5,0,0
95584,-111.111111111111,4,2,0,56,0,0
97551,-111.111111111111,4,2,0,58,0,0
97633,-111.111111111111,4,2,0,56,0,0
97715,-111.111111111111,4,2,0,54,0,0
97797,-111.111111111111,4,2,0,52,0,0
97879,-111.111111111111,4,2,0,50,0,0
99026,-125,4,2,0,40,0,0
99682,-125,4,2,0,48,0,0
100010,-125,4,2,0,50,0,0
100174,-125,4,2,0,52,0,0
100256,-125,4,2,0,54,0,0
100338,-125,4,2,0,56,0,0
100420,-125,4,2,0,58,0,0
100502,-111.111111111111,4,2,0,56,0,0
100748,-111.111111111111,4,2,0,5,0,0
100829,-111.111111111111,4,2,0,56,0,0
103370,-111.111111111111,4,2,0,5,0,0
103452,-111.111111111111,4,2,0,56,0,0
104928,-111.111111111111,4,2,0,58,0,0
105092,-111.111111111111,4,2,0,56,0,0
105256,-111.111111111111,4,2,0,54,0,0
105420,-111.111111111111,4,2,0,52,0,0
105584,-111.111111111111,4,2,0,50,0,0
105748,-111.111111111111,4,2,0,60,0,0
105993,-111.111111111111,4,2,0,5,0,0
106075,-111.111111111111,4,2,0,60,0,0
110993,-111.111111111111,4,2,0,58,0,0
121485,-100,4,2,0,66,0,0
121731,-100,4,2,0,5,0,0
121813,-100,4,2,0,66,0,0
124354,-100,4,2,0,5,0,0
124436,-100,4,2,0,66,0,0
127386,-100,4,2,0,68,0,0
128042,-100,4,2,0,60,0,0
128698,-100,4,2,0,64,0,0
128780,-100,4,2,0,66,0,0
128862,-100,4,2,0,68,0,0
129026,-100,4,2,0,70,0,0
129190,-100,4,2,0,72,0,0
131321,-111.111111111111,4,2,0,50,0,0
131567,-111.111111111111,4,2,0,5,0,0
131649,-111.111111111111,4,2,0,60,0,0
131977,-90.9090909090909,4,2,0,74,0,1
134846,-90.9090909090909,4,2,0,5,0,1
134928,-90.9090909090909,4,2,0,74,0,1
137469,-90.9090909090909,4,2,0,5,0,1
137551,-90.9090909090909,4,2,0,74,0,1
139682,-90.9090909090909,4,2,0,74,0,1
139928,-90.9090909090909,4,2,0,5,0,1
140009,-90.9090909090909,4,2,0,74,0,1
140993,-90.9090909090909,4,2,0,76,0,1
141485,-90.9090909090909,4,2,0,68,0,1
141813,-90.9090909090909,4,2,0,70,0,0
142305,-90.9090909090909,4,2,0,74,0,1
145338,-90.9090909090909,4,2,0,5,0,1
145420,-90.9090909090909,4,2,0,74,0,1
151485,-90.9090909090909,4,2,0,76,0,1
151731,-90.9090909090909,4,2,0,5,0,1
151813,-90.9090909090909,4,2,0,74,0,1
152141,-90.9090909090909,4,2,0,78,0,1
152387,-90.9090909090909,4,2,0,5,0,1
152469,-90.9090909090909,4,2,0,74,0,1
154108,-90.9090909090909,4,2,0,76,0,1
154354,-90.9090909090909,4,2,0,5,0,1
154436,-90.9090909090909,4,2,0,74,0,1
155010,-90.9090909090909,4,2,0,5,0,1
155092,-90.9090909090909,4,2,0,74,0,1
155584,-90.9090909090909,4,2,0,76,0,1
155829,-90.9090909090909,4,2,0,5,0,1
155911,-90.9090909090909,4,2,0,76,0,1
156157,-90.9090909090909,4,2,0,5,0,1
156239,-90.9090909090909,4,2,0,74,0,1
156731,-90.9090909090909,4,2,0,78,0,1
156977,-90.9090909090909,4,2,0,5,0,1
157059,-90.9090909090909,4,2,0,76,0,1
157715,-100,4,2,0,70,0,0
158043,-100,4,2,0,48,0,0
158207,-125,4,2,0,64,0,0
168698,-125,4,2,0,60,0,0
173944,-111.111111111111,4,2,0,62,0,0
176567,-99.9999999999999,4,2,0,64,0,0
179190,-111.111111111111,4,2,0,58,0,0
189682,-100,4,2,0,66,0,0
189928,-100,4,2,0,5,0,0
190010,-100,4,2,0,66,0,0
192551,-100,4,2,0,5,0,0
192633,-100,4,2,0,66,0,0
195584,-100,4,2,0,68,0,0
196239,-100,4,2,0,60,0,0
196895,-100,4,2,0,64,0,0
196977,-100,4,2,0,66,0,0
197059,-100,4,2,0,68,0,0
197223,-100,4,2,0,70,0,0
197387,-100,4,2,0,72,0,0
202141,-111.111111111111,4,2,0,50,0,0
202387,-100,4,2,0,5,0,0
202469,-111.111111111111,4,2,0,60,0,0
202797,-90.9090909090909,4,2,0,76,0,1
205666,-90.9090909090909,4,2,0,5,0,1
205748,-90.9090909090909,4,2,0,76,0,1
208043,-90.9090909090909,4,2,0,74,0,0
209190,-90.9090909090909,4,2,0,76,0,1
209354,-90.9090909090909,4,2,0,72,0,0
210338,-90.9090909090909,4,2,0,58,0,0
210502,-90.9090909090909,4,2,0,74,0,1
210748,-90.9090909090909,4,2,0,5,0,1
210829,-90.9090909090909,4,2,0,74,0,1
211813,-90.9090909090909,4,2,0,76,0,1
212305,-90.9090909090909,4,2,0,62,0,1
212387,-90.9090909090909,4,2,0,64,0,1
212469,-90.9090909090909,4,2,0,66,0,1
212551,-90.9090909090909,4,2,0,68,0,1
212633,-90.9090909090909,4,2,0,70,0,0
213125,-90.9090909090909,4,2,0,74,0,1
216157,-90.9090909090909,4,2,0,5,0,1
216239,-90.9090909090909,4,2,0,74,0,1
222305,-90.9090909090909,4,2,0,76,0,1
222551,-90.9090909090909,4,2,0,5,0,1
222633,-90.9090909090909,4,2,0,74,0,1
222961,-90.9090909090909,4,2,0,78,0,1
223207,-90.9090909090909,4,2,0,5,0,1
223289,-90.9090909090909,4,2,0,74,0,1
224928,-90.9090909090909,4,2,0,76,0,1
225174,-90.9090909090909,4,2,0,5,0,1
225256,-90.9090909090909,4,2,0,74,0,1
225829,-90.9090909090909,4,2,0,5,0,1
225911,-90.9090909090909,4,2,0,74,0,1
226403,-90.9090909090909,4,2,0,76,0,1
226649,-90.9090909090909,4,2,0,5,0,1
226731,-90.9090909090909,4,2,0,76,0,1
226977,-90.9090909090909,4,2,0,5,0,1
227059,-90.9090909090909,4,2,0,74,0,1
227551,-90.9090909090909,4,2,0,76,0,1
227797,-90.9090909090909,4,2,0,5,0,1
227879,-90.9090909090909,4,2,0,76,0,1
228370,-90.9090909090909,4,2,0,72,0,0
228534,-90.9090909090909,4,2,0,70,0,0
228862,-90.9090909090909,4,2,0,76,0,1
229190,-90.9090909090909,4,2,0,74,0,1
230174,-90.9090909090909,4,2,0,76,0,1
230420,-90.9090909090909,4,2,0,5,0,1
230502,-90.9090909090909,4,2,0,74,0,1
231075,-90.9090909090909,4,2,0,5,0,1
231157,-90.9090909090909,4,2,0,74,0,1
231649,-90.9090909090909,4,2,0,77,0,1
231895,-90.9090909090909,4,2,0,5,0,1
231977,-90.9090909090909,4,2,0,77,0,1
232223,-90.9090909090909,4,2,0,5,0,1
232305,-90.9090909090909,4,2,0,74,0,1
232797,-90.9090909090909,4,2,0,77,0,1
233043,-90.9090909090909,4,2,0,5,0,1
233125,-90.9090909090909,4,2,0,78,0,1
233289,-90.9090909090909,4,2,0,75,0,1
233780,-100,4,2,0,70,0,0
234108,-100,4,2,0,48,0,0
234272,-100,4,2,0,68,0,0
237141,-100,4,2,0,5,0,0
237223,-100,4,2,0,68,0,0
242141,-100,4,2,0,68,0,0
244108,-100,4,2,0,70,0,0

[Colours]
Combo1 : 250,140,140
Combo2 : 150,240,240
Combo3 : 255,230,150
Combo4 : 160,240,160

[HitObjects]
61,292,174,6,0,L|66:167,1,110,2|2,3:0|3:0,0:0:0:0:
127,90,830,6,0,P|177:72|231:85,1,110,6|0,3:2|1:2,0:0:0:0:
330,130,1485,2,0,P|382:142|433:124,1,110,0|0,0:3|1:2,0:0:0:0:
484,103,1977,2,0,L|476:271,1,165,2|0,3:2|1:2,0:0:0:0:
267,337,3125,1,0,1:2:0:0:
183,265,3452,6,0,L|176:132,1,110,2|2,3:2|1:2,0:0:0:0:
143,50,4108,2,0,P|76:33|31:61,1,110,2|0,0:2|1:2,0:0:0:0:
21,101,4600,2,0,L|13:265,1,165,2|0,3:2|1:2,0:0:0:0:
99,333,5420,1,2,3:2:0:0:
183,265,5748,1,6,1:2:0:0:
267,337,6075,6,0,P|319:349|370:331,1,110,6|0,3:2|1:2,0:0:0:0:
449,254,6731,2,0,L|454:144,1,110,0|0,0:2|1:2,0:0:0:0:
477,94,7223,2,0,P|411:55|313:87,1,165,2|0,3:2|1:2,0:0:0:0:
263,162,8043,2,0,P|210:173|161:150,1,110,2|0,0:2|1:2,0:0:0:0:
113,51,8698,6,0,B|51:27|51:27|15:57,1,110,6|0,3:2|1:2,0:0:0:0:
1,219,9518,1,2,3:2:0:0:
81,293,9846,2,0,B|128:298|128:298|195:272|195:272|241:277,1,165,6|0,3:2|1:2,0:0:0:0:
334,336,10666,1,0,1:2:0:0:
475,197,11321,6,0,L|485:76,2,98.9999969787599,6|0|0,3:2|1:2|0:2,0:0:0:0:
389,248,12305,1,2,1:2:0:0:
389,248,12469,2,0,P|333:233|281:233,1,98.9999969787599,2|2,3:2|3:2,0:0:0:0:
210,287,13125,1,2,0:2:0:0:
116,272,13452,1,2,3:2:0:0:
116,272,13616,1,0,1:2:0:0:
60,189,13944,6,0,P|55:152|70:79,1,98.9999969787599,2|2,3:2|1:2,0:0:0:0:
133,19,14600,1,2,0:2:0:0:
224,70,14928,1,2,1:2:0:0:
224,70,15092,2,0,L|338:61,1,98.9999969787599,2|2,0:2|3:2,0:0:0:0:
369,45,15584,1,0,1:2:0:0:
451,98,15911,2,0,P|460:146|455:195,1,98.9999969787599,2|0,0:2|1:2,0:0:0:0:
390,271,16567,6,0,L|384:384,2,98.9999969787599,2|0|0,3:2|1:2|0:2,0:0:0:0:
336,194,17551,1,0,1:2:0:0:
336,194,17715,2,0,P|289:173|232:176,1,98.9999969787599,2|2,0:2|3:2,0:0:0:0:
145,196,18370,1,2,0:2:0:0:
116,291,18698,1,2,3:2:0:0:
188,367,19026,1,2,0:2:0:0:
188,367,19190,6,0,P|235:346|292:349,1,98.9999969787599,2|0,3:2|1:2,0:0:0:0:
430,354,20010,2,0,L|498:343,2,49.4999984893799,2|2|2,3:2|1:2|0:2,0:0:0:0:
359,294,20666,1,2,3:2:0:0:
359,294,20829,1,2,1:2:0:0:
422,218,21157,2,0,P|431:170|426:121,1,98.9999969787599,0|0,0:2|1:2,0:0:0:0:
398,78,21649,1,2,0:2:0:0:
398,78,21813,6,0,L|280:66,2,98.9999969787599,6|0|0,3:2|1:2|0:2,0:0:0:0:
473,142,22797,1,2,1:2:0:0:
473,142,22961,2,0,P|454:204|456:255,1,98.9999969787599,2|2,2:2|3:2,0:0:0:0:
480,333,23616,1,2,0:2:0:0:
389,312,23944,1,2,3:2:0:0:
389,312,24108,1,0,1:2:0:0:
298,352,24436,6,0,P|261:357|188:342,1,98.9999969787599,2|2,3:2|1:2,0:0:0:0:
62,291,25256,2,0,L|7:285,2,49.4999984893799,2|0|2,3:2|1:2|3:2,0:0:0:0:
143,234,25911,1,2,3:2:0:0:
143,234,26075,1,0,1:2:0:0:
235,200,26403,2,0,P|244:152|239:103,1,98.9999969787599,2|0,0:2|1:2,0:0:0:0:
158,44,27059,6,0,L|51:35,1,98.9999969787599,6|0,3:2|1:2,0:0:0:0:
6,119,27715,1,2,0:2:0:0:
6,119,27879,1,2,3:2:0:0:
40,211,28207,2,0,L|147:220,1,98.9999969787599,2|2,0:2|3:2,0:0:0:0:
217,279,28862,2,0,L|315:287,1,98.9999969787599,2|2,0:2|3:2,0:0:0:0:
402,346,29518,1,2,0:2:0:0:
402,346,29682,6,0,L|409:242,1,98.9999969787599,4|0,3:2|1:2,0:0:0:0:
469,111,30502,2,0,P|436:105|418:96,1,49.4999984893799,2|0,3:2|1:2,0:0:0:0:
372,94,30829,2,0,P|326:75|277:77,1,98.9999969787599,6|8,3:2|3:3,0:0:0:0:
200,205,31649,2,0,L|194:307,1,98.9999969787599,10|12,3:3|3:3,0:0:0:0:
128,378,32305,6,0,B|86:353|86:353|98:187,1,197.99999395752,6|2,3:2|1:2,0:0:0:0:
134,122,33289,2,0,B|283:111|283:111|307:153,1,197.99999395752,2|2,3:2|1:2,0:0:0:0:
341,235,34272,1,2,3:2:0:0:
430,237,34600,1,2,1:2:0:0:
466,155,34928,6,0,B|479:118|482:83|471:51|448:29|448:29|413:29|392:54,1,197.99999395752,2|2,3:2|1:2,0:0:0:0:
316,100,35911,2,0,L|113:89,1,197.99999395752,2|2,3:2|1:2,0:0:0:0:
36,125,36895,1,2,3:2:0:0:
27,215,37223,1,2,1:2:0:0:
100,267,37551,6,0,L|303:278,1,197.99999395752,6|2,3:2|1:2,0:0:0:0:
371,327,38534,2,0,B|391:352|426:352|426:352|449:330|460:298|457:263|444:226,1,197.99999395752,2|2,3:2|1:2,0:0:0:0:
409,145,39518,1,2,3:2:0:0:
321,129,39846,1,2,1:2:0:0:
248,180,40174,6,0,B|181:202|181:202|110:184|87:119,1,197.99999395752,2|2,3:2|1:2,0:0:0:0:
127,42,41157,2,0,B|328:37,1,197.99999395752,2|2,3:2|1:2,0:0:0:0:
412,18,42141,1,2,0:2:0:0:
473,86,42469,1,6,3:2:0:0:
444,172,42797,6,0,L|437:304,1,110,6|0,3:2|1:2,0:0:0:0:
399,321,43289,2,0,P|353:303|285:302,1,110,2|2,0:2|3:2,0:0:0:0:
204,366,43944,1,2,0:2:0:0:
52,300,44436,1,2,1:2:0:0:
52,300,44600,2,0,L|57:190,1,110,2|2,0:2|3:2,0:0:0:0:
137,114,45256,1,2,0:2:0:0:
137,114,45420,6,0,P|191:112|243:93,1,110,2|0,3:2|1:2,0:0:0:0:
344,135,46075,2,0,P|398:137|450:156,1,110,2|0,3:2|1:2,0:0:0:0:
470,213,46567,1,2,0:2:0:0:
470,213,46731,2,0,L|465:323,1,110,2|2,3:2|1:2,0:0:0:0:
365,371,47387,1,2,0:2:0:0:
292,296,47715,1,2,1:2:0:0:
292,296,47879,6,0,B|283:256|283:256|290:226|290:226|287:186,2,110,6|8|8,3:2|3:3|3:3,0:0:0:0:
256,338,48698,2,0,B|217:350|217:350|136:339,1,110,12|8,1:3|1:3,0:0:0:0:
70,262,49354,2,0,B|79:222|79:222|72:192|72:192|75:152,2,110,2|6|12,0:3|0:3|3:3,0:0:0:0:
36,306,50174,2,0,L|43:364,2,55,2|2|6,1:2|1:2|1:2,0:0:0:0:
9,210,52633,6,0,L|16:99,1,98.9999969787599,2|0,0:2|1:0,0:0:0:0:
116,43,53289,6,0,P|175:34|232:55,2,121.000003692627,6|0|0,3:2|1:2|0:2,0:0:0:0:
35,133,54272,1,0,1:2:0:0:
35,133,54436,2,0,L|28:261,1,121.000003692627,2|2,0:2|3:2,0:0:0:0:
88,359,55092,1,2,0:2:0:0:
207,335,55420,1,2,0:2:0:0:
224,218,55748,1,2,0:2:0:0:
224,218,55911,6,0,L|218:97,2,121.000003692627,2|0|2,3:2|1:2|0:2,0:0:0:0:
318,294,56895,1,2,1:2:0:0:
412,218,57223,2,0,L|418:97,1,121.000003692627,2|0,0:2|1:2,0:0:0:0:
392,48,57715,1,2,0:2:0:0:
392,48,57879,2,0,P|319:33|264:39,1,121.000003692627,2|0,0:2|1:2,0:0:0:0:
239,87,58370,1,2,0:2:0:0:
239,87,58534,6,0,L|233:208,1,121.000003692627,2|2,3:2|1:2,0:0:0:0:
206,262,59026,1,2,0:2:0:0:
89,295,59354,1,2,0:2:0:0:
5,202,59682,2,0,L|-1:81,1,121.000003692627,2|0,3:2|3:2,0:0:0:0:
37,34,60174,1,2,1:2:0:0:
37,34,60338,1,2,0:2:0:0:
140,98,60666,1,2,3:2:0:0:
257,38,60993,6,0,B|300:35|300:35|328:46|328:46|375:43,1,121.000003692627,6|2,3:2|3:2,0:0:0:0:
436,39,61485,1,0,1:2:0:0:
506,144,61813,1,0,3:3:0:0:
506,144,61977,1,8,3:3:0:0:
425,234,62305,2,0,B|381:220|381:220|294:232|294:232|248:218,1,181.500005538941,6|0,0:2|1:2,0:0:0:0:
168,142,63125,2,0,L|166:68,1,60.5000018463135,2|2,3:2|3:2,0:0:0:0:
65,22,63616,6,0,B|21:38|21:38|4:134,1,121.000003692627,6|0,3:2|3:2,0:0:0:0:
36,165,64108,2,0,B|80:181|80:181|97:277,1,121.000003692627,0|0,1:2|0:2,0:0:0:0:
180,346,64764,1,2,1:2:0:0:
180,346,64928,2,0,L|301:338,1,121.000003692627,2|2,3:2|0:2,0:0:0:0:
419,362,65584,1,2,0:2:0:0:
478,256,65911,1,2,3:2:0:0:
395,168,66239,1,2,0:2:0:0:
395,168,66403,6,0,L|400:43,2,121.000003692627,2|0|0,3:2|1:2|3:2,0:0:0:0:
286,221,67387,1,2,1:2:0:0:
173,176,67715,2,0,L|30:165,1,121.000003692627,2|0,0:2|1:2,0:0:0:0:
4,129,68207,1,2,0:2:0:0:
4,129,68370,2,0,P|-3:57|18:6,1,121.000003692627,2|2,3:2|1:2,0:0:0:0:
117,75,69026,6,0,L|249:63,1,121.000003692627,4|2,3:2|1:2,0:0:0:0:
301,83,69518,1,2,0:2:0:0:
301,83,69682,2,0,L|426:72,1,121.000003692627,2|0,0:2|1:2,0:0:0:0:
480,88,70174,1,6,0:2:0:0:
467,208,70502,2,0,L|483:279,2,60.5000018463135,2|2|2,3:2|1:2|0:2,0:0:0:0:
353,170,71157,1,2,3:2:0:0:
353,170,71321,1,2,1:2:0:0:
280,266,71649,6,0,L|152:255,1,121.000003692627,6|2,3:2|1:2,0:0:0:0:
105,284,72141,1,2,0:2:0:0:
24,193,72469,2,0,L|17:120,1,60.5000018463135,2|2,0:2|1:2,0:0:0:0:
56,85,72797,2,0,P|122:75|183:101,1,121.000003692627,6|2,3:2|3:2,0:0:0:0:
265,169,73452,2,0,P|323:179|380:161,1,121.000003692627,6|2,3:2|3:2,0:0:0:0:
429,49,74108,1,2,0:2:0:0:
429,49,74272,6,0,P|370:38|313:56,2,121.000003692627,6|0|0,3:2|1:2|0:2,0:0:0:0:
486,162,75256,1,2,1:2:0:0:
486,162,75420,2,0,L|476:288,1,121.000003692627,6|2,3:2|3:2,0:0:0:0:
385,352,76075,2,0,P|330:326|271:328,1,121.000003692627,6|2,3:2|3:2,0:0:0:0:
164,372,76731,1,2,0:2:0:0:
164,372,76895,6,0,L|154:246,1,121.000003692627,6|4,3:2|1:2,0:0:0:0:
82,153,77551,2,0,L|11:143,2,60.5000018463135,4|8|4,0:2|3:3|1:3,0:0:0:0:
127,112,78043,2,0,P|165:85|243:73,1,121.000003692627,6|0,3:2|3:2,0:0:0:0:
289,101,78534,1,2,1:2:0:0:
407,78,78862,1,2,3:2:0:0:
452,293,79518,6,0,P|404:266|346:273,1,110,6|0,3:2|1:2,0:0:0:0:
272,348,80174,2,0,P|219:361|168:343,1,110,0|0,0:3|1:2,0:0:0:0:
126,307,80666,2,0,L|120:124,1,165,2|0,3:2|1:2,0:0:0:0:
297,9,81813,1,0,1:2:0:0:
378,82,82141,6,0,L|501:87,1,110,2|2,3:2|1:2,0:0:0:0:
504,195,82797,2,0,L|381:190,1,110,2|0,0:2|1:2,0:0:0:0:
341,207,83289,2,0,B|257:181|257:244|181:216,1,165,2|0,3:2|1:2,0:0:0:0:
81,169,84108,1,2,3:2:0:0:
4,249,84436,1,6,1:2:0:0:
56,346,84764,6,0,L|168:356,1,110,6|0,3:2|1:2,0:0:0:0:
274,336,85420,2,0,L|386:346,1,110,0|0,0:2|1:2,0:0:0:0:
436,329,85911,2,0,P|475:263|436:166,1,165,2|0,3:2|1:2,0:0:0:0:
346,152,86731,2,0,L|236:142,1,110,2|0,0:2|1:2,0:0:0:0:
131,174,87387,6,0,B|89:145|89:145|84:66,1,110,2|4,3:2|1:2,0:0:0:0:
234,13,88207,1,2,3:2:0:0:
329,66,88534,2,0,B|376:71|376:71|443:45|443:45|489:50,1,165,6|0,3:2|1:2,0:0:0:0:
501,100,89190,2,0,B|502:114|494:128|494:128|500:140|504:152|504:152|489:169|488:186|488:186|500:207|500:231|500:231|485:252|485:252|496:280|489:323,1,220,12|8,3:3|3:3,0:0:0:0:
449,337,90010,6,0,L|242:321,1,197.99999395752,6|0,3:2|1:0,0:0:0:0:
164,363,90993,1,2,0:2:0:0:
164,363,91157,2,0,L|159:247,1,98.9999969787599,2|2,3:2|0:2,0:0:0:0:
90,192,91813,2,0,L|85:76,1,98.9999969787599,2|2,0:2|0:0,0:0:0:0:
162,30,92469,5,2,1:2:0:0:
162,30,92633,1,2,3:2:0:0:
253,68,92961,2,0,L|309:58,1,49.4999984893799,2|2,0:2|3:2,0:0:0:0:
349,73,93289,1,2,1:2:0:0:
436,118,93616,1,2,0:2:0:0:
436,118,93780,2,0,P|424:163|419:218,1,98.9999969787599,2|2,3:2|3:2,0:0:0:0:
373,303,94436,1,0,3:2:0:0:
373,303,94600,2,0,L|218:291,1,148.49999546814,0|0,1:2|1:2,0:0:0:0:
182,316,95256,5,2,3:2:0:0:
116,241,95584,2,0,L|54:237,2,49.4999984893799,2|2|0,0:2|3:2|1:2,0:0:0:0:
191,175,96239,1,2,0:2:0:0:
190,175,96403,2,0,P|205:117|183:63,1,98.9999969787599,2|2,3:2|3:2,0:0:0:0:
107,32,97059,2,0,P|60:46|26:82,1,98.9999969787599,2|2,3:2|0:2,0:0:0:0:
18,131,97551,2,0,L|22:191,2,49.4999984893799,2|2|2,2:2|1:2|1:2,0:0:0:0:
191,339,99682,6,0,L|288:344,2,88,0|2|8,1:2|1:2|3:3,0:0:0:0:
142,352,100502,5,6,3:2:0:0:
50,314,100829,1,2,1:2:0:0:
50,314,100993,2,0,L|45:210,1,98.9999969787599,2|0,0:2|3:2,0:0:0:0:
20,171,101485,1,2,1:2:0:0:
20,171,101649,2,0,L|15:67,1,98.9999969787599,2|2,3:2|3:2,0:0:0:0:
112,93,102305,2,0,P|154:91|223:71,1,98.9999969787599,2|2,0:2|3:2,0:0:0:0:
297,32,102961,5,2,0:2:0:0:
297,32,103125,1,2,3:2:0:0:
374,93,103452,2,0,L|376:144,1,49.4999984893799,2|2,1:2|0:2,0:0:0:0:
310,217,103944,2,0,L|259:219,2,49.4999984893799,2|2|2,3:2|1:2|3:2,0:0:0:0:
395,266,104600,2,0,L|446:264,1,49.4999984893799,0|0,3:2|1:2,0:0:0:0:
471,222,104928,2,0,L|479:72,1,148.49999546814,2|2,0:2|1:2,0:0:0:0:
381,54,105748,6,0,P|334:52|279:32,1,98.9999969787599,6|0,3:2|1:2,0:0:0:0:
195,76,106403,1,2,0:2:0:0:
195,76,106567,2,0,P|148:78|93:98,2,98.9999969787599,2|2|2,3:2|3:2|3:2,0:0:0:0:
262,149,107551,2,0,P|308:165|357:167,1,98.9999969787599,2|2,3:2|3:2,0:0:0:0:
436,228,108207,1,2,0:2:0:0:
436,228,108370,6,0,L|429:332,1,98.9999969787599,6|0,3:2|1:2,0:0:0:0:
283,355,109190,2,0,P|251:344|232:340,1,49.4999984893799,2|2,3:2|1:2,0:0:0:0:
187,353,109518,2,0,P|137:354|92:335,1,98.9999969787599,6|0,0:2|1:2,0:0:0:0:
15,208,110338,2,0,L|9:106,1,98.9999969787599,10|12,3:3|3:3,0:0:0:0:
56,21,110993,6,0,B|90:51|90:51|249:42,1,197.99999395752,6|2,3:2|1:2,0:0:0:0:
310,100,111977,2,0,B|459:131|459:131|484:168,1,197.99999395752,2|2,3:2|1:2,0:0:0:0:
484,258,112961,1,2,3:2:0:0:
420,321,113289,1,2,1:2:0:0:
330,320,113616,6,0,B|124:303,1,197.99999395752,2|2,3:2|1:2,0:0:0:0:
57,251,114600,2,0,B|47:154|47:154|75:102|128:112,1,197.99999395752,2|2,3:2|1:2,0:0:0:0:
173,190,115584,1,2,3:2:0:0:
259,214,115911,1,2,1:2:0:0:
336,170,116239,6,0,B|346:72|346:72|318:20|264:31,1,197.99999395752,6|2,3:2|1:2,0:0:0:0:
201,95,117223,2,0,B|-5:78,1,197.99999395752,2|2,3:2|1:2,0:0:0:0:
12,167,118207,1,2,3:2:0:0:
21,256,118534,1,2,1:2:0:0:
30,345,118862,6,0,B|236:362,1,197.99999395752,2|2,3:2|1:2,0:0:0:0:
311,332,119846,2,0,B|343:302|343:302|376:215|320:159,1,197.99999395752,2|2,3:2|1:2,0:0:0:0:
233,135,120829,1,2,0:2:0:0:
229,45,121157,1,6,3:2:0:0:
313,13,121485,6,0,L|424:23,1,110,6|0,3:2|1:2,0:0:0:0:
469,51,121977,2,0,P|488:101|483:156,1,110,2|2,0:2|3:2,0:0:0:0:
445,259,122633,1,2,0:2:0:0:
293,193,123125,1,2,1:2:0:0:
293,193,123289,2,0,L|169:184,1,110,2|2,0:2|3:2,0:0:0:0:
86,243,123944,1,2,0:2:0:0:
86,243,124108,6,0,L|80:119,1,110,2|0,3:2|1:2,0:0:0:0:
138,39,124764,2,0,P|179:25|253:31,1,110,2|0,3:2|1:2,0:0:0:0:
290,69,125256,1,2,0:2:0:0:
290,69,125420,2,0,L|399:76,1,110,2|2,3:2|1:2,0:0:0:0:
476,155,126075,1,2,0:2:0:0:
431,255,126403,1,2,1:2:0:0:
431,255,126567,6,0,B|422:295|422:295|429:325|429:325|426:365,2,110,6|8|8,3:2|3:3|3:3,0:0:0:0:
398,210,127387,2,0,B|332:192|332:192|278:209,1,110,12|8,1:3|1:3,0:0:0:0:
186,235,128043,2,0,B|146:226|146:226|116:233|116:233|76:230,2,110,2|6|12,0:3|0:3|3:3,0:0:0:0:
212,283,128862,2,0,L|215:340,2,55,2|2|6,1:2|1:2|1:2,0:0:0:0:
419,353,131321,6,0,L|426:242,1,98.9999969787599,2|0,0:2|1:2,0:0:0:0:
365,148,131977,6,0,P|308:127|249:136,2,121.000003692627,6|0|0,3:2|1:2|0:2,0:0:0:0:
296,248,132961,1,0,1:2:0:0:
296,248,133125,2,0,P|236:256|180:236,1,121.000003692627,2|2,0:2|3:2,0:0:0:0:
80,168,133780,1,2,0:2:0:0:
148,68,134108,1,2,0:2:0:0:
253,140,134436,1,2,0:2:0:0:
253,140,134600,6,0,L|383:134,2,121.000003692627,2|0|2,3:2|1:2|0:2,0:0:0:0:
180,236,135584,1,2,1:2:0:0:
80,168,135911,2,0,L|65:39,1,121.000003692627,2|0,0:2|1:2,0:0:0:0:
130,39,136403,1,2,0:2:0:0:
130,39,136567,2,0,P|190:42|248:27,1,121.000003692627,2|0,0:2|1:2,0:0:0:0:
294,75,137059,1,2,0:2:0:0:
294,75,137223,6,0,P|354:72|412:87,1,121.000003692627,2|2,3:2|1:2,0:0:0:0:
456,129,137715,1,2,0:2:0:0:
474,248,138043,1,2,0:2:0:0:
381,319,138370,2,0,P|320:321|262:306,1,121.000003692627,2|0,3:2|3:2,0:0:0:0:
220,272,138862,1,2,1:2:0:0:
220,272,139026,1,2,0:2:0:0:
107,316,139354,1,2,3:2:0:0:
12,240,139682,6,0,B|9:197|9:197|20:169|20:169|17:122,1,121.000003692627,6|2,3:2|3:2,0:0:0:0:
49,69,140174,1,0,1:2:0:0:
163,29,140502,1,0,3:3:0:0:
163,29,140666,1,8,3:3:0:0:
244,118,140993,2,0,B|255:176|255:176|231:237|231:237|246:293,1,181.500005538941,6|0,0:2|1:2,0:0:0:0:
357,339,141813,2,0,L|434:329,1,60.5000018463135,2|2,3:2|3:2,0:0:0:0:
498,240,142305,6,0,B|468:223|468:223|449:125,1,121.000003692627,6|0,3:2|3:2,0:0:0:0:
418,87,142797,2,0,B|333:70|333:70|316:40,1,121.000003692627,0|0,1:2|0:2,0:0:0:0:
215,107,143452,1,2,1:2:0:0:
215,107,143616,2,0,L|94:99,1,121.000003692627,2|2,3:2|0:2,0:0:0:0:
0,176,144272,1,2,0:2:0:0:
20,296,144600,1,2,3:2:0:0:
133,338,144928,1,2,0:2:0:0:
133,338,145092,6,0,L|254:346,2,121.000003692627,2|0|0,3:2|1:2|3:2,0:0:0:0:
13,319,146075,1,2,1:2:0:0:
91,226,146403,2,0,L|99:105,1,121.000003692627,2|0,0:2|1:2,0:0:0:0:
137,59,146895,1,2,0:2:0:0:
137,59,147059,2,0,P|203:47|259:61,1,121.000003692627,2|2,3:2|1:2,0:0:0:0:
321,160,147715,6,0,L|333:292,1,121.000003692627,4|2,3:2|1:2,0:0:0:0:
350,344,148207,1,2,0:2:0:0:
350,344,148370,2,0,P|408:356|467:344,1,121.000003692627,2|0,0:2|1:2,0:0:0:0:
500,292,148862,1,6,0:2:0:0:
460,177,149190,2,0,P|466:140|465:111,2,60.5000018463135,2|2|2,3:2|1:2|0:2,0:0:0:0:
348,215,149846,1,2,3:2:0:0:
348,215,150010,1,2,1:2:0:0:
263,128,150338,6,0,P|208:105|135:117,1,121.000003692627,6|2,3:2|1:2,0:0:0:0:
96,143,150829,1,2,0:2:0:0:
30,245,151157,2,0,L|33:319,1,60.5000018463135,2|2,0:2|1:2,0:0:0:0:
65,356,151485,2,0,P|124:361|179:338,1,121.000003692627,6|2,3:2|3:2,0:0:0:0:
258,248,152141,2,0,L|262:127,1,121.000003692627,6|2,3:2|3:2,0:0:0:0:
351,44,152797,1,2,0:2:0:0:
351,44,152961,6,0,P|410:33|467:51,2,121.000003692627,6|0|0,3:2|1:2|0:2,0:0:0:0:
253,115,153944,1,2,1:2:0:0:
253,115,154108,2,0,L|124:101,1,121.000003692627,6|2,3:2|3:2,0:0:0:0:
34,172,154764,2,0,P|15:229|26:288,1,121.000003692627,6|2,3:2|3:2,0:0:0:0:
138,335,155420,1,2,0:2:0:0:
138,335,155584,6,0,L|258:321,1,121.000003692627,6|4,3:2|1:2,0:0:0:0:
366,267,156239,2,0,L|441:270,2,60.5000018463135,4|8|4,0:2|3:3|1:3,0:0:0:0:
312,237,156731,2,0,P|293:179|304:120,1,121.000003692627,6|0,3:2|3:2,0:0:0:0:
345,76,157223,1,2,1:2:0:0:
459,114,157551,1,2,3:2:0:0:
35,173,168698,6,0,L|26:71,2,88,6|0|0,3:2|1:2|0:2,0:0:0:0:
85,257,169682,1,0,1:2:0:0:
85,257,169846,2,0,P|133:243|217:250,1,132,0|0,3:2|1:2,0:0:0:0:
301,219,170666,2,0,L|310:117,1,88,2|0,0:2|1:2,0:0:0:0:
252,57,171321,6,0,L|150:48,2,88,2|0|0,3:2|1:2|0:2,0:0:0:0:
342,25,172305,1,0,1:2:0:0:
342,25,172469,2,0,L|477:36,1,132,2|0,3:2|1:2,0:0:0:0:
503,221,173616,1,4,1:2:0:0:
416,268,173944,6,0,P|399:318|406:371,2,98.9999969787599,6|0|0,3:2|1:2|0:2,0:0:0:0:
486,197,174928,1,0,1:2:0:0:
486,197,175092,2,0,L|489:96,1,98.9999969787599,6|2,0:2|3:2,0:0:0:0:
462,55,175584,1,0,1:2:0:0:
372,97,175911,2,0,P|323:100|276:84,1,98.9999969787599,2|0,0:2|1:2,0:0:0:0:
178,43,176567,6,0,P|131:26|64:31,2,110,6|0|0,3:2|1:2|0:2,0:0:0:0:
204,145,177551,1,0,1:2:0:0:
204,145,177715,2,0,L|206:257,1,110,4|0,3:2|3:2,0:0:0:0:
225,304,178207,1,2,1:2:0:0:
316,356,178534,2,0,P|362:340|427:347,1,110,10|12,0:3|0:3,0:0:0:0:
499,282,179190,6,0,B|509:143|509:143|484:89,1,197.99999395752,6|2,3:2|1:2,0:0:0:0:
400,59,180174,2,0,B|346:83|346:83|207:73,1,197.99999395752,2|2,3:2|1:2,0:0:0:0:
122,46,181157,1,2,3:2:0:0:
71,119,181485,1,2,1:2:0:0:
124,190,181813,6,0,L|330:183,1,197.99999395752,2|2,3:2|1:2,0:0:0:0:
412,190,182797,2,0,B|452:226|452:226|470:319|401:346,1,197.99999395752,2|2,3:2|1:2,0:0:0:0:
316,319,183780,1,2,3:2:0:0:
232,350,184108,1,2,1:2:0:0:
157,301,184436,6,0,B|118:290|81:308|81:308|17:273|41:195,1,197.99999395752,6|2,3:2|1:2,0:0:0:0:
83,129,185420,2,0,B|289:112,1,197.99999395752,2|2,3:2|1:2,0:0:0:0:
355,64,186403,1,2,3:2:0:0:
434,104,186731,1,2,1:2:0:0:
438,192,187059,6,0,B|428:224|399:250|399:250|327:270|268:228,1,197.99999395752,2|2,3:2|1:2,0:0:0:0:
198,188,188043,2,0,B|165:164|135:157|135:157|62:175|37:233,1,197.99999395752,2|2,3:2|1:2,0:0:0:0:
24,320,189026,1,2,0:2:0:0:
104,360,189354,1,6,3:2:0:0:
166,296,189682,6,0,P|212:286|281:291,1,110,6|0,3:2|1:2,0:0:0:0:
325,311,190174,2,0,P|379:315|433:304,1,110,2|2,0:2|3:2,0:0:0:0:
507,222,190829,1,2,0:2:0:0:
452,66,191321,1,2,1:2:0:0:
452,66,191485,2,0,P|400:48|345:44,1,110,2|2,0:2|3:2,0:0:0:0:
245,91,192141,1,2,0:2:0:0:
245,92,192305,6,0,L|131:86,1,110,2|0,3:2|1:2,0:0:0:0:
37,136,192961,2,0,P|19:187|15:242,1,110,2|0,3:2|1:2,0:0:0:0:
52,291,193452,1,2,0:2:0:0:
52,291,193616,2,0,L|161:296,1,110,2|2,3:2|1:2,0:0:0:0:
255,354,194272,1,2,0:2:0:0:
349,296,194600,1,2,1:2:0:0:
349,296,194764,6,0,B|351:255|351:255|340:226|340:226|349:186,2,110,6|8|8,3:2|3:3|3:3,0:0:0:0:
380,340,195584,2,0,B|431:357|431:357|499:338,1,110,12|8,1:3|1:3,0:0:0:0:
489,231,196239,2,0,B|486:190|486:190|497:161|497:161|489:121,2,110,2|6|12,0:3|0:3|3:3,0:0:0:0:
443,262,197059,2,0,L|377:251,2,55,2|2|6,1:2|1:2|1:2,0:0:0:0:
19,369,202141,6,0,L|26:258,1,98.9999969787599,2|0,0:2|1:2,0:0:0:0:
126,202,202797,6,0,P|185:193|242:214,2,121.000003692627,6|0|0,3:2|1:2|0:2,0:0:0:0:
22,139,203780,1,0,1:2:0:0:
22,139,203944,2,0,L|29:11,1,121.000003692627,2|2,0:2|3:2,0:0:0:0:
135,75,204600,1,2,0:2:0:0:
254,53,204928,1,2,0:2:0:0:
365,113,205256,1,2,0:2:0:0:
365,113,205420,6,0,L|505:105,2,121.000003692627,2|0|2,3:2|1:2|0:2,0:0:0:0:
261,176,206403,1,2,1:2:0:0:
365,237,206731,2,0,P|379:306|351:355,1,121.000003692627,2|0,0:2|1:2,0:0:0:0:
301,357,207223,1,2,0:2:0:0:
301,357,207387,2,0,L|161:349,1,121.000003692627,2|0,0:2|1:2,0:0:0:0:
123,354,207879,5,2,0:2:0:0:
123,354,208043,1,6,3:2:0:0:
0,70,209190,1,6,1:2:0:0:
0,70,209354,1,2,3:2:0:0:
286,143,210338,1,12,3:3:0:0:
286,143,210502,6,0,B|329:140|329:140|357:151|357:151|404:148,1,121.000003692627,6|2,3:2|3:2,0:0:0:0:
461,125,210993,1,0,1:2:0:0:
507,236,211321,1,0,3:3:0:0:
507,236,211485,1,8,3:3:0:0:
434,332,211813,2,0,B|390:318|390:318|303:330|303:330|257:316,1,181.500005538941,6|0,0:2|3:2,0:0:0:0:
141,350,212633,2,0,L|61:334,1,60.5000018463135,2|2,0:2|0:2,0:0:0:0:
0,239,213125,6,0,B|44:223|44:223|61:127,1,121.000003692627,6|0,3:2|3:2,0:0:0:0:
100,107,213616,2,0,B|173:94|173:94|189:50,1,121.000003692627,0|0,1:2|0:2,0:0:0:0:
288,119,214272,1,2,1:2:0:0:
288,119,214436,2,0,L|409:111,1,121.000003692627,2|2,3:2|0:2,0:0:0:0:
501,189,215092,1,2,0:2:0:0:
479,308,215420,1,2,3:2:0:0:
367,348,215748,1,2,0:2:0:0:
367,348,215911,6,0,L|246:340,2,121.000003692627,2|0|0,3:2|1:2|3:2,0:0:0:0:
470,283,216895,1,2,1:2:0:0:
379,203,217223,2,0,L|258:195,1,121.000003692627,2|0,0:2|1:2,0:0:0:0:
206,222,217715,1,2,0:2:0:0:
206,222,217879,2,0,L|85:214,1,121.000003692627,2|2,3:2|1:2,0:0:0:0:
2,125,218534,6,0,P|-4:59|26:13,1,121.000003692627,4|2,3:2|1:2,0:0:0:0:
79,39,219026,1,2,0:2:0:0:
79,39,219190,2,0,L|205:36,1,121.000003692627,2|0,0:2|1:2,0:0:0:0:
255,61,219682,1,6,0:2:0:0:
373,89,220010,2,0,P|401:79|437:73,2,60.5000018463135,2|2|2,3:2|1:2|0:2,0:0:0:0:
285,172,220666,1,2,3:2:0:0:
285,172,220829,1,2,1:2:0:0:
171,130,221157,6,0,L|50:123,1,121.000003692627,6|2,3:2|1:2,0:0:0:0:
11,171,221649,1,2,0:2:0:0:
92,260,221977,2,0,P|131:250|162:248,1,60.5000018463135,2|2,0:2|1:2,0:0:0:0:
201,281,222305,2,0,L|321:287,1,121.000003692627,6|2,3:2|3:2,0:0:0:0:
439,256,222961,2,0,P|468:204|461:145,1,121.000003692627,6|2,3:2|3:2,0:0:0:0:
371,72,223616,1,2,0:2:0:0:
371,72,223780,6,0,L|251:66,2,121.000003692627,6|0|0,3:2|1:2|0:2,0:0:0:0:
456,166,224764,1,2,1:2:0:0:
456,166,224928,2,0,L|446:292,1,121.000003692627,6|2,3:2|3:2,0:0:0:0:
341,346,225584,2,0,P|289:320|222:315,1,121.000003692627,6|2,3:2|3:2,0:0:0:0:
116,364,226239,1,2,0:2:0:0:
116,364,226403,6,0,L|106:238,1,121.000003692627,6|4,3:2|1:2,0:0:0:0:
64,129,227059,2,0,L|0:120,2,60.5000018463135,4|8|4,0:2|3:3|1:3,0:0:0:0:
111,91,227551,2,0,P|161:59|221:64,1,121.000003692627,6|0,3:2|3:2,0:0:0:0:
271,98,228043,1,2,1:2:0:0:
350,197,228370,1,2,3:2:0:0:
350,197,228534,1,2,1:2:0:0:
470,182,228862,6,0,B|492:139|492:139|487:44,1,121.000003692627,6|0,3:2|3:2,0:0:0:0:
432,42,229354,2,0,B|359:45|359:45|316:23,1,121.000003692627,0|0,1:2|0:2,0:0:0:0:
197,50,230010,1,2,1:2:0:0:
197,50,230174,2,0,L|187:177,1,121.000003692627,6|2,3:2|3:2,0:0:0:0:
290,234,230829,2,0,P|345:217|426:233,1,121.000003692627,6|2,3:2|3:2,0:0:0:0:
357,340,231485,1,2,0:2:0:0:
357,340,231649,6,0,P|302:357|221:341,1,121.000003692627,6|4,3:2|1:2,0:0:0:0:
128,302,232305,2,0,L|65:299,2,60.5000018463135,4|8|4,0:2|3:3|1:3,0:0:0:0:
174,262,232797,2,0,P|190:204|183:144,1,121.000003692627,6|0,3:2|3:2,0:0:0:0:
145,97,233289,1,2,1:2:0:0:
34,146,233616,1,2,3:2:0:0:
120,348,234272,6,0,P|172:360|223:342,1,110,6|0,3:2|1:2,0:0:0:0:
316,282,234928,2,0,P|366:263|419:275,1,110,0|0,0:3|1:2,0:0:0:0:
467,303,235420,2,0,L|474:130,1,165,2|0,3:2|1:2,0:0:0:0:
287,20,236567,1,0,1:2:0:0:
228,112,236895,6,0,L|221:245,1,110,2|2,3:2|1:2,0:0:0:0:
173,321,237551,2,0,P|122:339|71:321,1,110,2|0,0:2|1:2,0:0:0:0:
30,284,238043,2,0,L|22:120,1,165,2|0,3:2|1:2,0:0:0:0:
123,75,238862,1,2,3:2:0:0:
228,112,239190,1,6,1:2:0:0:
321,54,239518,6,0,P|371:35|424:47,1,110,6|0,3:2|1:2,0:0:0:0:
501,127,240174,2,0,L|496:237,1,110,0|0,0:2|1:2,0:0:0:0:
456,275,240666,2,0,P|380:303|302:275,1,165,2|0,3:2|1:2,0:0:0:0:
244,183,241485,2,0,P|195:160|142:171,1,110,2|0,0:2|1:2,0:0:0:0:
36,141,242141,6,0,B|19:113|19:113|30:25,1,110,6|0,3:2|1:0,0:0:0:0:
193,19,242961,1,2,3:2:0:0:
287,79,243289,2,0,B|334:84|334:84|401:58|401:58|447:63,1,165,6|0,3:2|1:2,0:0:0:0:
496,161,244108,1,2,1:2:0:0:
