osu file format v14

[General]
AudioFilename: audio.mp3
AudioLeadIn: 0
PreviewTime: 51286
Countdown: 0
SampleSet: Soft
StackLeniency: 0.7
Mode: 0
LetterboxInBreaks: 0
WidescreenStoryboard: 1

[Editor]
DistanceSpacing: 1
BeatDivisor: 4
GridSize: 32
TimelineZoom: 1.3

[Metadata]
Title:closing eyes
TitleUnicode:closing eyes
Artist:*namirin
ArtistUnicode:*なみりん
Creator:Lasse
Version:Normal
Source:
Tags:5colors mapping with rewards mwr 2017 featured artist
BeatmapID:1419444
BeatmapSetID:670579

[Difficulty]
HPDrainRate:3
CircleSize:3.2
OverallDifficulty:3
ApproachRate:4
SliderMultiplier:0.96
SliderTickRate:1

[Events]
//Background and Video events
0,0,"bg.jpg",0,0
//Break Periods
2,158213,167378
2,198166,200821
//Storyboard Layer 0 (Background)
//Storyboard Layer 1 (Fail)
//Storyboard Layer 2 (Pass)
//Storyboard Layer 3 (Foreground)
//Storyboard Sound Samples

[TimingPoints]
830,327.868852459016,4,2,0,68,1,0
3698,-100,4,2,0,5,0,0
3780,-100,4,2,0,68,0,0
11157,-100,4,2,0,54,0,0
11321,-111.111111111111,4,2,0,56,0,0
14190,-111.111111111111,4,2,0,5,0,0
14272,-111.111111111111,4,2,0,56,0,0
19436,-111.111111111111,4,2,0,5,0,0
19518,-111.111111111111,4,2,0,56,0,0
32305,-111.111111111111,4,2,0,58,0,0
42797,-100,4,2,0,66,0,0
43043,-100,4,2,0,5,0,0
43125,-100,4,2,0,66,0,0
45666,-100,4,2,0,5,0,0
45748,-100,4,2,0,66,0,0
48698,-100,4,2,0,68,0,0
49354,-100,4,2,0,60,0,0
50010,-100,4,2,0,64,0,0
50092,-100,4,2,0,66,0,0
50174,-100,4,2,0,68,0,0
50338,-100,4,2,0,70,0,0
50502,-100,4,2,0,72,0,0
52633,-111.111111111111,4,2,0,50,0,0
52879,-111.111111111111,4,2,0,5,0,0
52961,-111.111111111111,4,2,0,60,0,0
53289,-90.9090909090909,4,2,0,74,0,1
56157,-90.9090909090909,4,2,0,5,0,1
56239,-90.9090909090909,4,2,0,74,0,1
58780,-90.9090909090909,4,2,0,5,0,1
58862,-90.9090909090909,4,2,0,74,0,1
60993,-90.9090909090909,4,2,0,74,0,1
61239,-90.9090909090909,4,2,0,5,0,1
61321,-90.9090909090909,4,2,0,74,0,1
62305,-90.9090909090909,4,2,0,76,0,1
62797,-90.9090909090909,4,2,0,68,0,1
63125,-90.9090909090909,4,2,0,70,0,0
63616,-90.9090909090909,4,2,0,74,0,1
66649,-90.9090909090909,4,2,0,5,0,1
66731,-90.9090909090909,4,2,0,74,0,1
72797,-90.9090909090909,4,2,0,76,0,1
73043,-90.9090909090909,4,2,0,5,0,1
73125,-90.9090909090909,4,2,0,74,0,1
73452,-90.9090909090909,4,2,0,78,0,1
73698,-90.9090909090909,4,2,0,5,0,1
73780,-90.9090909090909,4,2,0,74,0,1
75420,-90.9090909090909,4,2,0,76,0,1
75666,-90.9090909090909,4,2,0,5,0,1
75748,-90.9090909090909,4,2,0,74,0,1
76321,-90.9090909090909,4,2,0,5,0,1
76403,-90.9090909090909,4,2,0,74,0,1
76895,-90.9090909090909,4,2,0,76,0,1
77141,-90.9090909090909,4,2,0,5,0,1
77223,-90.9090909090909,4,2,0,76,0,1
77469,-90.9090909090909,4,2,0,5,0,1
77551,-90.9090909090909,4,2,0,74,0,1
78043,-90.9090909090909,4,2,0,78,0,1
78289,-90.9090909090909,4,2,0,5,0,1
78370,-90.9090909090909,4,2,0,76,0,1
79026,-100,4,2,0,70,0,0
79354,-100,4,2,0,48,0,0
79518,-100,4,2,0,68,0,0
82387,-100,4,2,0,5,0,0
82469,-100,4,2,0,68,0,0
89354,-100,4,2,0,66,0,0
89600,-100,4,2,0,64,0,0
89846,-100,4,2,0,62,0,0
90009,-111.111111111111,4,2,0,56,0,0
92879,-111.111111111111,4,2,0,5,0,0
92961,-111.111111111111,4,2,0,56,0,0
95502,-111.111111111111,4,2,0,5,0,0
95584,-111.111111111111,4,2,0,56,0,0
97551,-111.111111111111,4,2,0,58,0,0
97633,-111.111111111111,4,2,0,56,0,0
97715,-111.111111111111,4,2,0,54,0,0
97797,-111.111111111111,4,2,0,52,0,0
97879,-111.111111111111,4,2,0,50,0,0
99026,-125,4,2,0,40,0,0
99682,-125,4,2,0,48,0,0
100010,-125,4,2,0,50,0,0
100174,-125,4,2,0,52,0,0
100256,-125,4,2,0,54,0,0
100338,-125,4,2,0,56,0,0
100420,-125,4,2,0,58,0,0
100502,-111.111111111111,4,2,0,56,0,0
100748,-111.111111111111,4,2,0,5,0,0
100829,-111.111111111111,4,2,0,56,0,0
103370,-111.111111111111,4,2,0,5,0,0
103452,-111.111111111111,4,2,0,56,0,0
104928,-111.111111111111,4,2,0,58,0,0
105092,-111.111111111111,4,2,0,56,0,0
105256,-111.111111111111,4,2,0,54,0,0
105420,-111.111111111111,4,2,0,52,0,0
105584,-111.111111111111,4,2,0,50,0,0
105748,-111.111111111111,4,2,0,60,0,0
105993,-111.111111111111,4,2,0,5,0,0
106075,-111.111111111111,4,2,0,60,0,0
110993,-111.111111111111,4,2,0,58,0,0
121485,-100,4,2,0,66,0,0
121731,-100,4,2,0,5,0,0
121813,-100,4,2,0,66,0,0
124354,-100,4,2,0,5,0,0
124436,-100,4,2,0,66,0,0
127386,-100,4,2,0,68,0,0
128042,-100,4,2,0,60,0,0
128698,-100,4,2,0,64,0,0
128780,-100,4,2,0,66,0,0
128862,-100,4,2,0,68,0,0
129026,-100,4,2,0,70,0,0
129190,-100,4,2,0,72,0,0
131321,-111.111111111111,4,2,0,50,0,0
131567,-111.111111111111,4,2,0,5,0,0
131649,-111.111111111111,4,2,0,60,0,0
131977,-90.9090909090909,4,2,0,74,0,1
134846,-90.9090909090909,4,2,0,5,0,1
134928,-90.9090909090909,4,2,0,74,0,1
137469,-90.9090909090909,4,2,0,5,0,1
137551,-90.9090909090909,4,2,0,74,0,1
139682,-90.9090909090909,4,2,0,74,0,1
139928,-90.9090909090909,4,2,0,5,0,1
140009,-90.9090909090909,4,2,0,74,0,1
140993,-90.9090909090909,4,2,0,76,0,1
141485,-90.9090909090909,4,2,0,68,0,1
141813,-90.9090909090909,4,2,0,70,0,0
142305,-90.9090909090909,4,2,0,74,0,1
145338,-90.9090909090909,4,2,0,5,0,1
145420,-90.9090909090909,4,2,0,74,0,1
151485,-90.9090909090909,4,2,0,76,0,1
151731,-90.9090909090909,4,2,0,5,0,1
151813,-90.9090909090909,4,2,0,74,0,1
152141,-90.9090909090909,4,2,0,78,0,1
152387,-90.9090909090909,4,2,0,5,0,1
152469,-90.9090909090909,4,2,0,74,0,1
154108,-90.9090909090909,4,2,0,76,0,1
154354,-90.9090909090909,4,2,0,5,0,1
154436,-90.9090909090909,4,2,0,74,0,1
155010,-90.9090909090909,4,2,0,5,0,1
155092,-90.9090909090909,4,2,0,74,0,1
155584,-90.9090909090909,4,2,0,76,0,1
155829,-90.9090909090909,4,2,0,5,0,1
155911,-90.9090909090909,4,2,0,76,0,1
156157,-90.9090909090909,4,2,0,5,0,1
156239,-90.9090909090909,4,2,0,74,0,1
156731,-90.9090909090909,4,2,0,78,0,1
156977,-90.9090909090909,4,2,0,5,0,1
157059,-90.9090909090909,4,2,0,76,0,1
157715,-100,4,2,0,70,0,0
158043,-100,4,2,0,48,0,0
158207,-125,4,2,0,64,0,0
168698,-125,4,2,0,60,0,0
173944,-111.111111111111,4,2,0,62,0,0
176567,-99.9999999999999,4,2,0,64,0,0
179190,-111.111111111111,4,2,0,58,0,0
189682,-100,4,2,0,66,0,0
189928,-100,4,2,0,5,0,0
190010,-100,4,2,0,66,0,0
192551,-100,4,2,0,5,0,0
192633,-100,4,2,0,66,0,0
195584,-100,4,2,0,68,0,0
196239,-100,4,2,0,60,0,0
196895,-100,4,2,0,64,0,0
196977,-100,4,2,0,66,0,0
197059,-100,4,2,0,68,0,0
197223,-100,4,2,0,70,0,0
197387,-100,4,2,0,72,0,0
202141,-111.111111111111,4,2,0,50,0,0
202387,-100,4,2,0,5,0,0
202469,-111.111111111111,4,2,0,60,0,0
202797,-90.9090909090909,4,2,0,76,0,1
205666,-90.9090909090909,4,2,0,5,0,1
205748,-90.9090909090909,4,2,0,76,0,1
208043,-90.9090909090909,4,2,0,74,0,0
209190,-90.9090909090909,4,2,0,76,0,1
209354,-90.9090909090909,4,2,0,72,0,0
210338,-90.9090909090909,4,2,0,58,0,0
210502,-90.9090909090909,4,2,0,74,0,1
210748,-90.9090909090909,4,2,0,5,0,1
210829,-90.9090909090909,4,2,0,74,0,1
211813,-90.9090909090909,4,2,0,76,0,1
212305,-90.9090909090909,4,2,0,62,0,1
212387,-90.9090909090909,4,2,0,64,0,1
212469,-90.9090909090909,4,2,0,66,0,1
212551,-90.9090909090909,4,2,0,68,0,1
212633,-90.9090909090909,4,2,0,70,0,0
213125,-90.9090909090909,4,2,0,74,0,1
216157,-90.9090909090909,4,2,0,5,0,1
216239,-90.9090909090909,4,2,0,74,0,1
222305,-90.9090909090909,4,2,0,76,0,1
222551,-90.9090909090909,4,2,0,5,0,1
222633,-90.9090909090909,4,2,0,74,0,1
222961,-90.9090909090909,4,2,0,78,0,1
223207,-90.9090909090909,4,2,0,5,0,1
223289,-90.9090909090909,4,2,0,74,0,1
224928,-90.9090909090909,4,2,0,76,0,1
225174,-90.9090909090909,4,2,0,5,0,1
225256,-90.9090909090909,4,2,0,74,0,1
225829,-90.9090909090909,4,2,0,5,0,1
225911,-90.9090909090909,4,2,0,74,0,1
226403,-90.9090909090909,4,2,0,76,0,1
226649,-90.9090909090909,4,2,0,5,0,1
226731,-90.9090909090909,4,2,0,76,0,1
226977,-90.9090909090909,4,2,0,5,0,1
227059,-90.9090909090909,4,2,0,74,0,1
227551,-90.9090909090909,4,2,0,76,0,1
227797,-90.9090909090909,4,2,0,5,0,1
227879,-90.9090909090909,4,2,0,76,0,1
228370,-90.9090909090909,4,2,0,72,0,0
228534,-90.9090909090909,4,2,0,70,0,0
228862,-90.9090909090909,4,2,0,76,0,1
229190,-90.9090909090909,4,2,0,74,0,1
230174,-90.9090909090909,4,2,0,76,0,1
230420,-90.9090909090909,4,2,0,5,0,1
230502,-90.9090909090909,4,2,0,74,0,1
231075,-90.9090909090909,4,2,0,5,0,1
231157,-90.9090909090909,4,2,0,74,0,1
231649,-90.9090909090909,4,2,0,77,0,1
231895,-90.9090909090909,4,2,0,5,0,1
231977,-90.9090909090909,4,2,0,77,0,1
232223,-90.9090909090909,4,2,0,5,0,1
232305,-90.9090909090909,4,2,0,74,0,1
232797,-90.9090909090909,4,2,0,77,0,1
233043,-90.9090909090909,4,2,0,5,0,1
233125,-90.9090909090909,4,2,0,78,0,1
233289,-90.9090909090909,4,2,0,75,0,1
233780,-100,4,2,0,70,0,0
234108,-100,4,2,0,48,0,0
234272,-100,4,2,0,68,0,0
237141,-100,4,2,0,5,0,0
237223,-100,4,2,0,68,0,0
242141,-100,4,2,0,68,0,0
244108,-100,4,2,0,70,0,0

[Colours]
Combo1 : 250,140,140
Combo2 : 150,240,240
Combo3 : 255,230,150
Combo4 : 160,240,160

[HitObjects]
7,152,174,5,2,3:0:0:0:
117,311,830,6,0,B|209:329|205:280|306:301,1,192,6|0,3:2|0:3,0:0:0:0:
444,343,1977,2,0,L|454:192,1,144,2|0,3:2|1:2,0:0:0:0:
359,31,3125,1,0,1:2:0:0:
271,68,3452,6,0,L|157:48,2,96,2|2|2,3:2|1:2|0:2,0:0:0:0:
339,195,4600,2,0,B|367:250|367:250|360:291|324:329,1,144,2|0,3:2|1:2,0:0:0:0:
237,345,5420,2,0,L|142:338,1,96,2|6,3:2|1:2,0:0:0:0:
57,290,6075,6,0,B|47:174|47:174|51:131|95:109,1,192,6|0,3:2|0:2,0:0:0:0:
210,188,7223,2,0,P|270:205|352:165,1,144,2|0,3:2|1:2,0:0:0:0:
402,99,8043,1,2,0:2:0:0:
218,42,8698,6,0,B|117:27,1,96,6|0,3:2|1:2,0:0:0:0:
18,127,9518,1,2,3:2:0:0:
95,183,9846,2,0,B|102:231|102:231|82:283|82:283|92:338,1,144,6|0,3:2|1:2,0:0:0:0:
177,359,10666,1,0,1:2:0:0:
348,336,11321,6,0,L|361:152,1,172.799994726563,6|0,3:2|0:2,0:0:0:0:
394,84,12305,1,2,1:2:0:0:
394,84,12469,2,0,P|450:69|494:68,2,86.3999973632813,2|2|2,3:2|3:2|0:2,0:0:0:0:
308,98,13452,1,2,3:2:0:0:
190,42,13944,6,0,P|134:27|90:26,2,86.3999973632813,2|2|2,3:2|1:2|0:2,0:0:0:0:
224,127,14928,1,2,1:2:0:0:
224,127,15092,2,0,L|219:267,1,129.599996044922,2|0,0:2|1:2,0:0:0:0:
172,328,15911,2,0,P|130:340|87:344,1,86.3999973632813,2|0,0:2|1:2,0:0:0:0:
22,278,16567,6,0,L|12:93,1,172.799994726563,2|0,3:2|0:2,0:0:0:0:
74,44,17551,1,0,1:2:0:0:
74,44,17715,2,0,P|121:29|170:26,1,86.3999973632813,2|2,0:2|3:2,0:0:0:0:
230,72,18370,2,0,P|270:85|313:90,1,86.3999973632813,2|2,0:2|3:2,0:0:0:0:
396,63,19026,1,2,0:2:0:0:
396,63,19190,6,0,P|436:49|479:44,1,86.3999973632813,2|0,3:2|1:2,0:0:0:0:
472,173,20010,2,0,L|381:162,1,86.3999973632813,2|2,3:2|0:2,0:0:0:0:
308,195,20666,1,2,3:2:0:0:
308,195,20829,2,0,L|217:184,1,86.3999973632813,2|0,1:2|0:2,0:0:0:0:
190,103,21485,1,0,1:2:0:0:
106,126,21813,6,0,B|116:192|116:192|97:234|97:234|109:307,1,172.799994726563,6|0,3:2|0:2,0:0:0:0:
168,353,22797,1,2,1:2:0:0:
168,353,22961,2,0,P|225:355|258:364,2,86.3999973632813,2|2|2,2:2|3:2|0:2,0:0:0:0:
85,378,23944,1,2,3:2:0:0:
4,276,24436,6,0,L|3:172,1,86.3999973632813,2|2,3:2|1:2,0:0:0:0:
41,65,25256,1,2,3:2:0:0:
123,89,25584,2,0,P|176:92|256:73,1,129.599996044922,2|0,3:2|1:2,0:0:0:0:
319,24,26403,1,2,0:2:0:0:
450,135,27059,6,0,L|447:225,1,86.3999973632813,6|0,3:2|1:2,0:0:0:0:
371,263,27715,1,2,0:2:0:0:
371,263,27879,2,0,P|327:237|276:231,2,86.3999973632813,2|2|2,3:2|0:2|3:2,0:0:0:0:
365,349,28862,2,0,P|323:361|281:360,1,86.3999973632813,2|2,0:2|3:2,0:0:0:0:
208,312,29518,1,2,0:2:0:0:
208,312,29682,6,0,L|203:216,1,86.3999973632813,4|0,3:2|1:2,0:0:0:0:
242,101,30502,1,2,3:2:0:0:
176,45,30829,2,0,P|122:40|78:49,1,86.3999973632813,6|8,3:2|3:3,0:0:0:0:
3,142,31649,2,0,L|-2:238,1,86.3999973632813,10|12,3:3|3:3,0:0:0:0:
48,299,32305,6,0,P|94:255|201:258,1,172.799994726563,6|2,3:2|1:2,0:0:0:0:
274,297,33289,2,0,P|357:306|424:254,1,172.799994726563,2|2,3:2|1:2,0:0:0:0:
436,168,34272,1,2,3:2:0:0:
304,55,34928,6,0,L|117:47,1,172.799994726563,2|2,3:2|1:2,0:0:0:0:
70,108,35911,2,0,L|62:295,1,172.799994726563,2|2,3:2|1:2,0:0:0:0:
131,333,36895,2,0,L|230:337,1,86.3999973632813,2|2,3:2|1:2,0:0:0:0:
301,357,37551,6,0,B|406:339|406:339|418:273,1,172.799994726563,6|2,3:2|1:2,0:0:0:0:
452,194,38534,2,0,B|383:112|383:112|321:134,1,172.799994726563,2|2,3:2|1:2,0:0:0:0:
272,205,39518,1,2,3:2:0:0:
107,152,40174,6,0,B|76:106|101:37|101:37|168:23,1,172.799994726563,2|2,3:2|1:2,0:0:0:0:
220,80,41157,2,0,B|253:122|327:120|327:120|361:61,1,172.799994726563,2|2,3:2|1:2,0:0:0:0:
427,28,42141,2,0,P|470:34|509:66,1,86.3999973632813,2|6,0:2|3:2,0:0:0:0:
504,155,42797,6,0,L|496:303,1,144,6|2,3:2|0:2,0:0:0:0:
425,363,43616,1,2,3:2:0:0:
351,301,43944,2,0,P|304:271|212:279,1,144,2|2,0:2|1:2,0:0:0:0:
177,301,44600,2,0,L|60:292,1,96,2|2,0:2|3:2,0:0:0:0:
16,230,45256,1,2,0:2:0:0:
16,230,45420,6,0,P|3:142|71:56,1,192,2|2,3:2|3:2,0:0:0:0:
206,92,46567,1,2,0:2:0:0:
206,92,46731,2,0,L|315:76,2,96,2|2|2,3:2|1:2|0:2,0:0:0:0:
129,150,47715,1,2,1:2:0:0:
129,150,47879,6,0,B|83:152|53:136|53:136|7:195|-5:262|26:335|109:346,1,336,6|8,3:2|1:3,0:0:0:0:
193,353,49354,2,0,L|301:349,1,96,2|6,0:3|0:3,0:0:0:0:
423,296,50174,2,0,B|423:270|431:258|431:258|426:246|426:246|434:226|433:203,1,96,2|6,1:2|1:2,0:0:0:0:
64,322,52633,6,0,L|61:235,1,86.3999973632813,2|0,0:2|1:0,0:0:0:0:
102,138,53289,6,0,P|161:129|247:239,1,211.200006445313,6|0,3:2|0:2,0:0:0:0:
300,326,54272,1,0,1:2:0:0:
300,326,54436,2,0,L|426:321,1,105.600003222656,2|2,0:2|3:2,0:0:0:0:
481,247,55092,2,0,P|491:192|475:136,1,105.600003222656,2|2,0:2|0:2,0:0:0:0:
392,84,55748,1,2,0:2:0:0:
392,84,55911,6,0,L|173:66,1,211.200006445313,2|2,3:2|0:2,0:0:0:0:
108,143,56895,1,2,1:2:0:0:
192,206,57223,2,0,L|411:224,1,211.200006445313,2|2,0:2|0:2,0:0:0:0:
496,350,58370,1,2,0:2:0:0:
496,350,58534,6,0,B|436:322|436:322|328:311,1,158.400004833985,2|2,3:2|0:2,0:0:0:0:
238,304,59354,1,2,0:2:0:0:
150,362,59682,2,0,B|20:344|20:344|-10:307|17:261,1,211.200006445313,2|2,3:2|0:2,0:0:0:0:
83,190,60666,1,2,3:2:0:0:
184,217,60993,6,0,B|227:215|227:215|288:198|288:198|339:198,1,158.400004833985,6|0,3:2|1:2,0:0:0:0:
433,247,61813,1,0,3:3:0:0:
486,97,62305,2,0,B|444:85|444:85|380:84|380:84|331:69,1,158.400004833985,6|0,0:2|1:2,0:0:0:0:
234,26,63125,1,2,3:2:0:0:
94,100,63616,6,0,B|78:246|78:246|93:314|150:331,1,264.000008056641,6|0,3:2|0:2,0:0:0:0:
255,304,64764,1,2,1:2:0:0:
255,304,64928,2,0,L|266:195,1,105.600003222656,2|2,3:2|0:2,0:0:0:0:
333,117,65584,2,0,P|382:101|436:113,1,105.600003222656,2|2,0:2|3:2,0:0:0:0:
499,202,66239,1,2,0:2:0:0:
499,202,66403,6,0,B|475:260|481:333|481:333|446:319|405:317,1,211.200006445313,2|0,3:2|3:2,0:0:0:0:
302,344,67387,1,2,1:2:0:0:
206,298,67715,2,0,B|140:273|73:306|73:306|30:305|2:269,1,211.200006445313,2|2,0:2|3:2,0:0:0:0:
51,69,69026,6,0,P|116:55|172:63,1,105.600003222656,4|2,3:2|1:2,0:0:0:0:
259,97,69682,1,2,0:2:0:0:
259,97,69846,1,2,3:2:0:0:
361,72,70174,2,0,B|483:59|483:59|507:102|502:147,1,211.200006445313,6|2,0:2|0:2,0:0:0:0:
465,245,71157,1,2,3:2:0:0:
465,245,71321,1,2,1:2:0:0:
371,195,71649,6,0,P|304:175|216:173,1,158.400004833985,6|2,3:2|0:2,0:0:0:0:
156,259,72469,1,2,0:2:0:0:
230,333,72797,2,0,P|267:344|351:344,1,105.600003222656,6|2,3:2|3:2,0:0:0:0:
426,295,73452,2,0,B|441:187,1,105.600003222656,6|2,3:2|3:2,0:0:0:0:
394,101,74108,1,2,0:2:0:0:
394,101,74272,6,0,B|324:89|324:89|252:108|252:108|187:97,1,211.200006445313,6|0,3:2|0:2,0:0:0:0:
91,51,75256,1,2,1:2:0:0:
91,51,75420,2,0,L|93:165,1,105.600003222656,6|2,3:2|3:2,0:0:0:0:
166,232,76075,2,0,P|222:219|286:226,1,105.600003222656,6|2,3:2|3:2,0:0:0:0:
359,289,76731,1,2,0:2:0:0:
359,289,76895,6,0,P|411:291|462:278,2,105.600003222656,6|4|4,3:2|1:2|0:2,0:0:0:0:
205,330,78043,2,0,B|152:306|102:327|102:327|68:328|39:305,1,158.400004833985,6|2,3:2|1:2,0:0:0:0:
23,212,78862,1,2,3:2:0:0:
113,42,79518,6,0,B|198:27|192:78|301:61,1,192,6|0,3:2|0:3,0:0:0:0:
436,110,80666,2,0,L|452:260,1,144,2|0,3:2|1:2,0:0:0:0:
289,357,81813,1,0,1:2:0:0:
206,307,82141,6,0,L|91:292,2,96,2|2|2,3:2|1:2|0:2,0:0:0:0:
303,200,83289,2,0,B|331:145|331:145|324:104|288:66,1,144,2|0,3:2|1:2,0:0:0:0:
197,70,84108,2,0,L|102:63,1,96,2|6,3:2|1:2,0:0:0:0:
38,135,84764,6,0,B|49:206|32:270|32:270|48:298|69:311,1,192,6|0,3:2|0:2,0:0:0:0:
207,350,85911,2,0,P|279:321|345:326,1,144,2|0,3:2|1:2,0:0:0:0:
433,360,86731,1,2,0:2:0:0:
487,176,87387,6,0,P|492:129|486:78,1,96,2|4,3:2|1:2,0:0:0:0:
347,42,88207,1,2,3:2:0:0:
276,107,88534,2,0,B|228:100|228:100|176:120|176:120|121:110,1,144,6|0,3:2|1:2,0:0:0:0:
2,334,90010,6,0,B|51:294|51:294|166:303,1,172.799994726563,6|0,3:2|1:0,0:0:0:0:
242,344,90993,1,2,0:2:0:0:
242,344,91157,2,0,L|347:352,1,86.3999973632813,2|2,3:2|0:2,0:0:0:0:
409,320,91813,2,0,P|425:280|420:235,1,86.3999973632813,2|2,0:2|0:0,0:0:0:0:
360,183,92469,1,2,1:2:0:0:
360,183,92633,6,0,L|254:172,2,86.3999973632813,2|2|2,3:2|0:2|1:2,0:0:0:0:
441,149,93616,1,2,0:2:0:0:
441,148,93780,2,0,B|425:103|452:65|452:65|428:20|374:5|336:42,1,215.999993408203,2|0,3:2|1:2,0:0:0:0:
178,44,95256,6,0,L|77:34,2,86.3999973632813,2|2|0,3:2|0:2|1:2,0:0:0:0:
255,94,96239,1,2,0:2:0:0:
255,94,96403,2,0,P|262:130|252:188,1,86.3999973632813,2|2,3:2|3:2,0:0:0:0:
185,230,97059,2,0,L|84:220,1,86.3999973632813,2|2,3:2|0:2,0:0:0:0:
12,216,97715,1,2,1:2:0:0:
12,216,97879,1,2,1:2:0:0:
387,112,99682,6,0,L|393:21,2,76.8,0|0|8,1:2|1:2|3:3,0:0:0:0:
409,149,100502,6,0,P|454:138|504:139,2,86.3999973632813,6|2|0,3:2|1:2|0:0,0:0:0:0:
355,216,101485,1,2,1:2:0:0:
355,216,101649,2,0,P|311:215|270:204,1,86.3999973632813,2|2,3:2|3:2,0:0:0:0:
196,157,102305,2,0,P|154:145|111:145,1,86.3999973632813,2|2,0:2|3:2,0:0:0:0:
47,202,102961,1,2,0:2:0:0:
47,202,103125,6,0,L|40:308,1,86.3999973632813,2|2,3:2|1:2,0:0:0:0:
161,336,103944,1,2,3:2:0:0:
161,336,104108,2,0,B|208:317|208:317|257:338|257:338|332:333,2,172.799994726563,2|0|2,1:2|1:2|1:2,0:0:0:0:
88,289,105748,6,0,L|85:199,1,86.3999973632813,6|0,3:2|1:2,0:0:0:0:
105,118,106403,1,2,0:2:0:0:
105,118,106567,2,0,L|102:28,2,86.3999973632813,2|2|2,3:2|3:2|3:2,0:0:0:0:
167,177,107551,2,0,P|207:178|251:157,1,86.3999973632813,2|2,3:2|3:2,0:0:0:0:
317,105,108207,1,2,0:2:0:0:
317,105,108370,6,0,L|417:98,1,86.3999973632813,6|0,3:2|1:2,0:0:0:0:
506,177,109190,1,2,3:2:0:0:
454,246,109518,2,0,L|354:253,1,86.3999973632813,6|0,0:2|1:2,0:0:0:0:
259,323,110338,2,0,L|159:316,1,86.3999973632813,10|12,3:3|3:3,0:0:0:0:
88,295,110993,6,0,P|53:240|92:140,1,172.799994726563,6|2,3:2|1:2,0:0:0:0:
173,153,111977,2,0,P|255:168|318:113,1,172.799994726563,2|2,3:2|1:2,0:0:0:0:
358,36,112961,1,2,3:2:0:0:
185,49,113616,6,0,B|126:44|126:44|72:16|72:16|16:13,1,172.799994726563,2|2,3:2|1:2,0:0:0:0:
7,111,114600,2,0,B|22:167|22:167|12:228|12:228|28:282,1,172.799994726563,2|2,3:2|1:2,0:0:0:0:
97,330,115584,2,0,L|196:334,1,86.3999973632813,2|2,3:2|1:2,0:0:0:0:
264,364,116239,6,0,B|316:344|369:346|369:346|383:318|381:282,1,172.799994726563,6|2,3:2|1:2,0:0:0:0:
336,207,117223,2,0,B|284:187|231:189|231:189|217:161|218:125,1,172.799994726563,2|2,3:2|1:2,0:0:0:0:
256,47,118207,1,2,3:2:0:0:
427,28,118862,6,0,B|478:38|478:38|503:107|472:153,1,172.799994726563,2|2,3:2|1:2,0:0:0:0:
398,197,119846,2,0,B|365:155|291:157|291:157|263:203,1,172.799994726563,2|2,3:2|1:2,0:0:0:0:
201,264,120829,2,0,L|105:255,1,86.3999973632813,2|6,0:2|3:2,0:0:0:0:
37,198,121485,6,0,B|17:160|17:160|11:110|35:55,1,144,6|2,3:2|0:2,0:0:0:0:
124,34,122305,1,2,3:2:0:0:
211,74,122633,2,0,B|277:92|275:50|352:68,1,144,2|2,0:2|1:2,0:0:0:0:
394,91,123289,2,0,L|403:187,1,96,2|2,0:2|3:2,0:0:0:0:
348,265,123944,1,2,0:2:0:0:
348,265,124108,6,0,B|246:236|259:297|160:269,1,192,2|2,3:2|3:2,0:0:0:0:
29,209,125256,1,2,0:2:0:0:
29,209,125420,2,0,L|26:107,2,96,2|2|2,3:2|1:2|0:2,0:0:0:0:
55,301,126403,1,2,1:2:0:0:
55,301,126567,6,0,B|108:298|146:321|146:321|231:355|282:311|282:311|292:249|246:223,1,336,6|8,3:2|1:3,0:0:0:0:
160,192,128043,2,0,P|143:138|167:90,1,96,2|6,0:3|0:3,0:0:0:0:
285,39,128862,2,0,B|310:40|323:32|323:32|335:38|335:38|355:31|378:33,1,96,2|6,1:2|1:2,0:0:0:0:
483,358,131321,6,0,L|486:271,1,86.3999973632813,2|0,0:2|1:2,0:0:0:0:
427,183,131977,6,0,P|367:154|244:215,1,211.200006445313,6|0,3:2|0:2,0:0:0:0:
190,302,132961,1,0,1:2:0:0:
190,302,133125,2,0,P|141:311|67:286,1,105.600003222656,2|2,0:2|3:2,0:0:0:0:
19,216,133780,2,0,L|11:104,1,105.600003222656,2|2,0:2|0:2,0:0:0:0:
87,37,134436,1,2,0:2:0:0:
87,37,134600,6,0,B|154:67|154:67|314:55,1,211.200006445313,2|2,3:2|0:2,0:0:0:0:
387,101,135584,1,2,1:2:0:0:
321,183,135911,2,0,L|97:197,1,211.200006445313,2|2,0:2|0:2,0:0:0:0:
3,313,137059,1,2,0:2:0:0:
3,313,137223,6,0,B|49:294|49:294|157:307,1,158.400004833985,2|2,3:2|0:2,0:0:0:0:
260,328,138043,1,2,0:2:0:0:
360,361,138370,2,0,B|440:367|440:367|498:329|482:251,1,211.200006445313,2|2,3:2|0:2,0:0:0:0:
419,166,139354,1,2,3:2:0:0:
318,198,139682,6,0,B|275:192|275:192|215:212|215:212|159:205,1,158.400004833985,6|0,3:2|1:2,0:0:0:0:
68,250,140502,1,0,3:3:0:0:
22,98,140993,2,0,B|65:92|65:92|125:112|125:112|181:105,1,158.400004833985,6|0,0:2|1:2,0:0:0:0:
270,154,141813,1,2,3:2:0:0:
390,49,142305,6,0,B|436:25|483:62|483:62|515:149|470:219,1,264.000008056641,6|0,3:2|0:2,0:0:0:0:
385,282,143452,1,2,1:2:0:0:
385,282,143616,2,0,L|267:271,1,105.600003222656,2|2,3:2|0:2,0:0:0:0:
188,326,144272,2,0,L|70:315,1,105.600003222656,2|2,0:2|3:2,0:0:0:0:
24,227,144928,1,2,0:2:0:0:
24,227,145092,6,0,B|1:163|50:87|50:87|87:91|105:115,1,211.200006445313,2|0,3:2|3:2,0:0:0:0:
144,213,146075,1,2,1:2:0:0:
249,204,146403,2,0,B|316:197|371:254|371:254|413:264|442:241,1,211.200006445313,2|2,0:2|3:2,0:0:0:0:
410,32,147715,6,0,P|363:20|288:23,1,105.600003222656,4|2,3:2|1:2,0:0:0:0:
218,79,148371,1,2,0:2:0:0:
218,79,148535,1,2,3:2:0:0:
124,32,148862,2,0,B|54:31|54:31|-9:92|28:174,1,211.200006445313,6|2,0:2|0:2,0:0:0:0:
82,246,149846,1,2,3:2:0:0:
82,246,150010,1,2,1:2:0:0:
175,197,150338,6,0,B|226:168|226:168|330:175,1,158.400004833985,6|2,3:2|0:2,0:0:0:0:
366,272,151157,1,2,0:2:0:0:
294,349,151485,2,0,L|171:359,1,105.600003222656,6|2,3:2|3:2,0:0:0:0:
88,323,152141,2,0,P|66:275|73:223,1,105.600003222656,6|2,3:2|3:2,0:0:0:0:
147,148,152797,1,2,0:2:0:0:
147,148,152961,6,0,B|200:147|200:147|289:202|289:202|346:204,1,211.200006445313,6|0,3:2|0:2,0:0:0:0:
441,165,153944,1,2,1:2:0:0:
441,165,154108,2,0,P|463:107|448:50,1,105.600003222656,6|2,3:2|3:2,0:0:0:0:
355,33,154764,2,0,L|234:21,1,105.600003222656,6|2,3:2|3:2,0:0:0:0:
153,65,155420,1,2,0:2:0:0:
153,65,155584,6,0,L|32:53,2,105.600003222656,6|4|4,3:2|1:2|0:2,0:0:0:0:
232,202,156731,2,0,B|249:254|224:309|224:309|231:336|254:353,1,158.400004833985,6|2,3:2|1:2,0:0:0:0:
354,360,157551,1,2,3:2:0:0:
22,236,168698,6,0,P|85:177|155:206,1,153.6,6|0,3:2|0:2,0:0:0:0:
193,265,169682,1,0,1:2:0:0:
193,265,169846,2,0,P|274:307|355:263,1,192,0|2,3:2|0:2,0:0:0:0:
414,121,171321,6,0,L|253:103,1,153.6,2|0,3:2|0:2,0:0:0:0:
185,134,172305,1,0,1:2:0:0:
185,134,172469,2,0,B|111:127|111:127|55:181|62:241,1,192,2|2,3:2|0:2,0:0:0:0:
92,305,173616,1,4,1:2:0:0:
172,322,173944,6,0,B|219:319|219:319|290:348|290:348|341:347,1,172.799994726563,6|0,3:2|0:2,0:0:0:0:
423,326,174928,1,0,1:2:0:0:
423,326,175092,2,0,L|433:102,1,215.999993408203,6|2,0:2|0:2,0:0:0:0:
247,57,176567,6,0,B|136:38|136:38|101:71|107:109,1,192,6|0,3:2|0:2,0:0:0:0:
174,186,177551,1,0,1:2:0:0:
174,186,177715,2,0,L|330:178,1,144,4|2,3:2|1:2,0:0:0:0:
397,232,178534,2,0,P|413:278|400:336,1,96,10|12,0:3|0:3,0:0:0:0:
323,350,179190,6,0,B|280:330|280:330|199:353|199:353|160:337,1,172.799994726563,6|2,3:2|1:2,0:0:0:0:
90,287,180174,2,0,B|70:244|70:244|93:163|93:163|77:124,1,172.799994726563,2|2,3:2|1:2,0:0:0:0:
64,39,181157,1,2,3:2:0:0:
232,78,181813,6,0,L|418:66,1,172.799994726563,2|2,3:2|1:2,0:0:0:0:
470,122,182797,2,0,L|462:309,1,172.799994726563,2|2,3:2|1:2,0:0:0:0:
391,344,183780,2,0,L|304:338,1,86.3999973632813,2|2,3:2|1:2,0:0:0:0:
219,356,184436,6,0,B|120:324|120:324|127:244,1,172.799994726563,6|2,3:2|1:2,0:0:0:0:
196,203,185420,2,0,B|295:171|295:171|287:91,1,172.799994726563,2|2,3:2|1:2,0:0:0:0:
237,32,186403,1,2,3:2:0:0:
64,37,187059,6,0,B|23:64|23:64|-3:119|28:189,1,172.799994726563,2|2,3:2|1:2,0:0:0:0:
96,234,188043,2,0,B|139:211|139:211|200:216|242:274,1,172.799994726563,2|2,3:2|1:2,0:0:0:0:
295,342,189026,2,0,P|340:346|386:329,1,86.3999973632813,2|6,0:2|3:2,0:0:0:0:
445,264,189682,6,0,L|453:116,1,144,6|2,3:2|0:2,0:0:0:0:
392,44,190502,1,2,3:2:0:0:
324,112,190829,2,0,P|253:120|191:86,1,144,2|2,0:2|1:2,0:0:0:0:
158,50,191485,2,0,P|116:41|48:51,1,96,2|2,0:2|3:2,0:0:0:0:
23,133,192141,1,2,0:2:0:0:
23,133,192305,6,0,B|47:179|47:179|23:270|23:270|37:313,1,192,2|2,3:2|3:2,0:0:0:0:
169,255,193452,1,2,0:2:0:0:
169,255,193616,2,0,L|173:139,2,96,2|2|2,3:2|1:2|0:2,0:0:0:0:
244,324,194600,1,2,1:2:0:0:
244,324,194764,6,0,B|300:349|371:318|403:249|395:181|395:181|355:150|306:164,1,336,6|8,3:2|1:3,0:0:0:0:
227,202,196239,2,0,L|118:192,1,96,2|6,0:3|0:3,0:0:0:0:
39,81,197059,2,0,B|64:79|76:71|76:71|88:75|88:75|108:66|131:66,1,96,2|6,1:2|1:2,0:0:0:0:
478,90,202141,6,0,L|383:82,1,86.3999973632813,2|0,0:2|1:2,0:0:0:0:
286,92,202797,6,0,B|232:118|232:118|198:192|236:280,1,211.200006445313,6|0,3:2|0:2,0:0:0:0:
313,339,203780,1,0,1:2:0:0:
313,339,203944,2,0,L|439:334,1,105.600003222656,2|2,0:2|3:2,0:0:0:0:
487,254,204600,2,0,P|497:199|481:143,1,105.600003222656,2|2,0:2|0:2,0:0:0:0:
402,85,205256,1,2,0:2:0:0:
402,85,205420,6,0,B|300:49|297:126|196:84,1,211.200006445313,2|2,3:2|0:2,0:0:0:0:
102,35,206403,1,2,1:2:0:0:
31,114,206731,2,0,L|13:333,1,211.200006445313,2|2,0:2|0:2,0:0:0:0:
163,375,207879,5,2,0:2:0:0:
163,375,208043,1,6,3:2:0:0:
396,189,209190,1,6,1:2:0:0:
396,189,209354,1,2,3:2:0:0:
167,83,210338,1,12,3:3:0:0:
167,83,210502,6,0,B|64:71|64:71|14:128,1,158.400004833985,6|0,3:2|1:2,0:0:0:0:
55,214,211321,1,0,3:3:0:0:
189,297,211813,2,0,B|230:292|230:292|257:304|257:304|350:300,1,158.400004833985,6|0,0:2|3:2,0:0:0:0:
434,356,212633,1,2,0:2:0:0:
487,206,213125,6,0,B|496:52|496:52|425:17|376:70,1,264.000008056641,6|0,3:2|0:2,0:0:0:0:
334,143,214272,1,2,1:2:0:0:
334,143,214436,2,0,P|281:147|233:127,1,105.600003222656,2|2,3:2|0:2,0:0:0:0:
149,63,215092,2,0,P|100:42|48:47,1,105.600003222656,2|2,0:2|3:2,0:0:0:0:
11,146,215748,1,2,0:2:0:0:
11,146,215911,6,0,B|32:207|29:277|29:277|68:285|105:261,1,211.200006445313,2|0,3:2|3:2,0:0:0:0:
191,201,216895,1,2,1:2:0:0:
284,151,217223,2,0,B|359:126|427:157|427:157|451:187|440:238,1,211.200006445313,2|2,0:2|3:2,0:0:0:0:
274,345,218534,6,0,L|166:335,1,105.600003222656,4|2,3:2|1:2,0:0:0:0:
75,296,219190,1,2,0:2:0:0:
75,296,219354,1,2,3:2:0:0:
55,191,219682,2,0,B|70:135|67:68|67:68|103:38|153:57,1,211.200006445313,6|2,0:2|0:2,0:0:0:0:
225,129,220666,1,2,3:2:0:0:
225,129,220829,1,2,1:2:0:0:
312,61,221157,6,0,P|382:46|475:68,1,158.400004833985,6|2,3:2|0:2,0:0:0:0:
492,166,221977,1,2,0:2:0:0:
390,201,222305,2,0,L|269:190,1,105.600003222656,6|2,3:2|3:2,0:0:0:0:
185,227,222961,2,0,P|165:273|171:331,1,105.600003222656,6|2,3:2|3:2,0:0:0:0:
271,355,223616,1,2,0:2:0:0:
271,355,223780,6,0,B|325:328|397:365|397:365|444:370|478:351,1,211.200006445313,6|0,3:2|0:2,0:0:0:0:
497,249,224764,1,2,1:2:0:0:
497,249,224928,2,0,L|499:135,1,105.600003222656,6|2,3:2|3:2,0:0:0:0:
436,58,225584,2,0,P|380:45|316:52,1,105.600003222656,6|2,3:2|3:2,0:0:0:0:
235,91,226239,1,2,0:2:0:0:
235,91,226403,6,0,P|183:93|132:80,2,105.600003222656,6|4|4,3:2|1:2|0:2,0:0:0:0:
360,188,227551,2,0,B|379:238|379:238|383:301|327:325,1,158.400004833985,6|2,3:2|1:2,0:0:0:0:
225,331,228370,1,2,3:2:0:0:
145,198,228862,6,0,B|142:132|154:44|154:44|84:16|36:55,1,264.000008056641,6|0,3:2|0:2,0:0:0:0:
20,148,230010,1,2,1:2:0:0:
20,148,230174,2,0,L|32:256,1,105.600003222656,6|2,3:2|3:2,0:0:0:0:
105,328,230829,2,0,P|154:312|206:314,1,105.600003222656,6|2,3:2|3:2,0:0:0:0:
305,355,231485,1,2,0:2:0:0:
305,355,231649,6,0,L|423:361,2,105.600003222656,6|4|4,3:2|1:2|0:2,0:0:0:0:
207,229,232797,2,0,B|178:192|178:192|180:121|218:85,1,158.400004833985,6|2,3:2|1:2,0:0:0:0:
293,19,233616,1,2,3:2:0:0:
470,92,234272,6,0,L|460:292,1,192,6|0,3:2|0:3,0:0:0:0:
341,363,235420,2,0,P|279:324|198:327,1,144,2|0,3:2|1:2,0:0:0:0:
22,363,236567,1,0,1:2:0:0:
41,269,236895,6,0,L|30:170,2,96,2|2|2,3:2|1:2|0:2,0:0:0:0:
164,344,238043,2,0,B|214:322|214:322|240:282|224:231,1,144,2|0,3:2|1:2,0:0:0:0:
176,153,238862,2,0,P|172:82|189:42,1,96,2|6,3:2|1:2,0:0:0:0:
273,39,239518,6,0,B|341:46|341:46|377:28|377:28|471:34,1,192,6|0,3:2|0:2,0:0:0:0:
495,173,240666,2,0,L|482:327,1,144,2|0,3:2|1:2,0:0:0:0:
395,356,241485,1,2,0:2:0:0:
260,219,242141,6,0,L|251:123,1,96,6|0,3:2|1:0,0:0:0:0:
137,36,242961,1,2,3:2:0:0:
81,114,243289,2,0,B|77:162|77:162|46:208|46:208|44:264,1,144,6|0,3:2|1:2,0:0:0:0:
32,343,244108,1,2,1:2:0:0:
