osu file format v14

[General]
AudioFilename: audio.mp3
AudioLeadIn: 0
PreviewTime: 51163
Countdown: 0
SampleSet: Soft
StackLeniency: 0.7
Mode: 0
LetterboxInBreaks: 0
WidescreenStoryboard: 1

[Editor]
Bookmarks: 101163,102311
DistanceSpacing: 1
BeatDivisor: 4
GridSize: 4
TimelineZoom: 1.9

[Metadata]
Title:closing eyes
TitleUnicode:closing eyes
Artist:*namirin
ArtistUnicode:*なみりん
Creator:Firis Mistlud
Version:Hard
Source:osu!
Tags:KuranteMelodii krt 5colors mwr mapping with rewards
BeatmapID:1444367
BeatmapSetID:683020

[Difficulty]
HPDrainRate:5.5
CircleSize:4
OverallDifficulty:6
ApproachRate:8
SliderMultiplier:1.5
SliderTickRate:1

[Events]
//Background and Video events
0,0,"bglol.jpg",0,0
//Break Periods
2,79724,86081
//Storyboard Layer 0 (Background)
//Storyboard Layer 1 (Fail)
//Storyboard Layer 2 (Pass)
//Storyboard Layer 3 (Foreground)
//Storyboard Sound Samples

[TimingPoints]
836,327.868852459016,4,2,0,70,1,0
836,-100,4,2,0,70,0,0
11327,-125,4,2,0,70,0,0
11491,-125,4,2,0,40,0,0
21819,-125,4,2,0,60,0,0
32311,-142.857142857143,4,2,0,70,0,0
32475,-142.857142857143,4,2,0,50,0,0
37557,-142.857142857143,4,2,0,70,0,0
37721,-142.857142857143,4,2,0,50,0,0
42311,-142.857142857143,4,2,0,60,0,0
42475,-100,4,2,0,60,0,0
42803,-100,4,2,0,70,0,0
51327,-133.333333333333,4,2,0,30,0,0
51819,-133.333333333333,4,2,0,5,0,0
51983,-133.333333333333,4,2,0,30,0,0
52475,-133.333333333333,4,2,0,5,0,0
52639,-100,4,2,0,50,0,0
53295,-90.9090909090909,4,2,0,70,0,1
63131,-90.9090909090909,4,2,0,70,0,0
63786,-90.9090909090909,4,2,0,70,0,1
76901,-83.3333333333333,4,2,0,70,0,1
78049,-90.9090909090909,4,2,0,70,0,1
79524,-100,4,2,0,70,0,0
88540,-100,4,2,0,70,0,0
90016,-125,4,2,0,40,0,0
92967,-125,4,2,0,60,0,0
93295,-125,4,2,0,40,0,0
95590,-125,4,2,0,60,0,0
95917,-125,4,2,0,40,0,0
97557,-125,4,2,0,60,0,0
99032,-125,4,2,0,30,0,0
99688,-125,4,2,0,50,0,0
100508,-125,4,2,0,60,0,0
110999,-142.857142857143,4,2,0,70,0,0
111163,-142.857142857143,4,2,0,50,0,0
116245,-142.857142857143,4,2,0,70,0,0
116409,-142.857142857143,4,2,0,50,0,0
120999,-100,4,2,0,60,0,0
121491,-100,4,2,0,70,0,0
130016,-133.333333333333,4,2,0,30,0,0
130508,-133.333333333333,4,2,0,5,0,0
130672,-133.333333333333,4,2,0,30,0,0
131163,-133.333333333333,4,2,0,5,0,0
131327,-100,4,2,0,70,0,0
131983,-90.9090909090909,4,2,0,70,0,1
141819,-90.9090909090909,4,2,0,70,0,0
142475,-90.9090909090909,4,2,0,70,0,1
155590,-83.3333333333333,4,2,0,70,0,1
156737,-90.9090909090909,4,2,0,70,0,1
158213,-90.9090909090909,4,2,0,70,0,0
179196,-142.857142857143,4,2,0,70,0,0
179360,-142.857142857143,4,2,0,50,0,0
184442,-142.857142857143,4,2,0,70,0,0
184606,-142.857142857143,4,2,0,50,0,0
189360,-100,4,2,0,70,0,0
198213,-133.333333333333,4,2,0,30,0,0
198704,-133.333333333333,4,2,0,5,0,0
198868,-133.333333333333,4,2,0,30,0,0
199360,-133.333333333333,4,2,0,5,0,0
199524,-133.333333333333,4,2,0,30,0,0
200016,-133.333333333333,4,2,0,5,0,0
200835,-117.647058823529,4,2,0,30,0,0
201327,-117.647058823529,4,2,0,5,0,0
201491,-117.647058823529,4,2,0,30,0,0
201983,-117.647058823529,4,2,0,5,0,0
202147,-90.9090909090909,4,2,0,50,0,0
202803,-83.3333333333333,4,2,0,70,0,1
208049,-83.3333333333333,4,2,0,70,0,0
209196,-83.3333333333333,4,2,0,70,0,1
209360,-83.3333333333333,4,2,0,70,0,0
210672,-83.3333333333333,4,2,0,70,0,1
212639,-83.3333333333333,4,2,0,70,0,0
213295,-83.3333333333333,4,2,0,70,0,1
226409,-76.9230769230769,4,2,0,70,0,1
227557,-83.3333333333333,4,2,0,70,0,1
228540,-83.3333333333333,4,2,0,70,0,0
229032,-83.3333333333333,4,2,0,70,0,1
231655,-76.9230769230769,4,2,0,70,0,1
232803,-83.3333333333333,4,2,0,70,0,1
234278,-83.3333333333333,4,2,0,70,0,0

[Colours]
Combo1 : 0,255,255
Combo2 : 78,78,78
Combo3 : 190,190,190
Combo4 : 85,43,43
Combo5 : 253,82,0
Combo6 : 128,64,0
Combo7 : 255,0,0
Combo8 : 238,0,238

[HitObjects]
15,102,180,37,0,1:0:0:0:
58,36,344,2,0,L|101:45,5,37.5,0|0|0|0|0|0,1:0|1:0|1:0|1:0|1:0|1:0,0:0:0:0:
133,20,836,6,0,P|112:71|163:166,1,150,6|10,1:2|1:2,0:0:0:0:
208,220,1327,1,0,0:0:0:0:
261,147,1491,2,0,L|341:137,1,75,2|0,1:2|1:0,0:0:0:0:
425,129,1819,1,10,0:0:0:0:
490,66,1983,6,0,P|511:117|460:212,1,150,0|0,1:0|0:0,0:0:0:0:
386,211,2475,1,10,1:2:0:0:
386,211,2803,2,0,L|395:295,1,75,2|0,1:2|1:0,0:0:0:0:
376,374,3131,1,10,0:0:0:0:
376,374,3458,86,0,P|427:369|485:292,2,150,2|10|2,1:2|1:2|1:2,0:0:0:0:
312,308,4278,1,0,1:0:0:0:
240,363,4442,1,10,0:0:0:0:
176,297,4606,6,0,L|193:119,1,150,0|0,1:0|0:0,0:0:0:0:
202,57,5098,1,10,1:2:0:0:
202,57,5426,2,0,L|147:48,3,37.5,2|0|0|0,1:2|0:0|1:0|0:0,0:0:0:0:
126,26,5754,2,0,L|71:35,3,37.5,14|0|0|0,0:0|0:0|1:0|0:0,0:0:0:0:
46,47,6081,6,0,L|31:196,1,150,6|10,1:2|1:2,0:0:0:0:
21,286,6573,1,0,0:0:0:0:
9,375,6737,2,0,P|69:362|95:338,1,75,2|0,1:2|1:0,0:0:0:0:
150,298,7065,1,10,0:0:0:0:
118,213,7229,86,0,P|163:206|241:281,1,150,0|0,1:0|0:0,0:0:0:0:
228,358,7721,1,10,1:2:0:0:
228,358,8049,2,0,L|309:354,2,75,2|0|10,1:2|1:0|0:0,0:0:0:0:
196,180,8704,6,0,L|371:173,1,150,6|10,1:2|1:2,0:0:0:0:
491,281,9360,1,2,1:2:0:0:
489,190,9524,2,0,L|485:100,1,75,0|10,1:0|0:0,0:0:0:0:
497,23,9852,6,0,P|458:53|351:52,1,150,4|0,1:2|1:0,0:0:0:0:
277,19,10344,1,8,0:0:0:0:
353,181,10672,5,0,1:0:0:0:
353,181,10835,1,0,1:0:0:0:
353,181,11327,38,0,P|370:244|353:306,1,120,6|10,0:0|0:0,0:0:0:0:
218,374,11983,2,0,L|138:366,1,60,2|0,0:0|1:0,0:0:0:0:
91,325,12311,1,10,0:0:0:0:
28,277,12475,6,0,P|11:214|28:152,1,120,0|0,1:0|1:0,0:0:0:0:
92,125,12967,2,0,L|224:110,1,120,10|2,0:0|0:0,0:0:0:0:
288,101,13458,1,0,1:0:0:0:
241,40,13622,1,10,0:0:0:0:
182,183,13950,102,0,P|166:244|187:305,2,120,2|10|2,0:0|0:0|0:0,0:0:0:0:
258,172,14770,1,0,1:0:0:0:
334,161,14934,1,10,0:0:0:0:
411,150,15098,6,0,P|427:89|406:28,1,120,0|0,1:0|1:0,0:0:0:0:
332,41,15590,1,10,0:0:0:0:
332,41,15917,2,0,L|258:50,2,60,2|0|10,0:0|1:0|0:0,0:0:0:0:
478,96,16573,102,0,L|492:238,1,120,2|10,0:0|0:0,0:0:0:0:
405,347,17229,2,0,L|331:356,1,60,2|0,0:0|1:0,0:0:0:0:
267,362,17557,1,10,0:0:0:0:
189,368,17721,6,0,P|208:313|282:285,1,120,0|0,1:0|1:0,0:0:0:0:
337,273,18213,1,10,0:0:0:0:
182,293,18540,2,0,L|108:284,1,60,2|0,0:0|1:0,0:0:0:0:
45,272,18868,1,10,0:0:0:0:
188,217,19196,102,0,P|243:198|271:124,2,120,2|10|2,0:0|0:0|0:0,0:0:0:0:
110,206,20016,1,0,1:0:0:0:
33,189,20180,1,10,0:0:0:0:
86,132,20344,6,0,L|103:13,1,120,0|0,1:0|1:0,0:0:0:0:
173,55,20835,1,10,0:0:0:0:
320,20,21163,2,0,L|307:101,1,60,2|0,0:0|1:0,0:0:0:0:
271,146,21491,1,10,0:0:0:0:
271,146,21819,6,0,L|288:265,1,120,6|10,0:0|0:0,0:0:0:0:
401,372,22475,2,0,L|461:363,1,60,2|0,0:0|1:0,0:0:0:0:
471,285,22803,1,10,0:0:0:0:
478,207,22967,6,0,P|416:227|392:292,1,120,0|0,1:0|1:0,0:0:0:0:
334,329,23458,1,10,0:0:0:0:
254,335,23622,2,0,P|210:286|222:218,1,120,2|0,0:0|1:0,0:0:0:0:
195,158,24114,2,0,L|131:143,1,60,10|0,0:0|0:0,0:0:0:0:
82,87,24442,6,0,B|58:132|58:132|70:213,2,120,2|10|2,0:0|0:0|0:0,0:0:0:0:
158,70,25262,1,0,1:0:0:0:
233,88,25426,1,10,0:0:0:0:
307,112,25590,86,0,L|426:97,1,120,0|0,1:0|1:0,0:0:0:0:
472,34,26081,2,0,B|461:102|461:102|485:147,1,120,10|2,0:0|0:0,0:0:0:0:
509,222,26573,1,0,1:0:0:0:
433,201,26737,1,10,0:0:0:0:
320,346,27065,6,0,B|330:277|330:277|306:232,1,120,6|10,0:0|0:0,0:0:0:0:
233,88,27721,1,2,0:0:0:0:
233,88,27885,2,0,L|225:165,1,60,0|10,1:0|0:0,0:0:0:0:
231,226,28213,6,0,B|188:218|188:218|159:196|159:196|120:188,1,120,0|0,1:0|1:0,0:0:0:0:
43,203,28704,1,10,0:0:0:0:
89,265,28868,2,0,B|128:273|128:273|157:295|157:295|200:303,1,120,2|0,0:0|1:0,0:0:0:0:
278,293,29360,1,10,0:0:0:0:
248,366,29524,1,0,0:0:0:0:
349,260,29688,85,6,0:0:0:0:
349,260,30016,2,0,P|376:311|433:314,1,120,10|2,0:0|0:0,0:0:0:0:
500,354,30508,2,0,P|511:327|511:296,1,60,0|10,1:0|0:0,0:0:0:0:
488,185,30835,6,0,P|502:130|459:66,2,120,4|0|0,1:2|1:0|1:0,0:0:0:0:
415,223,31655,1,0,1:0:0:0:
370,151,31819,2,0,L|376:86,1,60,8|0,3:3|3:3,0:0:0:0:
236,19,32311,69,6,0:0:0:0:
236,19,32475,2,0,L|225:142,1,104.999996795654,0|0,0:0|1:0,0:0:0:0:
220,197,32967,1,10,0:0:0:0:
204,343,33295,5,2,0:0:0:0:
204,343,33458,2,0,L|316:291,1,104.999996795654,0|0,0:0|1:0,0:0:0:0:
366,268,33950,1,10,0:0:0:0:
500,209,34278,101,2,0:0:0:0:
382,121,34606,1,10,0:0:0:0:
269,26,34934,5,2,0:0:0:0:
269,26,35098,2,0,L|280:149,1,104.999996795654,0|0,0:0|1:0,0:0:0:0:
285,204,35590,1,10,0:0:0:0:
301,350,35917,101,2,0:0:0:0:
301,350,36081,2,0,L|188:298,1,104.999996795654,0|0,0:0|1:0,0:0:0:0:
139,275,36573,1,10,0:0:0:0:
9,216,36901,5,2,0:0:0:0:
123,128,37229,1,10,0:0:0:0:
2,43,37557,101,6,0:0:0:0:
2,43,37721,2,0,P|51:61|109:53,1,104.999996795654,0|0,0:0|1:0,0:0:0:0:
171,29,38213,1,10,0:0:0:0:
317,23,38540,5,2,0:0:0:0:
317,23,38704,2,0,P|299:72|307:130,1,104.999996795654,0|0,0:0|1:0,0:0:0:0:
331,192,39196,1,10,0:0:0:0:
337,338,39524,101,2,0:0:0:0:
190,325,39852,1,10,0:0:0:0:
47,360,40180,5,2,0:0:0:0:
47,360,40344,2,0,P|65:311|57:253,1,104.999996795654,0|0,0:0|1:0,0:0:0:0:
33,191,40835,1,10,0:0:0:0:
27,45,41163,101,2,0:0:0:0:
27,45,41327,2,0,P|76:63|134:55,1,104.999996795654,0|0,0:0|1:0,0:0:0:0:
196,31,41819,1,10,0:0:0:0:
341,25,42147,21,2,0:0:0:0:
273,79,42311,1,0,3:0:0:0:
273,79,42393,1,0,3:0:0:0:
273,79,42475,1,4,0:0:0:0:
214,217,42803,6,0,P|251:190|356:203,1,150,6|10,0:0|0:0,0:0:0:0:
400,274,43295,2,0,P|436:233|426:181,1,75,2|2,0:0|0:0,0:0:0:0:
484,137,43622,2,0,P|430:126|390:160,1,75,0|10,1:0|0:0,0:0:0:0:
350,198,43950,6,0,P|377:161|364:56,1,150,0|0,1:0|1:0,0:0:0:0:
275,45,44442,1,10,0:0:0:0:
275,45,44606,2,0,L|283:120,1,75,2|2,0:0|0:0,0:0:0:0:
193,133,44934,2,0,L|185:58,1,75,0|10,1:0|0:0,0:0:0:0:
100,32,45262,1,0,0:0:0:0:
100,32,45426,102,0,L|116:193,2,150,2|10|2,0:0|0:0|0:0,0:0:0:0:
24,81,46245,1,0,1:0:0:0:
29,170,46409,2,0,L|37:245,1,75,10|0,0:0|1:0,0:0:0:0:
123,270,46737,6,0,P|52:269|11:344,2,150,2|10|2,0:0|0:0|0:0,0:0:0:0:
196,323,47557,1,0,1:0:0:0:
266,267,47721,1,10,0:0:0:0:
362,359,47885,1,4,0:0:0:0:
362,359,48213,5,0,1:0:0:0:
436,309,48376,2,0,L|424:231,1,75,0|0,1:0|1:0,0:0:0:0:
353,178,48704,85,0,1:0:0:0:
279,128,48868,2,0,L|287:47,1,75,0|0,1:0|1:0,0:0:0:0:
204,23,49196,21,0,1:0:0:0:
188,134,49360,1,8,3:0:0:0:
188,134,49688,86,0,P|241:162|264:259,1,150,4|0,3:0|1:0,0:0:0:0:
240,328,50180,1,0,1:0:0:0:
337,290,50344,1,0,1:0:0:0:
437,318,50508,1,0,1:0:0:0:
71,215,51327,54,0,P|18:153|43:76,1,168.750006437302
136,59,51983,2,0,P|185:122|157:198,1,168.750006437302,0|0,0:0|0:0,0:0:0:0:
123,282,52639,38,0,L|169:269,3,37.5,0|0|0|0,0:0|0:0|0:0|0:0,0:0:0:0:
205,284,52967,2,0,L|292:257,1,75,0|4,1:0|3:0,0:0:0:0:
381,185,53295,6,0,P|358:240|371:353,2,165.000005035401,6|10|2,0:0|0:0|0:0,0:0:0:0:
435,123,54114,1,0,1:0:0:0:
354,103,54278,1,10,0:0:0:0:
300,165,54442,6,0,P|272:99|332:24,1,165.000005035401,0|0,1:0|1:0,0:0:0:0:
407,43,54934,1,10,0:0:0:0:
489,61,55098,2,0,P|517:127|457:202,1,165.000005035401,2|0,0:0|1:0,0:0:0:0:
381,185,55590,2,0,L|388:280,1,82.5000025177003,10|0,0:0|0:0,0:0:0:0:
326,323,55917,86,0,P|381:300|494:313,2,165.000005035401,2|10|2,0:0|0:0|0:0,0:0:0:0:
253,363,56737,1,0,1:0:0:0:
190,308,56901,2,0,P|162:296|106:303,1,82.5000025177003,10|0,0:0|1:0,0:0:0:0:
57,364,57229,6,0,P|80:309|67:196,1,165.000005035401,2|10,0:0|0:0,0:0:0:0:
4,157,57721,2,0,P|59:180|172:167,1,165.000005035401,2|0,0:0|1:0,0:0:0:0:
229,123,58213,1,10,0:0:0:0:
249,204,58376,1,0,0:0:0:0:
273,282,58540,6,0,P|350:308|441:293,1,165.000005035401,2|10,0:0|0:0,0:0:0:0:
502,255,59032,2,0,L|514:156,1,82.5000025177003,2|2,0:0|0:0,0:0:0:0:
436,138,59360,2,0,L|426:56,1,82.5000025177003,0|10,1:0|0:0,0:0:0:0:
496,13,59688,86,0,P|418:39|338:27,1,165.000005035401,0|0,1:0|1:0,0:0:0:0:
254,29,60180,1,10,0:0:0:0:
171,26,60344,2,0,L|183:125,1,82.5000025177003,2|2,0:0|0:0,0:0:0:0:
224,176,60672,2,0,L|214:258,1,82.5000025177003,0|10,1:0|0:0,0:0:0:0:
292,359,60999,5,4,0:0:0:0:
292,359,61327,1,0,1:0:0:0:
214,345,61491,2,0,P|153:327|125:329,1,82.5000025177003,8|0,0:0|3:0,0:0:0:0:
134,327,61737,1,0,3:0:0:0:
134,327,61819,1,2,3:0:0:0:
215,258,61983,2,0,P|276:276|304:274,1,82.5000025177003,8|8,3:0|3:0,0:0:0:0:
385,203,62311,6,0,P|366:243|440:345,1,165.000005035401,4|0,0:0|0:0,0:0:0:0:
454,258,62803,1,8,0:0:0:0:
454,258,63131,1,0,1:0:0:0:
489,177,63295,1,0,1:0:0:0:
489,177,63376,1,0,0:0:0:0:
489,177,63458,1,0,0:0:0:0:
436,71,63622,86,0,P|377:123|294:100,1,165.000005035401,6|0,0:0|1:0,0:0:0:0:
236,51,64114,1,10,0:0:0:0:
236,51,64442,2,0,L|146:57,1,82.5000025177003,2|0,0:0|1:0,0:0:0:0:
72,74,64770,1,10,0:0:0:0:
132,130,64934,6,0,P|158:178|109:271,1,165.000005035401,0|0,1:0|1:0,0:0:0:0:
34,296,65426,1,10,0:0:0:0:
113,269,65590,2,0,B|157:255|188:277|188:277|223:304|271:285,1,165.000005035401,2|0,0:0|1:0,0:0:0:0:
354,274,66081,2,0,P|343:351|359:374,1,82.5000025177003,10|0,0:0|0:0,0:0:0:0:
422,326,66409,6,0,P|438:264|355:187,1,165.000005035401,2|10,0:0|0:0,0:0:0:0:
378,191,67065,2,0,L|289:184,1,82.5000025177003,2|0,0:0|1:0,0:0:0:0:
226,133,67393,2,0,L|137:140,1,82.5000025177003,10|0,0:0|1:0,0:0:0:0:
100,68,67721,86,0,L|278:56,1,165.000005035401,2|10,0:0|0:0,0:0:0:0:
340,93,68213,2,0,L|518:105,1,165.000005035401,2|0,0:0|1:0,0:0:0:0:
500,186,68704,1,10,0:0:0:0:
305,338,69032,5,6,0:0:0:0:
258,273,69196,1,0,0:0:0:0:
305,208,69360,1,10,0:0:0:0:
381,233,69524,1,2,0:0:0:0:
381,312,69688,1,2,0:0:0:0:
305,338,69852,2,0,P|255:353|207:334,1,82.5000025177003,0|10,1:0|0:0,0:0:0:0:
173,226,70180,6,0,B|186:269|164:298|164:298|138:337|158:383,1,165.000005035401,4|0,1:2|1:0,0:0:0:0:
74,372,70672,1,10,0:0:0:0:
74,372,70835,2,0,P|73:313|97:265,1,82.5000025177003,2|2,0:0|0:0,0:0:0:0:
37,220,71163,1,0,1:0:0:0:
37,220,71327,1,10,0:0:0:0:
201,24,71655,86,0,P|236:72|190:163,1,165.000005035401,6|10,0:0|0:0,0:0:0:0:
124,202,72147,2,0,P|204:189|296:217,1,165.000005035401,2|0,0:0|1:0,0:0:0:0:
360,243,72639,1,10,0:0:0:0:
432,339,72803,6,0,P|397:291|443:200,1,165.000005035401,4|0,1:2|1:0,0:0:0:0:
512,237,73295,1,10,0:0:0:0:
469,128,73458,2,0,B|421:109|386:136|386:136|355:158|311:144,1,165.000005035401,6|0,0:0|1:0,0:0:0:0:
343,69,73950,1,10,0:0:0:0:
241,285,74278,6,0,P|169:315|99:245,2,165.000005035401,6|10|2,0:0|0:0|0:0,0:0:0:0:
241,285,75262,1,10,0:0:0:0:
257,169,75426,86,0,P|194:121|120:151,1,165.000005035401,4|0,1:2|1:0,0:0:0:0:
53,199,75917,1,10,0:0:0:0:
81,82,76081,2,0,P|133:52|250:59,1,165.000005035401,6|0,0:0|1:0,0:0:0:0:
304,98,76573,2,0,L|393:88,1,82.5000025177003,10|0,0:0|0:0,0:0:0:0:
488,172,76901,38,0,P|446:122|426:-4,2,179.999994506836,4|12|4,1:2|1:2|1:2,0:0:0:0:
451,264,77721,2,0,P|396:242|344:246,1,89.9999972534181,0|0,1:0|1:0,0:0:0:0:
252,298,78049,86,0,L|86:285,1,165.000005035401,4|0,0:0|0:0,0:0:0:0:
10,305,78540,2,0,P|35:241|28:203,1,82.5000025177003,8|0,0:0|3:0,0:0:0:0:
34,228,78786,1,0,3:0:0:0:
34,228,78868,1,2,1:0:0:0:
12,110,79032,1,2,1:0:0:0:
12,110,79360,21,0,0:0:0:0:
125,149,79524,1,4,1:0:0:0:
79,167,87393,70,0,L|96:257,1,75,0|0,1:0|3:0,0:0:0:0:
40,333,87721,2,0,P|80:284|184:279,1,150,4|2,0:0|1:2,0:0:0:0:
241,295,88213,2,0,L|224:385,1,75,0|10,1:0|0:0,0:0:0:0:
324,264,88540,6,0,P|337:174|236:97,1,225,4|8,1:2|0:0,0:0:0:0:
150,106,89196,1,0,3:0:0:0:
150,106,89278,1,0,3:0:0:0:
150,106,89360,2,0,L|12:91,2,112.5,0|0|0,1:0|1:0|1:0,0:0:0:0:
236,203,90016,70,0,L|370:211,1,120,4|2,0:0|0:0,0:0:0:0:
434,214,90508,1,0,1:0:0:0:
434,214,90672,2,0,P|444:180|438:148,1,60,8|0,0:0|0:0,0:0:0:0:
395,92,90999,1,0,0:0:0:0:
340,36,91163,6,0,P|393:56|459:34,2,120,0|0|0,1:0|1:0|1:0,0:0:0:0:
261,38,91983,2,0,P|251:72|257:104,1,60,8|0,0:0|0:0,0:0:0:0:
254,95,92475,1,0,1:0:0:0:
196,147,92639,102,0,L|122:137,1,60,0|0,1:0|0:0,0:0:0:0:
21,121,92967,69,2,0:0:0:0:
21,121,93131,1,2,1:2:0:0:
31,198,93295,38,0,L|41:272,1,60,8|0,0:0|0:0,0:0:0:0:
53,334,93622,1,2,0:0:0:0:
53,334,93786,6,0,P|89:299|166:303,2,120,0|0|0,1:0|1:0|1:0,0:0:0:0:
124,369,94606,1,8,0:0:0:0:
231,255,94934,1,2,0:0:0:0:
303,284,95098,1,0,1:0:0:0:
369,243,95262,102,0,P|381:183|378:172,1,60,2|0,0:0|0:0,0:0:0:0:
329,77,95590,69,2,0:0:0:0:
329,77,95754,1,2,1:2:0:0:
388,26,95917,38,0,P|448:14|459:17,1,60,8|0,0:0|0:0,0:0:0:0:
511,56,96245,1,2,0:0:0:0:
511,56,96409,6,0,L|501:204,2,120,0|0|0,1:0|1:0|1:0,0:0:0:0:
432,89,97229,2,0,L|427:166,1,60,8|0,0:0|0:0,0:0:0:0:
422,227,97557,1,2,0:0:0:0:
422,227,97639,1,0,0:0:0:0:
422,227,97721,1,0,0:0:0:0:
346,142,97885,101,0,1:0:0:0:
346,142,99032,6,0,P|294:196|231:195,1,120,0|0,0:0|0:0,0:0:0:0:
186,157,99524,1,0,0:0:0:0:
91,213,99688,1,0,1:0:0:0:
91,213,100016,1,0,1:0:0:0:
149,264,100180,2,0,L|193:262,3,30,0|0|0|0,1:0|1:0|1:0|1:0,0:0:0:0:
210,286,100508,6,0,P|205:321|213:363,1,60,6|0,0:0|0:0,0:0:0:0:
322,325,100835,37,10,0:0:0:0:
322,325,100999,1,2,0:0:0:0:
354,253,101163,70,0,P|383:250|413:255,1,60,2|0,0:0|1:0,0:0:0:0:
489,272,101491,1,10,0:0:0:0:
466,198,101655,6,0,P|409:180|341:182,1,120,0|0,1:0|1:0,0:0:0:0:
282,138,102147,1,10,0:0:0:0:
214,177,102311,2,0,P|157:195|89:193,1,120,2|0,0:0|1:0,0:0:0:0:
30,237,102803,2,0,P|17:197|24:163,1,60,10|0,0:0|0:0,0:0:0:0:
70,120,103131,102,0,P|83:80|76:46,1,60,2|0,0:0|0:0,0:0:0:0:
199,33,103458,37,10,0:0:0:0:
199,33,103622,1,2,0:0:0:0:
272,60,103786,70,0,L|344:58,1,60,2|0,0:0|1:0,0:0:0:0:
404,28,104114,1,10,0:0:0:0:
391,105,104278,6,0,P|374:156|399:234,1,120,0|0,1:0|1:0,0:0:0:0:
464,240,104770,1,10,0:0:0:0:
506,305,104934,1,2,0:0:0:0:
506,305,105098,2,0,P|511:351|499:374,1,60,2|0,0:0|1:0,0:0:0:0:
428,368,105426,2,0,P|423:322|435:299,1,60,10|0,0:0|0:0,0:0:0:0:
328,340,105754,6,0,P|277:357|199:332,1,120,6|10,0:0|0:0,0:0:0:0:
78,264,106409,1,2,0:0:0:0:
78,264,106573,2,0,L|155:256,1,60,0|10,1:0|0:0,0:0:0:0:
216,262,106901,86,0,B|208:219|208:219|186:190|186:190|178:151,1,120,0|0,1:0|1:0,0:0:0:0:
193,74,107393,1,10,0:0:0:0:
255,120,107557,2,0,B|263:159|263:159|285:188|285:188|293:231,1,120,2|0,0:0|1:0,0:0:0:0:
283,309,108049,1,10,0:0:0:0:
213,342,108213,1,0,0:0:0:0:
321,309,108376,5,6,0:0:0:0:
321,309,108704,2,0,P|378:289|450:319,1,120,10|2,0:0|0:0,0:0:0:0:
468,234,109196,2,0,P|471:186|461:161,1,60,0|10,1:0|0:0,0:0:0:0:
384,108,109524,6,0,P|441:128|513:98,2,120,4|0|0,1:2|1:0|1:0,0:0:0:0:
323,57,110344,1,0,1:0:0:0:
267,111,110508,2,0,L|197:100,1,60,8|0,3:3|3:3,0:0:0:0:
52,68,110999,53,6,0:0:0:0:
52,68,111163,2,0,P|87:128|88:178,1,104.999996795654,0|0,0:0|1:0,0:0:0:0:
65,232,111655,1,10,0:0:0:0:
47,378,111983,5,2,0:0:0:0:
47,378,112147,2,0,P|81:317|124:291,1,104.999996795654,0|0,0:0|1:0,0:0:0:0:
182,285,112639,1,10,0:0:0:0:
318,228,112967,101,2,0:0:0:0:
201,139,113295,1,10,0:0:0:0:
182,285,113622,5,2,0:0:0:0:
182,285,113786,2,0,P|242:250|292:249,1,104.999996795654,0|0,0:0|1:0,0:0:0:0:
346,272,114278,1,10,0:0:0:0:
492,290,114606,101,2,0:0:0:0:
492,290,114770,2,0,P|431:255|405:212,1,104.999996795654,0|0,0:0|1:0,0:0:0:0:
399,155,115262,1,10,0:0:0:0:
342,19,115590,5,2,0:0:0:0:
253,136,115917,1,10,0:0:0:0:
164,19,116245,101,6,0:0:0:0:
164,19,116409,2,0,P|162:66|143:127,1,104.999996795654,0|0,0:0|1:0,0:0:0:0:
100,179,116901,1,10,0:0:0:0:
8,294,117229,5,2,0:0:0:0:
8,294,117393,2,0,P|55:296|116:315,1,104.999996795654,0|0,0:0|1:0,0:0:0:0:
168,358,117885,1,10,0:0:0:0:
182,211,118213,101,2,0:0:0:0:
330,211,118540,1,10,0:0:0:0:
346,357,118868,5,2,0:0:0:0:
346,357,119032,2,0,P|348:310|367:249,1,104.999996795654,0|0,0:0|1:0,0:0:0:0:
410,197,119524,1,10,0:0:0:0:
502,82,119852,101,2,0:0:0:0:
502,82,120016,2,0,P|455:80|394:61,1,104.999996795654,0|0,0:0|1:0,0:0:0:0:
342,18,120508,1,10,0:0:0:0:
205,72,120835,21,2,0:0:0:0:
293,90,120999,1,0,3:0:0:0:
293,90,121081,1,0,3:0:0:0:
293,90,121163,1,4,0:0:0:0:
125,24,121491,6,0,P|117:98|173:160,1,150,6|10,0:0|0:0,0:0:0:0:
251,166,121983,2,0,L|236:259,1,75,2|2,0:0|0:0,0:0:0:0:
169,298,122311,2,0,L|157:223,1,75,0|10,1:0|0:0,0:0:0:0:
86,280,122639,6,0,P|100:348|172:383,1,150,0|0,1:0|1:0,0:0:0:0:
244,335,123131,1,10,0:0:0:0:
244,335,123295,2,0,L|338:330,1,75,2|2,0:0|0:0,0:0:0:0:
383,267,123622,2,0,L|477:272,1,75,0|10,1:0|0:0,0:0:0:0:
503,192,123950,1,0,0:0:0:0:
503,192,124114,86,0,L|337:183,2,150,2|10|2,0:0|0:0|0:0,0:0:0:0:
462,111,124934,1,0,1:0:0:0:
371,109,125098,2,0,L|296:105,1,75,10|0,0:0|1:0,0:0:0:0:
231,167,125426,6,0,P|253:102|226:12,2,150,2|10|2,0:0|0:0|0:0,0:0:0:0:
152,212,126245,1,0,1:0:0:0:
84,156,126409,1,10,0:0:0:0:
5,259,126573,1,4,0:0:0:0:
5,259,126901,21,0,1:0:0:0:
55,333,127065,2,0,L|133:321,1,75,0|0,1:0|1:0,0:0:0:0:
203,269,127393,85,0,1:0:0:0:
253,195,127557,2,0,L|334:203,1,75,0|0,1:0|1:0,0:0:0:0:
370,122,127885,21,0,1:0:0:0:
259,106,128049,1,8,3:0:0:0:
259,106,128376,86,0,P|231:159|134:182,1,150,4|0,3:0|1:0,0:0:0:0:
65,158,128868,1,0,1:0:0:0:
103,255,129032,1,0,1:0:0:0:
75,355,129196,1,0,1:0:0:0:
452,209,130016,38,0,P|505:147|480:70,1,168.750006437302
387,53,130672,2,0,P|338:116|366:192,1,168.750006437302,0|0,0:0|0:0,0:0:0:0:
395,277,131327,54,0,L|343:272,3,37.5,0|0|0|0,0:0|0:0|0:0|0:0,0:0:0:0:
322,258,131655,2,0,L|270:263,3,37.5,0|0|0|0,1:0|1:0|1:0|1:0,0:0:0:0:
250,284,131983,6,0,P|161:276|102:328,2,165.000005035401,6|10|2,0:0|0:0|0:0,0:0:0:0:
275,363,132803,1,0,1:0:0:0:
355,346,132967,1,10,0:0:0:0:
434,324,133131,6,0,P|462:258|402:183,1,165.000005035401,0|0,1:0|1:0,0:0:0:0:
331,170,133622,1,10,0:0:0:0:
249,155,133786,2,0,P|221:89|281:14,1,165.000005035401,2|0,0:0|1:0,0:0:0:0:
350,30,134278,2,0,P|332:67|301:93,1,82.5000025177003,10|0,0:0|0:0,0:0:0:0:
249,155,134606,86,0,B|201:136|166:163|166:163|135:185|91:171,2,165.000005035401,2|10|2,0:0|0:0|0:0,0:0:0:0:
212,229,135426,1,0,1:0:0:0:
171,301,135590,2,0,P|165:352|177:383,1,82.5000025177003,10|0,0:0|1:0,0:0:0:0:
244,335,135917,6,0,P|298:313|408:344,1,165.000005035401,2|10,0:0|0:0,0:0:0:0:
470,377,136409,2,0,P|448:323|479:213,1,165.000005035401,2|0,0:0|1:0,0:0:0:0:
506,146,136901,2,0,P|455:152|424:140,1,82.5000025177003,10|0,0:0|0:0,0:0:0:0:
418,58,137229,6,0,P|340:83|263:59,1,165.000005035401,2|10,0:0|0:0,0:0:0:0:
188,24,137721,2,0,L|199:119,1,82.5000025177003,2|2,0:0|0:0,0:0:0:0:
271,143,138049,2,0,L|260:238,1,82.5000025177003,0|10,1:0|0:0,0:0:0:0:
249,306,138376,1,0,1:0:0:0:
249,306,138540,86,0,P|199:294|155:300,1,82.5000025177003,2|0,0:0|1:0,0:0:0:0:
94,333,138868,1,10,0:0:0:0:
21,294,139032,2,0,L|32:199,1,82.5000025177003,2|2,0:0|0:0,0:0:0:0:
104,175,139360,2,0,L|93:80,1,82.5000025177003,0|10,1:0|0:0,0:0:0:0:
216,26,139688,5,4,0:0:0:0:
216,26,140016,1,0,1:0:0:0:
289,65,140180,2,0,P|350:83|378:81,1,82.5000025177003,8|0,0:0|3:0,0:0:0:0:
368,82,140426,1,0,3:0:0:0:
368,82,140508,1,2,3:0:0:0:
288,152,140672,2,0,P|227:134|199:136,1,82.5000025177003,8|8,3:0|3:0,0:0:0:0:
118,207,140999,6,0,P|137:167|63:65,1,165.000005035401,4|0,0:0|0:0,0:0:0:0:
49,152,141491,1,8,0:0:0:0:
49,152,141819,1,0,1:0:0:0:
15,233,141983,1,0,1:0:0:0:
15,233,142065,1,0,0:0:0:0:
15,233,142147,1,0,0:0:0:0:
96,341,142311,86,0,P|147:302|263:315,1,165.000005035401,6|0,0:0|1:0,0:0:0:0:
304,361,142803,1,10,0:0:0:0:
304,361,143131,2,0,L|394:355,1,82.5000025177003,2|0,0:0|1:0,0:0:0:0:
469,349,143458,1,10,0:0:0:0:
417,285,143622,6,0,P|391:237|440:144,1,165.000005035401,0|0,1:0|1:0,0:0:0:0:
503,95,144114,1,10,0:0:0:0:
456,26,144278,2,0,B|407:23|407:23|350:41|350:41|292:37,1,165.000005035401,2|0,0:0|0:0,0:0:0:0:
211,31,144770,2,0,L|202:124,1,82.5000025177003,10|0,0:0|0:0,0:0:0:0:
274,154,145098,6,0,P|196:129|114:133,1,165.000005035401,2|10,0:0|0:0,0:0:0:0:
115,134,145754,2,0,L|124:227,1,82.5000025177003,2|0,0:0|1:0,0:0:0:0:
199,246,146081,2,0,L|190:339,1,82.5000025177003,10|0,0:0|1:0,0:0:0:0:
108,336,146409,86,0,B|152:322|183:344|183:344|218:371|266:352,1,165.000005035401,2|10,0:0|0:0,0:0:0:0:
341,383,146901,2,0,B|355:339|333:308|333:308|306:273|325:225,1,165.000005035401,2|0,0:0|1:0,0:0:0:0:
400,259,147393,1,10,0:0:0:0:
264,47,147721,5,6,0:0:0:0:
218,112,147885,1,0,0:0:0:0:
264,177,148049,1,10,0:0:0:0:
340,151,148213,1,2,0:0:0:0:
340,73,148376,1,2,0:0:0:0:
263,46,148540,2,0,P|212:32|165:49,1,82.5000025177003,0|10,1:0|0:0,0:0:0:0:
67,92,148868,6,0,P|118:146|114:246,1,165.000005035401,4|0,1:2|1:0,0:0:0:0:
100,313,149360,1,10,0:0:0:0:
100,313,149524,2,0,P|162:302|196:310,1,82.5000025177003,2|2,0:0|0:0,0:0:0:0:
252,346,149852,1,0,1:0:0:0:
252,346,150016,1,10,0:0:0:0:
430,171,150344,86,0,P|395:229|454:318,1,165.000005035401,6|10,0:0|0:0,0:0:0:0:
486,373,150835,2,0,P|408:333|314:331,1,165.000005035401,2|0,0:0|1:0,0:0:0:0:
252,346,151327,1,10,0:0:0:0:
126,358,151491,6,0,P|91:310|137:219,1,165.000005035401,4|0,1:2|1:0,0:0:0:0:
206,256,151983,1,10,0:0:0:0:
163,147,152147,2,0,B|115:128|80:155|80:155|49:177|5:163,1,165.000005035401,6|0,0:0|1:0,0:0:0:0:
37,88,152639,1,10,0:0:0:0:
264,193,152967,6,0,P|333:213|406:153,2,165.000005035401,6|10|2,0:0|0:0|0:0,0:0:0:0:
264,193,153950,1,10,0:0:0:0:
182,97,154114,86,0,P|182:179|155:256,1,165.000005035401,4|0,1:2|1:0,0:0:0:0:
99,318,154606,1,10,0:0:0:0:
217,358,154770,2,0,B|261:372|292:350|292:350|327:323|375:342,1,165.000005035401,6|0,0:0|1:0,0:0:0:0:
458,359,155262,2,0,P|448:298|425:269,1,82.5000025177003,10|0,0:0|0:0,0:0:0:0:
339,184,155590,38,0,P|396:208|483:120,2,179.999994506836,4|12|4,1:2|1:2|1:2,0:0:0:0:
271,119,156409,2,0,P|252:158|251:212,1,89.9999972534181,0|0,1:0|1:0,0:0:0:0:
330,299,156737,70,0,P|281:257|164:257,1,165.000005035401,4|0,0:0|0:0,0:0:0:0:
125,307,157229,2,0,P|99:242|107:205,1,82.5000025177003,8|0,0:0|3:0,0:0:0:0:
99,231,157475,1,0,3:0:0:0:
99,231,157557,1,2,1:0:0:0:
186,146,157721,1,2,1:0:0:0:
186,146,158049,5,0,0:0:0:0:
101,59,158213,2,0,P|150:101|267:101,2,165.000005035401,4|10|2,1:0|0:0|0:0,0:0:0:0:
24,36,159032,1,0,1:0:0:0:
24,36,159196,2,0,P|31:89|31:127,1,82.5000025177003,10|0,0:0|1:0,0:0:0:0:
20,200,159524,6,0,P|73:193|111:193,1,82.5000025177003,2|0,0:0|1:0,0:0:0:0:
169,241,159852,1,10,0:0:0:0:
315,164,160180,2,0,P|308:217|308:255,1,82.5000025177003,2|0,0:0|1:0,0:0:0:0:
382,281,160508,2,0,P|389:228|389:190,1,82.5000025177003,10|0,0:0|0:0,0:0:0:0:
395,116,160835,86,0,L|390:22,2,82.5000025177003,2|0|10,0:0|0:0|0:0,0:0:0:0:
465,266,161491,2,0,L|460:360,1,82.5000025177003,2|0,0:0|1:0,0:0:0:0:
378,362,161819,1,10,0:0:0:0:
308,317,161983,6,0,P|254:292|158:333,1,165.000005035401,0|0,1:0|1:0,0:0:0:0:
87,367,162475,2,0,L|82:284,1,82.5000025177003,10|2,0:0|0:0,0:0:0:0:
48,209,162803,2,0,P|109:231|147:207,1,82.5000025177003,2|0,0:0|1:0,0:0:0:0:
210,150,163131,1,14,0:0:0:0:
156,78,163295,6,0,P|210:103|306:62,1,165.000005035401,4|0,0:0|0:0,0:0:0:0:
378,32,163786,2,0,P|356:93|380:131,1,82.5000025177003,10|2,0:0|0:0,0:0:0:0:
414,169,164114,2,0,L|499:167,2,82.5000025177003,2|0|10,0:0|1:0|0:0,0:0:0:0:
332,184,164606,86,0,P|357:238|316:334,1,165.000005035401,0|0,1:0|1:0,0:0:0:0:
242,361,165098,2,0,L|159:362,1,82.5000025177003,10|2,0:0|0:0,0:0:0:0:
96,308,165426,2,0,L|13:307,2,82.5000025177003,2|0|10,0:0|1:0|0:0,0:0:0:0:
173,280,165917,1,0,0:0:0:0:
173,280,166081,6,0,B|344:283|344:283,1,165.000005035401,2|10,0:0|0:0,0:0:0:0:
475,191,166737,2,0,P|489:144|476:92,2,82.5000025177003,2|0|10,0:0|1:0|0:0,0:0:0:0:
457,272,167229,6,0,P|397:219|426:124,1,165.000005035401,0|0,1:0|1:0,0:0:0:0:
417,59,167721,2,0,B|357:52|357:52|315:71|315:71|251:63,1,165.000005035401,10|2,0:0|0:0,0:0:0:0:
176,42,168213,1,0,1:0:0:0:
138,151,168376,1,14,0:0:0:0:
138,151,168704,86,0,B|196:158|196:158|238:139|238:139|298:146,2,165.000005035401,6|10|2,0:0|0:0|0:0,0:0:0:0:
55,144,169524,1,0,1:0:0:0:
55,144,169688,2,0,P|70:191|74:232,1,82.5000025177003,10|0,0:0|1:0,0:0:0:0:
56,304,170016,6,0,P|41:351|37:392,2,82.5000025177003,2|0|10,0:0|1:0|0:0,0:0:0:0:
138,151,170672,2,0,P|123:104|119:63,2,82.5000025177003,2|0|10,0:0|1:0|0:0,0:0:0:0:
229,298,171327,6,0,P|324:327|389:260,2,165.000005035401,2|10|2,0:0|0:0|0:0,0:0:0:0:
149,273,172147,1,0,1:0:0:0:
212,220,172311,1,10,0:0:0:0:
300,250,172475,86,0,P|278:153|187:130,1,165.000005035401,0|0,1:0|1:0,0:0:0:0:
149,162,172967,1,10,0:0:0:0:
149,162,173295,2,0,P|91:183|51:173,1,82.5000025177003,2|0,0:0|1:0,0:0:0:0:
8,62,173622,1,14,0:0:0:0:
8,62,173950,6,0,P|23:137|7:236,2,165.000005035401,6|10|2,0:0|0:0|0:0,0:0:0:0:
85,32,174770,2,0,P|125:32|162:50,1,82.5000025177003,0|10,1:0|0:0,0:0:0:0:
293,29,175098,6,0,P|281:110|296:190,1,165.000005035401,4|0,1:2|1:0,0:0:0:0:
352,248,175590,1,10,0:0:0:0:
190,280,175917,2,0,L|92:272,2,82.5000025177003,2|0|10,0:0|1:0|0:0,0:0:0:0:
347,329,176573,86,0,P|404:311|422:206,2,165.000005035401,6|10|2,0:0|0:0|0:0,0:0:0:0:
281,379,177393,2,0,P|265:320|276:284,1,82.5000025177003,0|10,1:0|0:0,0:0:0:0:
292,191,177721,6,0,B|248:205|217:183|217:183|182:156|134:175,1,165.000005035401,4|0,1:2|1:0,0:0:0:0:
57,203,178213,2,0,L|63:106,1,82.5000025177003,10|0,0:0|1:0,0:0:0:0:
62,120,178458,1,0,0:0:0:0:
62,120,178540,1,0,1:0:0:0:
50,38,178704,2,0,P|88:63|130:67,1,82.5000025177003,8|0,3:0|3:0,0:0:0:0:
276,19,179196,69,6,0:0:0:0:
276,19,179360,2,0,L|287:142,1,104.999996795654,0|0,0:0|1:0,0:0:0:0:
292,197,179852,1,10,0:0:0:0:
308,343,180180,5,2,0:0:0:0:
308,343,180344,2,0,L|196:291,1,104.999996795654,0|0,0:0|1:0,0:0:0:0:
146,268,180835,1,10,0:0:0:0:
12,209,181163,101,2,0:0:0:0:
130,121,181491,1,10,0:0:0:0:
243,26,181819,5,2,0:0:0:0:
243,26,181983,2,0,L|232:149,1,104.999996795654,0|0,0:0|1:0,0:0:0:0:
227,204,182475,1,10,0:0:0:0:
211,350,182803,101,2,0:0:0:0:
211,350,182967,2,0,L|324:298,1,104.999996795654,0|0,0:0|1:0,0:0:0:0:
373,275,183458,1,10,0:0:0:0:
503,216,183786,5,2,0:0:0:0:
389,128,184114,1,10,0:0:0:0:
510,43,184442,101,6,0:0:0:0:
510,43,184606,2,0,P|461:61|403:53,1,104.999996795654,0|0,0:0|1:0,0:0:0:0:
341,29,185098,1,10,0:0:0:0:
195,23,185426,5,2,0:0:0:0:
195,23,185590,2,0,P|213:72|205:130,1,104.999996795654,0|0,0:0|1:0,0:0:0:0:
181,192,186081,1,10,0:0:0:0:
175,338,186409,101,2,0:0:0:0:
322,325,186737,1,10,0:0:0:0:
465,360,187065,5,2,0:0:0:0:
465,360,187229,2,0,P|447:311|455:253,1,104.999996795654,0|0,0:0|1:0,0:0:0:0:
479,191,187721,1,10,0:0:0:0:
485,45,188049,101,2,0:0:0:0:
485,45,188213,2,0,P|436:63|378:55,1,104.999996795654,0|0,0:0|1:0,0:0:0:0:
316,31,188704,1,10,0:0:0:0:
171,25,189032,21,2,0:0:0:0:
239,79,189196,1,0,3:0:0:0:
239,79,189278,1,0,3:0:0:0:
239,79,189360,1,4,0:0:0:0:
298,217,189688,6,0,P|261:190|156:203,1,150,6|10,0:0|0:0,0:0:0:0:
112,274,190180,2,0,P|76:233|86:181,1,75,2|2,0:0|0:0,0:0:0:0:
28,137,190508,2,0,P|82:126|122:160,1,75,0|10,1:0|0:0,0:0:0:0:
162,198,190835,6,0,P|135:161|148:56,1,150,0|0,1:0|1:0,0:0:0:0:
237,45,191327,1,10,0:0:0:0:
237,45,191491,2,0,L|229:120,1,75,2|2,0:0|0:0,0:0:0:0:
319,133,191819,2,0,L|327:58,1,75,0|10,1:0|0:0,0:0:0:0:
412,32,192147,1,0,0:0:0:0:
412,32,192311,102,0,L|396:193,2,150,2|10|2,0:0|0:0|0:0,0:0:0:0:
488,81,193131,1,0,1:0:0:0:
483,170,193295,2,0,L|475:245,1,75,10|0,0:0|1:0,0:0:0:0:
389,270,193622,6,0,P|460:269|501:344,2,150,2|10|2,0:0|0:0|0:0,0:0:0:0:
316,323,194442,1,0,1:0:0:0:
246,267,194606,1,10,0:0:0:0:
150,359,194770,1,4,0:0:0:0:
150,359,195098,5,0,1:0:0:0:
76,309,195262,2,0,L|88:231,1,75,0|0,1:0|1:0,0:0:0:0:
159,178,195590,85,0,1:0:0:0:
233,128,195754,2,0,L|225:47,1,75,0|0,1:0|1:0,0:0:0:0:
308,23,196081,21,0,1:0:0:0:
324,134,196245,1,8,3:0:0:0:
324,134,196573,86,0,P|271:162|248:259,1,150,4|0,3:0|1:0,0:0:0:0:
272,328,197065,1,0,1:0:0:0:
175,290,197229,1,0,1:0:0:0:
75,318,197393,1,0,1:0:0:0:
441,215,198213,38,0,P|494:153|469:76,1,168.750006437302
376,59,198868,2,0,P|327:122|355:198,1,168.750006437302,0|0,0:0|0:0,0:0:0:0:
390,287,199524,2,0,B|350:263|309:283|309:283|271:300|225:275,1,168.750006437302,0|0,0:0|0:0,0:0:0:0:
97,212,200835,6,0,P|36:141|65:53,1,191.250003647804,0|0,0:0|0:0,0:0:0:0:
171,34,201491,2,0,P|226:105|194:192,1,191.250003647804,0|0,0:0|0:0,0:0:0:0:
144,279,202147,38,0,L|190:266,3,41.2500012588501,0|0|0|0,0:0|0:0|0:0|0:0,0:0:0:0:
232,280,202475,2,0,L|319:253,1,82.5000025177003,0|4,1:0|3:0,0:0:0:0:
433,194,202803,6,0,P|411:254|420:372,2,179.999994506836,6|10|2,0:0|0:0|0:0,0:0:0:0:
497,130,203622,1,0,1:0:0:0:
408,111,203786,1,10,0:0:0:0:
351,181,203950,6,0,P|298:193|167:159,1,179.999994506836,0|0,1:0|1:0,0:0:0:0:
117,98,204442,1,10,0:0:0:0:
55,31,204606,2,0,P|67:84|33:215,1,179.999994506836,2|0,0:0|1:0,0:0:0:0:
21,293,205098,2,0,P|91:269|127:272,1,89.9999972534181,10|0,0:0|0:0,0:0:0:0:
162,339,205426,86,0,P|150:286|184:155,2,179.999994506836,2|10|2,0:0|0:0|0:0,0:0:0:0:
248,368,206245,1,0,1:0:0:0:
322,317,206409,2,0,P|392:341|428:338,1,89.9999972534181,10|0,0:0|1:0,0:0:0:0:
490,372,206737,6,0,B|504:328|479:289|479:289|455:247|470:200,1,179.999994506836,2|10,0:0|0:0,0:0:0:0:
504,116,207229,2,0,B|457:101|415:125|415:125|376:150|331:136,1,179.999994506836,2|0,0:0|1:0,0:0:0:0:
278,64,207721,2,0,P|320:50|365:56,1,89.9999972534181,10|0,0:0|0:0,0:0:0:0:
385,209,208049,5,4,0:0:0:0:
385,209,209196,85,4,0:0:0:0:
242,151,209360,1,0,1:0:0:0:
242,151,210344,5,8,0:0:0:0:
99,209,210508,1,4,0:0:0:0:
99,209,210835,1,0,1:0:0:0:
147,284,210999,2,0,P|152:344|138:376,1,89.9999972534181,8|0,0:0|3:0,0:0:0:0:
141,370,211245,1,0,3:0:0:0:
141,370,211327,1,2,3:0:0:0:
51,367,211491,2,0,P|46:307|60:275,1,89.9999972534181,8|8,3:0|3:0,0:0:0:0:
179,210,211819,6,0,P|137:136|29:168,1,179.999994506836,4|0,0:0|0:0,0:0:0:0:
18,57,212311,2,0,L|73:44,3,44.999998626709,8|0|0|0,1:2|1:2|1:2|1:2,0:0:0:0:
102,26,212639,2,0,L|157:39,3,44.999998626709,0|0|0|0,1:2|1:0|1:0|0:0,0:0:0:0:
187,54,212967,1,0,0:0:0:0:
322,30,213131,86,0,P|371:107|333:190,1,179.999994506836,6|0,0:0|1:0,0:0:0:0:
316,269,213622,1,10,0:0:0:0:
316,269,213950,2,0,P|384:260|417:273,1,89.9999972534181,2|0,0:0|1:0,0:0:0:0:
361,345,214278,1,10,0:0:0:0:
271,354,214442,6,0,P|222:277|260:194,1,179.999994506836,0|0,1:0|1:0,0:0:0:0:
340,183,214934,1,10,0:0:0:0:
286,110,215098,2,0,B|239:95|197:119|197:119|158:144|113:130,1,179.999994506836,2|0,0:0|1:0,0:0:0:0:
28,97,215590,2,0,P|37:165|24:198,1,89.9999972534181,10|0,0:0|0:0,0:0:0:0:
0,266,215917,6,0,B|45:280|84:255|84:255|126:231|173:246,1,179.999994506836,2|10,0:0|0:0,0:0:0:0:
173,246,216573,2,0,P|164:305|181:338,1,89.9999972534181,2|0,0:0|1:0,0:0:0:0:
256,285,216901,2,0,P|265:226|248:193,1,89.9999972534181,10|0,0:0|1:0,0:0:0:0:
177,150,217229,86,0,L|83:147,2,89.9999972534181,2|0|10,0:0|1:0|0:0,0:0:0:0:
261,118,217721,2,0,B|306:104|345:129|345:129|387:153|434:138,1,179.999994506836,2|0,0:0|1:0,0:0:0:0:
398,53,218213,1,10,0:0:0:0:
292,335,218540,5,6,0:0:0:0:
241,266,218704,1,0,0:0:0:0:
292,195,218868,1,10,0:0:0:0:
373,222,219032,1,2,0:0:0:0:
373,307,219196,1,2,0:0:0:0:
292,335,219360,2,0,P|239:352|188:331,1,89.9999972534181,0|10,1:0|0:0,0:0:0:0:
80,281,219688,6,0,L|93:100,1,179.999994506836,4|0,1:2|1:0,0:0:0:0:
180,80,220180,1,10,0:0:0:0:
180,80,220344,2,0,L|172:178,1,89.9999972534181,2|2,0:0|0:0,0:0:0:0:
213,250,220672,1,0,1:0:0:0:
213,250,220835,1,10,0:0:0:0:
264,56,221163,86,0,P|339:27|455:76,1,179.999994506836,6|10,0:0|0:0,0:0:0:0:
499,113,221655,2,0,L|486:292,1,179.999994506836,2|0,0:0|1:0,0:0:0:0:
408,338,222147,1,10,0:0:0:0:
314,241,222311,6,0,P|263:204|167:252,1,179.999994506836,4|0,1:2|1:0,0:0:0:0:
204,334,222803,1,10,0:0:0:0:
92,279,222967,2,0,B|72:228|100:191|100:191|126:148|102:104,1,179.999994506836,6|0,0:0|1:0,0:0:0:0:
31,147,223458,1,10,0:0:0:0:
272,51,223786,6,0,P|346:30|423:129,2,179.999994506836,6|10|2,0:0|0:0|0:0,0:0:0:0:
272,51,224770,1,10,0:0:0:0:
236,165,224934,86,0,P|298:224|382:206,1,179.999994506836,4|0,1:2|1:0,0:0:0:0:
460,159,225426,1,10,0:0:0:0:
409,282,225590,2,0,P|350:304|228:280,1,179.999994506836,6|0,0:0|1:0,0:0:0:0:
178,217,226081,2,0,L|84:234,1,89.9999972534181,10|0,0:0|0:0,0:0:0:0:
12,136,226409,38,0,P|62:225|45:340,2,194.999991073609,4|12|4,1:2|1:2|1:2,0:0:0:0:
22,38,227229,2,0,L|129:42,1,97.4999955368044,0|0,1:0|1:0,0:0:0:0:
251,34,227557,70,0,B|231:85|259:122|259:122|285:165|263:210,1,179.999994506836,4|0,0:0|1:0,0:0:0:0:
179,170,228049,1,8,0:0:0:0:
179,170,228376,1,8,1:2:0:0:
245,286,228540,1,8,1:2:0:0:
245,286,228868,6,0,P|334:248|341:174,1,179.999994506836,6|0,0:0|0:0,0:0:0:0:
325,84,229360,2,0,P|378:50|506:59,2,179.999994506836,10|2|10,0:0|0:0|0:0,0:0:0:0:
265,205,230180,6,0,P|203:264|119:246,1,179.999994506836,4|0,1:2|1:0,0:0:0:0:
41,199,230672,1,10,0:0:0:0:
92,322,230835,2,0,P|151:344|273:320,1,179.999994506836,6|0,0:0|1:0,0:0:0:0:
323,257,231327,2,0,L|417:274,1,89.9999972534181,10|0,0:0|0:0,0:0:0:0:
489,176,231655,6,0,P|439:265|456:380,2,194.999991073609,4|12|4,1:2|1:2|1:2,0:0:0:0:
479,78,232475,2,0,L|372:82,1,97.4999955368044,0|0,1:0|1:0,0:0:0:0:
250,74,232803,70,0,B|270:125|242:162|242:162|216:205|238:250,1,179.999994506836,4|0,0:0|0:0,0:0:0:0:
322,210,233295,2,0,P|371:206|415:229,1,89.9999972534181,8|0,0:0|3:0,0:0:0:0:
407,222,233540,1,0,3:0:0:0:
407,222,233622,1,2,1:0:0:0:
385,359,233786,1,2,1:0:0:0:
385,359,234114,37,0,0:0:0:0:
248,337,234278,1,4,1:0:0:0:
