osu file format v14

[General]
AudioFilename: audio.mp3
AudioLeadIn: 0
PreviewTime: 51163
Countdown: 0
SampleSet: Soft
StackLeniency: 0.7
Mode: 0
LetterboxInBreaks: 0
WidescreenStoryboard: 1

[Editor]
Bookmarks: 101163,102311
DistanceSpacing: 1
BeatDivisor: 2
GridSize: 4
TimelineZoom: 1.3

[Metadata]
Title:closing eyes
TitleUnicode:closing eyes
Artist:*namirin
ArtistUnicode:*なみりん
Creator:Firis Mistlud
Version:Easy
Source:osu!
Tags:KuranteMelodii krt 5colors mwr mapping with rewards
BeatmapID:1444366
BeatmapSetID:683020

[Difficulty]
HPDrainRate:2
CircleSize:3
OverallDifficulty:2
ApproachRate:2
SliderMultiplier:0.8
SliderTickRate:1

[Events]
//Background and Video events
0,0,"bglol.jpg",0,0
//Break Periods
2,79724,85833
2,197593,200587
//Storyboard Layer 0 (Background)
//Storyboard Layer 1 (Fail)
//Storyboard Layer 2 (Pass)
//Storyboard Layer 3 (Foreground)
//Storyboard Sound Samples

[TimingPoints]
836,327.868852459016,4,2,0,70,1,0
836,-100,4,2,0,70,0,0
11327,-100,4,2,0,70,0,0
11491,-100,4,2,0,40,0,0
21819,-100,4,2,0,60,0,0
32311,-100,4,2,0,70,0,0
32475,-100,4,2,0,50,0,0
37557,-100,4,2,0,70,0,0
37721,-100,4,2,0,50,0,0
42311,-100,4,2,0,60,0,0
42475,-100,4,2,0,60,0,0
42803,-100,4,2,0,70,0,0
51327,-100,4,2,0,30,0,0
51819,-100,4,2,0,5,0,0
51901,-100,4,2,0,5,0,0
51983,-100,4,2,0,30,0,0
52475,-100,4,2,0,5,0,0
52557,-100,4,2,0,5,0,0
52639,-100,4,2,0,50,0,0
53295,-100,4,2,0,70,0,1
63131,-100,4,2,0,70,0,0
63786,-100,4,2,0,70,0,1
76901,-100,4,2,0,70,0,1
78049,-100,4,2,0,70,0,1
79524,-100,4,2,0,70,0,0
88540,-100,4,2,0,70,0,0
90016,-100,4,2,0,40,0,0
92967,-100,4,2,0,60,0,0
93295,-100,4,2,0,40,0,0
95590,-100,4,2,0,60,0,0
95917,-100,4,2,0,40,0,0
97557,-100,4,2,0,60,0,0
99032,-100,4,2,0,30,0,0
99688,-100,4,2,0,50,0,0
100508,-100,4,2,0,60,0,0
110999,-100,4,2,0,70,0,0
111163,-100,4,2,0,50,0,0
116245,-100,4,2,0,70,0,0
116409,-100,4,2,0,50,0,0
120999,-100,4,2,0,60,0,0
121491,-100,4,2,0,70,0,0
130016,-100,4,2,0,30,0,0
130508,-100,4,2,0,5,0,0
130590,-100,4,2,0,5,0,0
130672,-100,4,2,0,30,0,0
131163,-100,4,2,0,5,0,0
131245,-100,4,2,0,5,0,0
131327,-100,4,2,0,70,0,0
131983,-100,4,2,0,70,0,1
141819,-100,4,2,0,70,0,0
142475,-100,4,2,0,70,0,1
155590,-100,4,2,0,70,0,1
156737,-100,4,2,0,70,0,1
158213,-100,4,2,0,70,0,0
179196,-100,4,2,0,70,0,0
179360,-100,4,2,0,50,0,0
184442,-100,4,2,0,70,0,0
184606,-100,4,2,0,50,0,0
189360,-100,4,2,0,70,0,0
198213,-100,4,2,0,30,0,0
198704,-100,4,2,0,5,0,0
198786,-100,4,2,0,5,0,0
198868,-100,4,2,0,30,0,0
199360,-100,4,2,0,5,0,0
199442,-100,4,2,0,5,0,0
199524,-100,4,2,0,30,0,0
200016,-100,4,2,0,5,0,0
200098,-100,4,2,0,5,0,0
200835,-100,4,2,0,30,0,0
201327,-100,4,2,0,5,0,0
201409,-100,4,2,0,5,0,0
201491,-100,4,2,0,30,0,0
201983,-100,4,2,0,5,0,0
202065,-100,4,2,0,5,0,0
202147,-100,4,2,0,50,0,0
202803,-100,4,2,0,70,0,1
208049,-100,4,2,0,70,0,0
209196,-100,4,2,0,70,0,1
209360,-100,4,2,0,70,0,0
210672,-100,4,2,0,70,0,1
212639,-100,4,2,0,70,0,0
213295,-100,4,2,0,70,0,1
226409,-100,4,2,0,70,0,1
227557,-100,4,2,0,70,0,1
228540,-100,4,2,0,70,0,0
229032,-100,4,2,0,70,0,1
231655,-100,4,2,0,70,0,1
232803,-100,4,2,0,70,0,1
234278,-100,4,2,0,70,0,0

[Colours]
Combo1 : 0,255,255
Combo2 : 78,78,78
Combo3 : 190,190,190
Combo4 : 85,43,43
Combo5 : 253,82,0
Combo6 : 128,64,0
Combo7 : 255,0,0
Combo8 : 238,0,238

[HitObjects]
222,94,180,37,0,1:0:0:0:
68,51,836,6,0,B|92:99|70:137|70:137|53:171|81:218,1,160,6|2,1:2|1:2,0:0:0:0:
99,321,1983,2,0,P|155:345|216:344,1,120,0|10,1:0|1:2,0:0:0:0:
289,319,2803,2,0,L|384:303,1,80,2|10,1:2|0:0,0:0:0:0:
419,246,3458,6,0,P|413:307|441:365,2,120,2|0|10,1:2|0:0|0:0,0:0:0:0:
433,166,4770,2,0,L|528:150,2,80,2|10|2,1:2|1:2|1:2,0:0:0:0:
359,133,5754,1,14,0:0:0:0:
305,73,6081,86,0,P|278:122|326:208,1,160,6|2,1:2|1:2,0:0:0:0:
375,314,7229,2,0,P|319:290|258:291,1,120,0|10,1:0|1:2,0:0:0:0:
193,334,8049,2,0,L|108:323,1,80,2|10,1:2|0:0,0:0:0:0:
40,356,8704,6,0,P|85:294|58:222,1,160,6|2,1:2|1:2,0:0:0:0:
7,113,9852,2,0,P|63:89|124:90,1,120,4|8,1:2|0:0,0:0:0:0:
197,115,10672,1,0,1:0:0:0:
339,43,11327,70,0,P|320:85|337:206,1,160,6|2,0:0|0:0,0:0:0:0:
386,302,12475,2,0,L|303:287,1,80,0|0,1:0|1:0,0:0:0:0:
232,317,13131,2,0,L|139:304,1,80,2|0,0:0|1:0,0:0:0:0:
78,213,13950,6,0,L|-1:224,2,80,2|10|2,0:0|0:0|0:0,0:0:0:0:
161,126,15098,2,0,P|219:150|287:144,1,120,0|10,1:0|0:0,0:0:0:0:
422,104,16245,1,10,0:0:0:0:
473,167,16573,102,0,L|456:333,1,160,2|2,0:0|0:0,0:0:0:0:
345,371,17721,2,0,P|337:338|344:288,1,80,0|0,1:0|1:0,0:0:0:0:
341,212,18376,2,0,P|301:206|262:214,1,80,2|0,0:0|1:0,0:0:0:0:
169,292,19196,6,0,P|175:332|167:371,2,80,2|10|2,0:0|0:0|0:0,0:0:0:0:
121,228,20180,2,0,L|137:68,1,160,10|10,0:0|0:0,0:0:0:0:
57,73,21163,2,0,L|48:162,1,80,2|10,0:0|0:0,0:0:0:0:
34,231,21819,6,0,P|52:282|161:307,1,160,6|2,0:0|0:0,0:0:0:0:
205,208,22967,2,0,P|239:200|287:209,1,80,0|0,1:0|1:0,0:0:0:0:
309,282,23622,2,0,P|343:290|391:281,1,80,2|0,0:0|1:0,0:0:0:0:
418,166,24442,6,0,L|415:84,2,80,2|10|2,0:0|0:0|0:0,0:0:0:0:
499,254,25590,2,0,P|499:316|461:372,1,120,0|10,1:0|0:0,0:0:0:0:
309,370,26737,1,10,0:0:0:0:
237,333,27065,6,0,L|228:157,1,160,6|2,0:0|0:0,0:0:0:0:
245,58,28213,2,0,P|201:60|166:75,1,80,0|0,1:0|1:0,0:0:0:0:
151,151,28868,2,0,P|107:149|72:134,1,80,2|0,0:0|1:0,0:0:0:0:
14,239,29688,86,0,P|92:268|182:265,1,160,6|2,0:0|0:0,0:0:0:0:
280,225,30835,2,0,L|288:140,2,80,4|0|0,1:2|1:0|1:0,0:0:0:0:
329,288,31819,1,8,3:3:0:0:
443,253,32311,86,0,L|455:87,1,160,6|10,0:0|0:0,0:0:0:0:
385,53,33295,2,0,P|337:86|220:80,1,160,2|10,0:0|0:0,0:0:0:0:
161,62,34278,2,0,P|160:112|175:141,1,80,2|10,0:0|0:0,0:0:0:0:
246,169,34934,6,0,L|258:335,1,160,2|10,0:0|0:0,0:0:0:0:
200,384,35917,2,0,P|152:351|35:357,1,160,2|10,0:0|0:0,0:0:0:0:
23,274,36901,2,0,P|22:224|37:195,1,80,2|10,0:0|0:0,0:0:0:0:
72,126,37557,102,0,P|150:130|219:90,1,160,6|10,0:0|0:0,0:0:0:0:
263,23,38540,2,0,L|275:189,1,160,2|10,0:0|0:0,0:0:0:0:
253,260,39524,2,0,P|214:263|177:248,1,80,2|10,0:0|0:0,0:0:0:0:
129,184,40180,6,0,P|98:261|151:324,1,160,2|10,0:0|0:0,0:0:0:0:
212,348,41163,2,0,L|378:336,1,160,2|10,0:0|0:0,0:0:0:0:
446,364,42147,2,0,P|449:324|434:287,1,80,2|4,0:0|0:0,0:0:0:0:
384,224,42803,6,0,L|254:233,2,120,6|2|10,0:0|0:0|0:0,0:0:0:0:
432,160,44114,2,0,L|513:154,2,80,2|10|2,0:0|0:0|0:0,0:0:0:0:
369,109,45098,1,10,0:0:0:0:
302,64,45426,6,0,P|237:52|181:118,1,160,2|2,0:0|0:0,0:0:0:0:
169,196,46409,1,10,0:0:0:0:
155,274,46737,2,0,L|74:280,2,80,2|10|2,0:0|0:0|0:0,0:0:0:0:
254,341,47885,21,4,0:0:0:0:
309,283,48213,2,0,L|442:268,2,120,0|0|0,1:0|1:0|1:0,0:0:0:0:
203,225,49688,2,0,P|191:176|207:102,1,120,4|0,3:0|1:0,0:0:0:0:
260,52,50508,1,0,1:0:0:0:
260,52,52639,22,0,L|156:42,1,80,0|0,0:0|1:0,0:0:0:0:
108,79,53295,38,0,L|4:69,2,80,6|10|2,0:0|0:0|0:0,0:0:0:0:
214,133,54442,2,0,P|228:185|181:249,1,120,0|10,1:0|0:0,0:0:0:0:
126,278,55262,2,0,L|135:360,1,80,2|10,0:0|0:0,0:0:0:0:
214,346,55917,6,0,B|264:341|264:341|319:357|319:357|404:348,1,160,2|2,0:0|0:0,0:0:0:0:
428,294,56901,1,10,0:0:0:0:
470,226,57229,2,0,P|491:174|452:99,2,120,2|2|10,0:0|0:0|0:0,0:0:0:0:
412,171,58540,6,0,L|290:165,1,120,2|2,0:0|0:0,0:0:0:0:
211,162,59360,1,0,1:0:0:0:
130,164,59688,2,0,P|109:111|148:36,2,120,0|10|0,1:0|0:0|1:0,0:0:0:0:
170,233,60999,85,4,0:0:0:0:
137,348,61491,2,0,P|84:368|9:329,1,120,8|8,0:0|3:0,0:0:0:0:
12,269,62311,2,0,L|27:143,1,120,4|8,0:0|0:0,0:0:0:0:
39,70,63131,1,0,1:0:0:0:
153,33,63622,6,0,L|279:48,1,120,6|10,0:0|0:0,0:0:0:0:
337,93,64442,1,2,0:0:0:0:
450,126,64934,2,0,P|464:178|417:242,1,120,0|10,1:0|0:0,0:0:0:0:
362,271,65754,2,0,L|371:353,1,80,2|10,0:0|0:0,0:0:0:0:
290,344,66409,6,0,B|240:339|240:339|185:355|185:355|100:346,1,160,2|2,0:0|0:0,0:0:0:0:
80,288,67393,1,10,0:0:0:0:
36,221,67721,2,0,P|16:152|33:91,2,120,2|2|10,0:0|0:0|0:0,0:0:0:0:
111,194,69032,86,0,P|175:165|259:200,1,160,6|2,0:0|0:0,0:0:0:0:
350,270,70180,2,0,P|414:239|422:163,1,120,4|10,1:2|0:0,0:0:0:0:
393,124,70999,2,0,L|296:115,1,80,2|10,0:0|0:0,0:0:0:0:
325,36,71655,6,0,L|450:47,1,120,6|2,0:0|0:0,0:0:0:0:
479,118,72475,1,0,1:0:0:0:
451,193,72803,2,0,L|448:278,1,80,4|0,1:2|1:0,0:0:0:0:
441,352,73458,2,0,L|356:349,1,80,6|0,0:0|1:0,0:0:0:0:
273,266,74278,6,0,P|191:249|121:301,1,160,6|2,0:0|0:0,0:0:0:0:
19,336,75426,2,0,P|20:294|11:255,1,80,4|0,1:2|1:0,0:0:0:0:
66,198,76081,2,0,P|65:156|74:117,1,80,6|0,0:0|1:0,0:0:0:0:
173,47,76901,6,0,P|212:38|275:43,2,80,4|12|4,1:2|1:2|1:2,0:0:0:0:
159,166,78049,2,0,L|294:177,1,120,4|8,0:0|0:0,0:0:0:0:
350,139,78868,1,2,1:0:0:0:
464,250,79524,1,4,1:0:0:0:
21,43,87393,69,0,1:0:0:0:
35,121,87721,2,0,P|72:140|151:105,1,120,4|0,0:0|1:0,0:0:0:0:
206,68,88540,2,0,B|169:127|221:189|221:189|271:248|224:336,1,280,4|0,1:2|0:0,0:0:0:0:
298,366,90016,86,0,P|402:358|449:303,1,160,4|8,0:0|0:0,0:0:0:0:
478,209,91163,2,0,B|430:198|382:220|382:220|334:241|277:218,1,200,0|8,1:0|0:0,0:0:0:0:
196,136,92475,6,0,L|191:265,1,120,0|2,1:0|0:0,0:0:0:0:
144,321,93295,1,8,0:0:0:0:
29,285,93786,2,0,L|34:82,1,200,0|8,1:0|0:0,0:0:0:0:
108,55,94934,1,2,0:0:0:0:
187,46,95262,102,0,P|237:57|266:79,1,80,2|2,0:0|0:0,0:0:0:0:
311,134,95917,1,8,0:0:0:0:
203,187,96409,2,0,B|192:235|214:283|214:283|235:331|212:388,1,200,0|8,1:0|0:0,0:0:0:0:
61,332,97885,5,0,1:0:0:0:
61,332,99688,2,0,P|91:309|132:304,1,80,0|0,1:0|1:0,0:0:0:0:
240,355,100508,6,0,L|327:354,1,80,6|10,0:0|0:0,0:0:0:0:
398,368,101163,2,0,P|411:328|397:249,1,120,2|0,0:0|1:0,0:0:0:0:
356,184,101983,2,0,L|356:104,2,80,0|2|0,1:0|0:0|1:0,0:0:0:0:
257,252,103131,6,0,P|215:264|178:251,1,80,2|10,0:0|0:0,0:0:0:0:
135,187,103786,2,0,P|148:129|134:71,2,120,2|0|10,0:0|1:0|0:0,0:0:0:0:
72,236,105098,2,0,P|60:278|73:315,1,80,2|10,0:0|0:0,0:0:0:0:
144,342,105754,6,0,L|320:333,1,160,6|2,0:0|0:0,0:0:0:0:
417,293,106901,2,0,P|415:249|400:214,1,80,0|0,1:0|1:0,0:0:0:0:
354,151,107557,2,0,P|356:107|371:72,1,80,2|0,0:0|1:0,0:0:0:0:
488,58,108376,86,0,L|500:220,1,160,6|2,0:0|0:0,0:0:0:0:
404,291,109524,2,0,L|413:374,2,80,4|0|0,1:2|1:0|1:0,0:0:0:0:
329,261,110508,1,8,3:3:0:0:
217,305,110999,86,0,L|42:291,1,160,6|10,0:0|0:0,0:0:0:0:
25,218,111983,2,0,P|12:168|61:77,1,160,2|10,0:0|0:0,0:0:0:0:
141,80,112967,2,0,L|221:87,1,80,2|10,0:0|0:0,0:0:0:0:
262,155,113622,6,0,L|276:330,1,160,2|10,0:0|0:0,0:0:0:0:
349,347,114606,2,0,P|399:360|490:311,1,160,2|10,0:0|0:0,0:0:0:0:
487,231,115590,2,0,L|480:151,1,80,2|10,0:0|0:0,0:0:0:0:
471,71,116245,102,0,P|393:80|330:35,1,160,6|10,0:0|0:0,0:0:0:0:
249,30,117229,2,0,L|89:42,1,160,2|10,0:0|0:0,0:0:0:0:
27,93,118213,2,0,P|20:146|27:179,1,80,2|10,0:0|0:0,0:0:0:0:
39,250,118868,6,0,P|117:259|180:214,1,160,2|10,0:0|0:0,0:0:0:0:
261,209,119852,2,0,L|421:221,1,160,2|10,0:0|0:0,0:0:0:0:
420,301,120835,2,0,L|331:295,1,80,2|4,0:0|0:0,0:0:0:0:
260,294,121491,6,0,L|130:303,2,120,6|2|10,0:0|0:0|0:0,0:0:0:0:
294,221,122803,2,0,P|334:209|375:215,2,80,2|10|2,0:0|0:0|0:0,0:0:0:0:
231,170,123786,1,10,0:0:0:0:
237,90,124114,6,0,P|281:28|357:36,1,160,2|2,0:0|0:0,0:0:0:0:
414,93,125098,1,10,0:0:0:0:
427,171,125426,2,0,P|467:183|508:177,2,80,2|10|2,0:0|0:0|0:0,0:0:0:0:
324,232,126573,21,4,0:0:0:0:
254,272,126901,2,0,L|131:260,2,120,0|0|0,1:0|1:0|1:0,0:0:0:0:
332,362,128376,2,0,L|455:350,1,120,4|0,3:0|1:0,0:0:0:0:
487,278,129196,1,0,1:0:0:0:
487,278,131327,6,0,L|497:174,1,80,0|0,0:0|1:0,0:0:0:0:
460,126,131983,54,0,L|470:22,2,80,6|10|2,0:0|0:0|0:0,0:0:0:0:
365,199,133131,2,0,P|313:213|249:166,1,120,0|10,1:0|0:0,0:0:0:0:
220,111,133950,2,0,L|138:120,1,80,2|10,0:0|0:0,0:0:0:0:
152,199,134606,6,0,B|157:249|157:249|141:304|141:304|150:389,1,160,2|2,0:0|0:0,0:0:0:0:
223,331,135590,1,10,0:0:0:0:
302,328,135917,2,0,P|354:349|429:310,2,120,2|2|10,0:0|0:0|0:0,0:0:0:0:
357,270,137229,6,0,L|363:148,1,120,2|2,0:0|0:0,0:0:0:0:
311,88,138049,1,0,1:0:0:0:
237,57,138376,2,0,P|185:36|110:75,2,120,0|10|0,1:0|0:0|1:0,0:0:0:0:
182,115,139688,85,4,0:0:0:0:
98,201,140180,2,0,P|77:253|116:328,1,120,8|8,0:0|3:0,0:0:0:0:
171,340,140999,2,0,L|301:330,1,120,4|8,0:0|0:0,0:0:0:0:
370,322,141819,1,0,1:0:0:0:
489,309,142311,6,0,L|474:183,1,120,6|10,0:0|0:0,0:0:0:0:
429,125,143131,1,2,0:0:0:0:
326,62,143622,2,0,B|262:51|262:51|210:95,1,120,0|10,1:0|0:0,0:0:0:0:
201,164,144442,2,0,L|119:173,1,80,2|10,0:0|0:0,0:0:0:0:
43,153,145098,6,0,B|38:203|38:203|54:258|54:258|45:343,1,160,2|2,0:0|0:0,0:0:0:0:
124,334,146081,1,10,0:0:0:0:
200,358,146409,2,0,B|264:369|264:369|316:325,2,120,2|2|10,0:0|0:0|0:0,0:0:0:0:
124,334,147721,86,0,P|134:260|225:224,1,160,6|2,0:0|0:0,0:0:0:0:
322,237,148868,2,0,L|328:108,1,120,4|10,1:2|0:0,0:0:0:0:
304,40,149688,2,0,L|214:48,1,80,2|10,0:0|0:0,0:0:0:0:
146,40,150344,6,0,L|21:51,1,120,6|2,0:0|0:0,0:0:0:0:
11,129,151163,1,0,1:0:0:0:
81,166,151491,2,0,L|84:251,1,80,4|0,1:2|1:0,0:0:0:0:
44,315,152147,2,0,P|83:324|128:312,1,80,6|0,0:0|1:0,0:0:0:0:
201,225,152967,6,0,P|248:225|339:298,1,160,6|2,0:0|0:0,0:0:0:0:
431,362,154114,2,0,L|440:279,1,80,4|0,1:2|1:0,0:0:0:0:
387,221,154770,2,0,L|396:138,1,80,6|0,0:0|1:0,0:0:0:0:
330,40,155590,6,0,P|292:31|253:40,2,80,4|12|4,1:2|1:2|1:2,0:0:0:0:
292,153,156737,2,0,L|165:142,1,120,4|8,0:0|0:0,0:0:0:0:
92,133,157557,1,2,1:0:0:0:
70,291,158213,70,0,P|113:338|211:324,1,160,4|2,1:0|0:0,0:0:0:0:
273,292,159196,1,10,0:0:0:0:
342,251,159524,2,0,L|422:262,1,80,2|10,0:0|0:0,0:0:0:0:
434,182,160180,2,0,L|354:171,1,80,2|10,0:0|0:0,0:0:0:0:
324,96,160835,6,0,P|247:83|191:135,1,160,2|2,0:0|0:0,0:0:0:0:
162,210,161819,1,10,0:0:0:0:
199,280,162147,2,0,L|280:273,2,80,2|10|2,0:0|0:0|0:0,0:0:0:0:
125,311,163131,1,14,0:0:0:0:
82,378,163458,6,0,P|45:305|97:235,1,160,0|2,0:0|0:0,0:0:0:0:
87,163,164442,1,10,0:0:0:0:
46,94,164770,2,0,P|93:82|128:94,1,80,2|10,0:0|0:0,0:0:0:0:
186,139,165426,2,0,P|233:151|268:139,1,80,2|10,0:0|0:0,0:0:0:0:
321,88,166081,86,0,P|283:161|335:231,1,160,2|2,0:0|0:0,0:0:0:0:
384,269,167065,1,10,0:0:0:0:
456,302,167393,2,0,L|453:389,2,80,2|10|2,0:0|0:0|0:0,0:0:0:0:
459,222,168376,1,14,0:0:0:0:
466,142,168704,6,0,L|296:133,1,160,6|2,0:0|0:0,0:0:0:0:
236,93,169688,1,10,0:0:0:0:
165,131,170016,2,0,L|161:212,1,80,2|10,0:0|0:0,0:0:0:0:
100,263,170672,2,0,L|103:342,1,80,2|10,0:0|0:0,0:0:0:0:
25,360,171327,6,0,L|16:190,1,160,2|2,0:0|0:0,0:0:0:0:
89,166,172311,1,10,0:0:0:0:
166,144,172639,2,0,L|162:64,2,80,2|10|2,0:0|0:0|0:0,0:0:0:0:
223,200,173622,1,14,0:0:0:0:
293,238,173950,86,0,P|366:276|436:224,1,160,6|2,0:0|0:0,0:0:0:0:
459,124,175098,2,0,L|322:110,1,120,4|10,1:2|0:0,0:0:0:0:
272,155,175917,2,0,L|191:163,1,80,2|10,0:0|0:0,0:0:0:0:
119,128,176573,6,0,P|115:187|204:242,1,160,6|2,0:0|0:0,0:0:0:0:
309,235,177721,2,0,P|306:289|272:353,1,120,4|10,1:2|0:0,0:0:0:0:
196,347,178540,1,0,1:0:0:0:
69,253,179196,70,0,L|57:87,1,160,6|10,0:0|0:0,0:0:0:0:
127,53,180180,2,0,P|175:86|292:80,1,160,2|10,0:0|0:0,0:0:0:0:
351,62,181163,2,0,P|352:112|337:141,1,80,2|10,0:0|0:0,0:0:0:0:
266,169,181819,6,0,L|254:335,1,160,2|10,0:0|0:0,0:0:0:0:
312,384,182803,2,0,P|360:351|477:357,1,160,2|10,0:0|0:0,0:0:0:0:
489,274,183786,2,0,P|490:224|475:195,1,80,2|10,0:0|0:0,0:0:0:0:
440,126,184442,102,0,P|362:130|293:90,1,160,6|10,0:0|0:0,0:0:0:0:
249,23,185426,2,0,L|237:189,1,160,2|10,0:0|0:0,0:0:0:0:
259,260,186409,2,0,P|298:263|335:248,1,80,2|10,0:0|0:0,0:0:0:0:
383,184,187065,6,0,P|414:261|361:324,1,160,2|10,0:0|0:0,0:0:0:0:
300,348,188049,2,0,L|134:336,1,160,2|10,0:0|0:0,0:0:0:0:
66,364,189032,2,0,P|63:324|78:287,1,80,2|4,0:0|0:0,0:0:0:0:
128,224,189688,6,0,L|258:233,2,120,6|2|10,0:0|0:0|0:0,0:0:0:0:
80,160,190999,2,0,L|-1:154,2,80,2|10|2,0:0|0:0|0:0,0:0:0:0:
143,109,191983,1,10,0:0:0:0:
210,64,192311,6,0,P|275:52|331:118,1,160,2|2,0:0|0:0,0:0:0:0:
343,196,193295,1,10,0:0:0:0:
357,274,193622,2,0,L|438:280,2,80,2|10|2,0:0|0:0|0:0,0:0:0:0:
258,341,194770,21,4,0:0:0:0:
203,283,195098,2,0,L|70:268,2,120,0|0|0,1:0|1:0|1:0,0:0:0:0:
309,225,196573,2,0,P|321:176|305:102,1,120,4|0,3:0|1:0,0:0:0:0:
252,52,197393,1,0,1:0:0:0:
471,45,202147,70,0,L|364:53,1,80,0|0,0:0|1:0,0:0:0:0:
317,81,202803,6,0,L|213:71,2,80,6|10|2,0:0|0:0|0:0,0:0:0:0:
423,135,203950,2,0,P|437:187|390:251,1,120,0|10,1:0|0:0,0:0:0:0:
335,280,204770,2,0,L|344:362,1,80,2|10,0:0|0:0,0:0:0:0:
264,346,205426,6,0,B|214:341|214:341|159:357|159:357|74:348,1,160,2|2,0:0|0:0,0:0:0:0:
69,280,206409,1,10,0:0:0:0:
34,207,206737,2,0,P|17:151|52:88,2,120,2|2|10,0:0|0:0|0:0,0:0:0:0:
95,156,208049,85,4,0:0:0:0:
95,156,209196,1,4,0:0:0:0:
95,156,210508,5,4,0:0:0:0:
183,74,210999,2,0,L|309:92,1,120,8|8,0:0|3:0,0:0:0:0:
382,91,211819,2,0,P|359:146|303:172,1,120,4|8,0:0|1:2,0:0:0:0:
226,168,212639,1,0,1:2:0:0:
124,232,213131,6,0,L|139:358,1,120,6|10,0:0|0:0,0:0:0:0:
218,345,213950,1,2,0:0:0:0:
333,314,214442,2,0,P|347:262|300:198,1,120,0|10,1:0|0:0,0:0:0:0:
245,169,215262,2,0,L|254:87,1,80,2|10,0:0|0:0,0:0:0:0:
330,65,215917,86,0,B|380:70|380:70|435:54|435:54|520:63,1,160,2|2,0:0|0:0,0:0:0:0:
474,138,216901,1,10,0:0:0:0:
452,215,217229,2,0,L|473:350,2,120,2|2|10,0:0|0:0|0:0,0:0:0:0:
391,162,218540,6,0,L|225:185,1,160,6|2,0:0|0:0,0:0:0:0:
166,284,219688,2,0,P|198:335|267:344,1,120,4|10,1:2|0:0,0:0:0:0:
326,314,220508,2,0,L|333:209,1,80,2|10,0:0|0:0,0:0:0:0:
272,180,221163,6,0,L|281:25,1,120,6|2,0:0|0:0,0:0:0:0:
198,53,221983,1,0,1:0:0:0:
117,51,222311,2,0,L|37:48,1,80,4|0,1:2|1:0,0:0:0:0:
30,127,222967,2,0,L|27:206,1,80,6|0,0:0|1:0,0:0:0:0:
25,327,223786,86,0,B|74:325|74:325|136:303|136:303|188:302,1,160,6|2,0:0|0:0,0:0:0:0:
294,342,224934,2,0,L|300:252,1,80,4|0,1:2|1:0,0:0:0:0:
250,198,225590,2,0,L|256:108,1,80,6|0,0:0|1:0,0:0:0:0:
349,43,226409,38,0,P|404:33|432:36,2,80,4|12|4,1:2|1:2|1:2,0:0:0:0:
255,118,227557,2,0,L|118:120,1,120,4|8,0:0|0:0,0:0:0:0:
55,121,228376,1,8,1:2:0:0:
25,237,228868,70,0,P|27:321|149:358,1,200,6|2,0:0|0:0,0:0:0:0:
241,345,230180,2,0,L|235:255,1,80,4|0,1:2|1:0,0:0:0:0:
285,201,230835,2,0,L|279:111,1,80,6|0,0:0|1:0,0:0:0:0:
186,46,231655,38,0,P|131:36|103:39,2,80,4|12|4,1:2|1:2|1:2,0:0:0:0:
280,121,232803,2,0,L|417:123,1,120,4|8,0:0|0:0,0:0:0:0:
479,124,233622,1,2,1:0:0:0:
478,284,234278,53,4,1:0:0:0:
