osu file format v14

[General]
AudioFilename: audio.mp3
AudioLeadIn: 0
PreviewTime: 58223
Countdown: 0
SampleSet: Soft
StackLeniency: 0.7
Mode: 0
LetterboxInBreaks: 0
WidescreenStoryboard: 0

[Editor]
DistanceSpacing: 1
BeatDivisor: 2
GridSize: 16
TimelineZoom: 1

[Metadata]
Title:Yasashisa no Riyuu
TitleUnicode:優しさの理由
Artist:*namirin
ArtistUnicode:*なみりん
Creator:BaAR_Vendel
Version:Normal
Source:氷菓
Tags:Hyoka Hyouka anime 古典部 Koten-bu Kotenbu Series Choucho Kyoto Animation Lantis Company Limited Cover Utaite Opening OP tv size
BeatmapID:1765086
BeatmapSetID:843688

[Difficulty]
HPDrainRate:4
CircleSize:3.3
OverallDifficulty:4
ApproachRate:6
SliderMultiplier:0.999999999999999
SliderTickRate:1

[Events]
//Background and Video events
0,0,"bg.jpg",0,0
//Break Periods
//Storyboard Layer 0 (Background)
//Storyboard Layer 1 (Fail)
//Storyboard Layer 2 (Pass)
//Storyboard Layer 3 (Foreground)
//Storyboard Sound Samples

[TimingPoints]
3,338.983050847458,4,2,1,30,1,0
3,-100,4,2,1,30,0,0
10850,-100,4,2,1,65,0,0
21697,-100,4,2,1,40,0,0
32545,-100,4,2,1,50,0,0
42036,-100,4,2,1,50,0,0
43562,-100,4,2,1,50,0,0
44409,-100,4,2,1,50,0,0
44748,-100,4,2,1,50,0,0
52884,-100,4,2,1,60,0,0
53901,-100,4,2,1,60,0,0
54918,-100,4,2,1,60,0,0
55257,-100,4,2,1,60,0,0
55596,-100,4,2,1,40,0,0
56274,-100,4,2,1,5,0,0
56782,-100,4,2,1,40,0,0
58308,-100,4,2,1,80,0,1
63731,-100,4,2,1,80,0,1
63901,-100,4,2,1,30,0,1
64070,-100,4,2,1,80,0,1
68816,-100,4,2,1,75,0,0
69155,-100,4,2,1,80,0,1
74579,-100,4,2,1,70,0,1
76613,-100,4,2,1,70,0,1
76867,-100,4,2,1,5,0,1
76952,-100,4,2,1,70,0,1
77206,-100,4,2,1,5,0,1
77291,-100,4,2,1,60,0,0
80003,-100,4,2,1,50,0,0
82714,-100,4,2,1,60,0,0
85257,-100,4,2,1,70,0,0
86782,-100,4,2,1,50,0,0
88138,-100,4,2,1,20,0,0
88816,-100,4,2,1,10,0,0
89494,-100,4,2,1,5,0,0

[Colours]
Combo1 : 238,139,252
Combo2 : 132,238,148

[HitObjects]
333,108,3,6,0,P|276:119|215:93,2,99.9999999999999,2|2|0,1:2|0:0|3:0,0:0:0:0:
377,18,1019,1,2,0:0:0:0:
474,42,1358,2,0,L|466:142,1,99.9999999999999,0|2,0:0|0:0,0:0:0:0:
430,235,2036,1,0,3:0:0:0:
338,199,2375,2,0,L|288:203,1,50,2|2,0:0|1:2,0:0:0:0:
238,205,2714,6,0,P|226:156|237:108,1,99.9999999999999,2|2,0:0|0:0,0:0:0:0:
251,60,3223,2,0,P|177:41|102:68,1,150,2|2,0:0|0:0,0:0:0:0:
71,155,4070,2,0,B|77:200|77:200|60:251,1,99.9999999999999,0|0,0:0|0:0,0:0:0:0:
5,336,4748,2,0,B|48:349|48:349|101:341,1,99.9999999999999,0|0,3:0|0:0,0:0:0:0:
186,288,5426,6,0,P|200:335|192:383,2,99.9999999999999,2|2|2,0:0|0:0|3:0,0:0:0:0:
238,205,6443,1,2,0:0:0:0:
329,245,6782,2,0,L|440:235,1,99.9999999999999,0|2,0:0|0:0,0:0:0:0:
508,176,7459,1,0,3:0:0:0:
443,99,7799,2,0,P|435:64|437:35,1,50,2|2,1:2|1:2,0:0:0:0:
444,0,8138,5,2,0:0:0:0:
360,254,10850,6,0,P|304:268|245:254,1,99.9999999999999,12|2,0:0|1:2,0:0:0:0:
185,197,11528,1,2,1:2:0:0:
249,120,11867,1,2,1:2:0:0:
249,120,12036,2,0,L|254:56,1,50,2|0,0:0|1:2,0:0:0:0:
329,5,12545,1,0,1:2:0:0:
399,79,12884,2,0,P|412:126|406:176,1,99.9999999999999,0|0,1:2|1:2,0:0:0:0:
378,218,13392,1,0,0:0:0:0:
378,218,13562,6,0,P|364:274|378:333,1,99.9999999999999,4|2,1:2|1:2,0:0:0:0:
290,377,14240,2,0,L|178:367,1,99.9999999999999,2|2,1:2|1:2,0:0:0:0:
145,346,14748,2,0,P|141:321|142:296,1,50,2|0,0:0|1:2,0:0:0:0:
161,198,15257,1,2,1:2:0:0:
258,217,15596,2,0,P|272:161|258:102,1,99.9999999999999,2|0,1:2|1:2,0:0:0:0:
250,72,16104,1,4,2:1:0:0:
250,72,16274,6,0,B|304:60|304:60|370:77,1,99.9999999999999,4|2,1:2|1:2,0:0:0:0:
425,136,16952,1,2,1:2:0:0:
372,221,17291,1,2,1:2:0:0:
372,221,17460,2,0,L|377:284,1,50,4|0,0:0|1:2,0:0:0:0:
311,348,17969,1,0,1:2:0:0:
217,311,18308,2,0,P|167:304|119:318,1,99.9999999999999,2|0,1:2|1:2,0:0:0:0:
78,347,18816,1,0,0:0:0:0:
78,347,18986,6,0,L|68:235,1,99.9999999999999,6|0,1:2|1:2,0:0:0:0:
128,166,19664,2,0,L|138:54,1,99.9999999999999,0|2,1:2|1:2,0:0:0:0:
236,48,20341,1,0,1:2:0:0:
236,48,20511,1,8,0:3:0:0:
307,120,20850,2,0,L|370:125,2,50,2|8|2,1:2|0:3|1:2,0:0:0:0:
263,143,21358,1,8,0:3:0:0:
174,192,21697,6,0,P|117:203|56:177,2,99.9999999999999,2|2|2,1:2|0:0|3:0,0:0:0:0:
125,103,22714,1,2,0:0:0:0:
214,54,23053,2,0,P|271:43|332:69,1,99.9999999999999,0|2,0:0|0:0,0:0:0:0:
374,131,23731,1,0,3:0:0:0:
316,211,24070,2,0,L|253:216,1,50,2|2,0:0|1:2,0:0:0:0:
233,252,24409,6,0,P|222:301|234:349,1,99.9999999999999,2|2,0:0|0:0,0:0:0:0:
277,373,24918,2,0,P|351:353|428:380,1,150,2|2,0:0|0:0,0:0:0:0:
496,310,25765,2,0,B|513:259|513:259|504:195,1,99.9999999999999,0|0,0:0|0:0,0:0:0:0:
418,167,26443,2,0,B|412:122|412:122|429:71,1,99.9999999999999,0|0,3:0|0:0,0:0:0:0:
330,55,27121,6,0,P|273:44|212:70,2,99.9999999999999,2|2|2,0:0|0:0|3:0,0:0:0:0:
282,143,28138,1,2,0:0:0:0:
193,189,28477,2,0,P|146:172|112:136,1,99.9999999999999,0|2,0:0|0:0,0:0:0:0:
96,38,29154,1,0,3:0:0:0:
196,37,29494,2,0,L|259:31,1,50,2|2,0:0|1:2,0:0:0:0:
295,20,29833,6,0,L|470:35,1,150,2|0,0:0|0:0,0:0:0:0:
488,57,30511,2,0,P|507:128|439:182,1,150,2|2,3:0|0:0,0:0:0:0:
421,211,31189,2,0,P|407:267|421:326,1,99.9999999999999,2|0,0:0|0:0,0:0:0:0:
338,375,31867,2,0,L|275:369,2,50,10|8|0,3:3|0:3|1:2,0:0:0:0:
306,280,32545,6,0,P|255:261|188:276,1,99.9999999999999,4|2,0:0|1:2,0:0:0:0:
165,288,33053,1,2,0:0:0:0:
165,288,33223,2,0,P|151:232|165:173,1,99.9999999999999,2|2,1:2|1:2,0:0:0:0:
191,153,33731,2,0,P|205:97|191:38,1,99.9999999999999,2|2,0:0|0:0,0:0:0:0:
174,11,34240,1,2,1:2:0:0:
273,4,34579,1,0,1:2:0:0:
339,79,34918,2,0,L|388:75,1,50,2|2,1:2|0:0,0:0:0:0:
439,73,35257,6,0,P|453:129|439:188,1,99.9999999999999,2|2,1:2|1:2,0:0:0:0:
420,212,35765,2,0,L|265:225,1,150,2|2,0:0|1:2,0:0:0:0:
190,285,36613,2,0,L|184:348,2,50,0|0|0,1:2|0:0|1:2,0:0:0:0:
129,204,37291,2,0,L|135:140,2,50,0|0|0,1:2|0:0|1:2,0:0:0:0:
45,259,37969,6,0,P|32:223|34:191,1,50,2|2,1:2|0:0,0:0:0:0:
33,161,38308,2,0,P|43:124|39:92,1,50,2|2,1:2|0:0,0:0:0:0:
23,66,38647,2,0,P|79:52|138:66,1,99.9999999999999,2|2,1:2|1:2,0:0:0:0:
162,86,39155,1,2,0:0:0:0:
254,50,39494,1,2,0:0:0:0:
254,50,39664,2,0,L|259:-13,2,50,2|0|0,1:2|0:0|1:2,0:0:0:0:
336,106,40341,2,0,L|331:169,1,50,2|2,1:2|0:0,0:0:0:0:
327,205,40680,6,0,P|280:218|230:212,1,99.9999999999999,2|2,1:2|1:2,0:0:0:0:
187,185,41189,2,0,P|137:178|89:191,1,99.9999999999999,2|0,0:0|0:0,0:0:0:0:
64,234,41697,2,0,L|70:313,1,50,2|2,1:2|0:0,0:0:0:0:
77,333,42036,5,0,1:2:0:0:
177,341,42375,1,0,1:2:0:0:
241,264,42714,1,4,1:3:0:0:
227,165,43053,2,0,L|338:155,1,99.9999999999999,8|0,1:3|1:2,0:0:0:0:
377,154,43562,6,0,B|408:183|408:183|409:271,1,99.9999999999999,12|0,0:0|1:2,0:0:0:0:
408,290,44070,1,12,0:0:0:0:
317,332,44409,1,10,0:0:0:0:
257,252,44748,6,0,P|201:238|142:252,1,99.9999999999999,4|2,0:0|0:0,0:0:0:0:
88,315,45426,1,10,0:0:0:0:
19,242,45765,1,2,0:0:0:0:
76,160,46104,2,0,L|81:96,1,50,0|8,1:2|0:0,0:0:0:0:
91,61,46443,2,0,P|147:75|206:61,1,99.9999999999999,2|10,1:2|0:0,0:0:0:0:
275,18,47121,1,2,0:0:0:0:
345,88,47460,6,0,P|359:144|345:203,1,99.9999999999999,0|2,1:2|0:0,0:0:0:0:
267,238,48138,2,0,L|187:244,2,50,10|2|2,0:0|0:0|0:0,0:0:0:0:
351,285,48816,2,0,P|382:291|414:290,1,50,0|8,1:2|0:0,0:0:0:0:
451,286,49155,1,0,1:2:0:0:
452,186,49494,1,12,0:0:0:0:
352,185,49833,1,2,0:0:0:0:
267,238,50172,6,0,P|256:174|274:125,1,99.9999999999999,4|2,0:0|0:0,0:0:0:0:
348,85,50850,1,10,0:0:0:0:
292,3,51189,1,2,0:0:0:0:
194,27,51528,2,0,L|130:32,1,50,0|8,1:2|0:0,0:0:0:0:
94,36,51867,1,2,1:2:0:0:
41,121,52206,2,0,P|34:170|49:217,1,99.9999999999999,10|2,0:0|0:0,0:0:0:0:
146,240,52884,5,4,0:0:0:0:
250,132,53392,1,4,0:0:0:0:
384,197,53901,1,4,0:0:0:0:
363,345,54409,1,4,0:0:0:0:
215,370,54918,1,10,1:2:0:0:
168,282,55257,1,10,0:0:0:0:
69,299,55596,5,4,0:0:0:0:
244,39,58308,6,0,P|230:95|244:154,1,99.9999999999999,4|10,1:2|0:0,0:0:0:0:
270,173,58816,2,0,P|284:229|270:288,1,99.9999999999999,2|2,0:0|1:2,0:0:0:0:
217,350,59494,1,2,0:0:0:0:
120,324,59833,1,2,0:0:0:0:
106,224,60172,1,2,0:0:0:0:
188,165,60511,1,2,1:2:0:0:
281,207,60850,6,0,L|388:206,1,99.9999999999999,2|2,0:0|0:0,0:0:0:0:
475,171,61528,2,0,P|476:228|449:283,1,99.9999999999999,2|2,0:0|1:2,0:0:0:0:
388,337,62206,1,2,0:0:0:0:
388,337,62375,2,0,P|332:320|273:330,1,99.9999999999999,0|8,1:2|0:0,0:0:0:0:
248,297,62883,1,2,0:0:0:0:
248,297,63053,2,0,L|184:292,2,50,2|2|10,1:2|1:2|0:0,0:0:0:0:
214,203,63731,5,10,0:0:0:0:
180,109,64070,1,12,0:0:0:0:
180,109,64240,2,0,L|68:118,1,99.9999999999999,2|0,0:0|1:2,0:0:0:0:
32,131,64748,1,8,0:0:0:0:
32,131,64918,2,0,P|18:187|32:246,1,99.9999999999999,4|0,1:2|1:2,0:0:0:0:
60,262,65426,1,8,0:0:0:0:
154,228,65765,1,2,0:0:0:0:
187,322,66104,1,10,0:0:0:0:
281,288,66443,6,0,P|295:232|281:173,1,99.9999999999999,12|2,0:0|1:2,0:0:0:0:
262,147,66952,2,0,P|255:97|269:49,1,99.9999999999999,10|2,0:0|0:0,0:0:0:0:
232,16,67460,2,0,L|120:25,1,99.9999999999999,12|0,0:0|1:2,0:0:0:0:
96,60,67969,2,0,P|102:109|88:157,1,99.9999999999999,10|2,0:0|1:2,0:0:0:0:
60,198,68477,1,10,0:0:0:0:
102,288,68816,1,10,0:0:0:0:
203,281,69155,6,0,P|227:228|223:167,1,99.9999999999999,4|10,1:2|0:0,0:0:0:0:
208,140,69664,1,2,0:0:0:0:
130,76,70003,1,2,1:2:0:0:
212,19,70341,2,0,L|323:10,1,99.9999999999999,2|2,0:0|0:0,0:0:0:0:
410,27,71019,1,2,0:0:0:0:
378,121,71358,1,2,1:2:0:0:
449,190,71697,6,0,P|463:246|449:305,1,99.9999999999999,2|2,0:0|0:0,0:0:0:0:
376,347,72375,1,2,0:0:0:0:
285,306,72714,1,2,1:2:0:0:
293,206,73053,2,0,B|299:128|299:128|263:47,1,150,2|8,0:0|0:0,0:0:0:0:
236,26,73731,1,2,0:0:0:0:
236,26,73901,1,10,0:0:0:0:
183,113,74240,2,0,L|189:192,1,50,10|10,0:3|0:3,0:0:0:0:
195,213,74579,6,0,P|251:199|310:213,1,99.9999999999999,4|8,0:0|0:0,0:0:0:0:
334,231,75087,2,0,P|383:237|431:223,1,99.9999999999999,4|0,0:0|0:0,0:0:0:0:
468,189,75596,1,10,0:0:0:0:
468,189,75765,1,4,0:0:0:0:
463,89,76104,2,0,L|526:94,2,50,8|8|0,0:0|1:2|1:2,0:0:0:0:
430,50,76613,1,2,0:0:0:0:
361,122,76952,1,2,0:0:0:0:
402,212,77291,5,4,0:0:0:0:
406,216,78308,1,2,0:0:0:0:
406,216,78477,2,0,P|350:230|291:216,1,99.9999999999999,2|8,0:0|0:0,0:0:0:0:
268,194,78986,1,2,1:2:0:0:
172,221,79325,2,0,P|186:165|172:106,1,99.9999999999999,10|2,0:0|0:0,0:0:0:0:
93,71,80003,5,4,1:2:0:0:
93,71,82714,6,0,P|149:57|208:71,1,99.9999999999999,4|2,1:2|1:2,0:0:0:0:
268,126,83392,2,0,L|331:120,2,50,2|0|2,1:2|0:0|0:0,0:0:0:0:
236,165,83901,2,0,P|214:231|240:314,1,150,10|0,0:0|1:2,0:0:0:0:
329,339,84748,2,0,P|386:334|442:358,1,99.9999999999999,2|4,1:2|0:3,0:0:0:0:
466,378,85257,5,4,0:0:0:0:
256,192,85426,12,0,89494,0:0:0:0:
