osu file format v14

[General]
AudioFilename: audio.mp3
AudioLeadIn: 0
PreviewTime: 132260
Countdown: 0
SampleSet: Soft
StackLeniency: 0.3
Mode: 0
LetterboxInBreaks: 0
WidescreenStoryboard: 0

[Editor]
DistanceSpacing: 0.5
BeatDivisor: 4
GridSize: 4
TimelineZoom: 2.9

[Metadata]
Title:Songs Compilation
TitleUnicode:Songs Compilation
Artist:*namirin
ArtistUnicode:*なみりん
Creator:[C u r i]
Version:Princess
Source:
Tags:Kalibe 回る空うさぎ Mawaru Sora Usagi またフタリ恋をする Mata Futari Koi o Suru 惑星ループ Wakusei Loop 桜色タイムカプセル Sakurairo Time Capsule 優しさの理由 Yasashisa no Riyuu 恋のヒメヒメぺったんこ Koi no Hime Hime Pettanko Over 吹雪 FUBUKI 踊れオーケストラ Odore Ochestra 夢のポテンシャル Yume no Potential ノータイムリミット No Time Limit アマツキツネ Amatsu Kitsune 弧ギツネの乱 Kogitsune no Ran 雨音ノイズ Amaoto Noise
BeatmapID:1245659
BeatmapSetID:588370

[Difficulty]
HPDrainRate:6
CircleSize:4
OverallDifficulty:8.6
ApproachRate:9.2
SliderMultiplier:1.67
SliderTickRate:1

[Events]
//Background and Video events
0,0,"61603400_p0.jpg",0,0
//Break Periods
2,52249,62108
2,88592,96848
2,120206,129396
2,155577,164379
2,192267,201148
2,225850,235218
2,257321,268620
2,296056,305803
2,338572,348916
2,372227,382178
2,403483,413647
2,440311,449555
2,473710,488808
//Storyboard Layer 0 (Background)
//Storyboard Layer 1 (Fail)
//Storyboard Layer 2 (Pass)
//Storyboard Layer 3 (Foreground)
//Storyboard Sound Samples

[TimingPoints]
49,500,4,2,1,50,1,0
4049,-100,4,2,49,50,0,0
4299,-100,4,2,50,50,0,0
4549,-100,4,2,51,50,0,0
4799,-100,4,2,52,50,0,0
5049,-100,4,2,53,50,0,0
5299,-100,4,2,54,50,0,0
5549,-100,4,2,51,50,0,0
5799,-100,4,2,52,50,0,0
6049,-100,4,2,54,50,0,0
6299,-100,4,2,52,50,0,0
6549,-100,4,2,55,50,0,0
6799,-100,4,2,56,50,0,0
7049,-100,4,2,50,50,0,0
7299,-100,4,2,57,50,0,0
7549,-100,4,2,56,50,0,0
7799,-100,4,2,55,50,0,0
8049,-100,4,2,49,50,0,0
8299,-100,4,2,50,50,0,0
8549,-100,4,2,51,50,0,0
8799,-100,4,2,52,50,0,0
9049,-100,4,2,53,50,0,0
9299,-100,4,2,54,50,0,0
9549,-100,4,2,51,50,0,0
9799,-100,4,2,52,50,0,0
10049,-100,4,2,54,50,0,0
10299,-100,4,2,52,50,0,0
10549,-100,4,2,55,50,0,0
10799,-100,4,2,56,50,0,0
11049,-100,4,2,50,50,0,0
11299,-100,4,2,57,50,0,0
11549,-100,4,2,56,50,0,0
11799,-100,4,2,55,50,0,0
12049,-100,4,2,49,50,0,0
12299,-100,4,2,50,50,0,0
12549,-100,4,2,51,50,0,0
12799,-100,4,2,52,50,0,0
13049,-100,4,2,53,50,0,0
13299,-100,4,2,54,50,0,0
13549,-100,4,2,51,50,0,0
13799,-100,4,2,52,50,0,0
14049,-100,4,2,54,50,0,0
14299,-100,4,2,52,50,0,0
14549,-100,4,2,55,50,0,0
14799,-100,4,2,56,50,0,0
15049,-100,4,2,50,50,0,0
15299,-100,4,2,57,50,0,0
15549,-100,4,2,56,50,0,0
15799,-100,4,2,55,50,0,0
16049,-100,4,2,49,50,0,0
16299,-100,4,2,50,50,0,0
16549,-100,4,2,51,50,0,0
16799,-100,4,2,52,50,0,0
17049,-100,4,2,53,50,0,0
17299,-100,4,2,54,50,0,0
17549,-100,4,2,51,50,0,0
17799,-100,4,2,52,50,0,0
18049,-100,4,2,54,50,0,0
18299,-100,4,2,52,50,0,0
18549,-100,4,2,55,50,0,0
18799,-100,4,2,56,50,0,0
19049,-100,4,2,50,50,0,0
19299,-100,4,2,57,50,0,0
19549,-100,4,2,56,50,0,0
19799,-100,4,2,55,50,0,0
20049,-100,4,2,58,50,0,0
20549,-100,4,2,59,50,0,0
20799,-100,4,2,61,50,0,0
21049,-100,4,2,60,50,0,0
21549,-100,4,2,62,50,0,0
21799,-100,4,2,63,20,0,0
22049,-100,4,2,64,50,0,0
22549,-100,4,2,58,50,0,0
22799,-100,4,2,65,20,0,0
23049,-100,4,2,66,50,0,0
23299,-100,4,2,67,20,0,0
23549,-100,4,2,64,50,0,0
23799,-100,4,2,65,20,0,0
24049,-100,4,2,58,50,0,0
24549,-100,4,2,68,50,0,0
24799,-100,4,2,69,20,0,0
25049,-100,4,2,70,50,0,0
25299,-100,4,2,71,20,0,0
25549,-100,4,2,72,50,0,0
25799,-100,4,2,71,20,0,0
26049,-100,4,2,73,50,0,0
26299,-100,4,2,74,20,0,0
26549,-100,4,2,75,50,0,0
26799,-100,4,2,76,20,0,0
27049,-100,4,2,77,50,0,0
27299,-100,4,2,78,20,0,0
27549,-100,4,2,79,50,0,0
27799,-100,4,2,80,20,0,0
28049,-100,4,2,58,50,0,0
28549,-100,4,2,59,50,0,0
28799,-100,4,2,61,20,0,0
29049,-100,4,2,60,50,0,0
29549,-100,4,2,62,50,0,0
29799,-100,4,2,63,20,0,0
30049,-100,4,2,64,50,0,0
30549,-100,4,2,58,50,0,0
30799,-100,4,2,65,20,0,0
31049,-100,4,2,66,50,0,0
31299,-100,4,2,67,20,0,0
31549,-100,4,2,64,50,0,0
31799,-100,4,2,65,20,0,0
32049,-100,4,2,58,50,0,0
32549,-100,4,2,68,50,0,0
32799,-100,4,2,69,20,0,0
33049,-100,4,2,81,50,0,0
33299,-100,4,2,82,20,0,0
33549,-100,4,2,83,50,0,0
33799,-100,4,2,84,20,0,0
34049,495.867768595041,4,2,85,50,1,0
34049,-100,4,2,85,50,0,0
34296,-100,4,2,86,20,0,0
34544,-100,4,2,87,50,0,0
34792,-100,4,2,88,20,0,0
35040,-100,4,2,89,50,0,0
35288,-100,4,2,90,20,0,0
35536,-100,4,2,85,50,0,0
35784,-100,4,2,88,20,0,0
36032,483.870967741935,4,2,87,50,1,0
36032,-100,4,2,87,50,0,0
36515,-100,4,2,68,50,0,0
36999,-100,4,2,70,50,0,0
37549,500,4,2,66,40,1,0
37549,-100,4,2,66,40,0,0
37799,-100,4,2,63,20,0,0
38049,500,4,2,64,50,1,0
38049,-125,4,2,64,50,0,0
38299,-125,4,2,86,20,0,0
38549,-125,4,2,58,50,0,0
38799,-125,4,2,86,20,0,0
39049,-125,4,2,66,50,0,0
39299,-125,4,2,90,20,0,0
39549,-125,4,2,64,50,0,0
39799,-125,4,2,86,20,0,0
40049,-166.666666666667,4,2,91,30,0,0
40549,-166.666666666667,4,2,92,30,0,0
41049,-166.666666666667,4,2,93,30,0,0
41549,-166.666666666667,4,2,94,30,0,0
42049,-166.666666666667,4,2,95,30,0,0
42549,-166.666666666667,4,2,96,30,0,0
43049,-166.666666666667,4,2,94,30,0,0
43549,-166.666666666667,4,2,95,30,0,0
43799,-166.666666666667,4,2,86,20,0,0
44049,-100,4,2,49,50,0,0
44299,-100,4,2,50,50,0,0
44549,-100,4,2,51,50,0,0
44799,-100,4,2,52,50,0,0
45049,-100,4,2,53,50,0,0
45299,-100,4,2,54,50,0,0
45549,-100,4,2,51,50,0,0
45799,-100,4,2,52,50,0,0
46049,-100,4,2,54,50,0,0
46299,-100,4,2,52,50,0,0
46549,-100,4,2,55,50,0,0
46799,-100,4,2,56,50,0,0
47049,-100,4,2,50,50,0,0
47299,-100,4,2,57,50,0,0
47549,-100,4,2,56,50,0,0
47799,-100,4,2,55,50,0,0
48049,-100,4,2,49,50,0,0
48299,-100,4,2,50,50,0,0
48549,-100,4,2,51,50,0,0
48799,-100,4,2,52,50,0,0
49049,-100,4,2,53,50,0,0
49299,-100,4,2,54,50,0,0
49549,-100,4,2,51,50,0,0
49799,-100,4,2,52,50,0,0
50049,-100,4,2,54,50,0,0
50299,-100,4,2,52,50,0,0
50549,-100,4,2,55,50,0,0
50799,-100,4,2,56,50,0,0
51049,-100,4,2,50,50,0,0
51299,-100,4,2,57,50,0,0
51549,-100,4,2,56,50,0,0
51799,-100,4,2,55,50,0,0
52049,-100,4,2,99,50,0,0
58003,779.220779220779,4,2,2,80,1,0
64236,-55.5555555555556,4,2,2,80,0,0
93889,352.941176470588,4,2,1,80,1,0
97418,352.941176470588,4,2,3,80,1,0
127143,352.941176470588,4,2,4,80,1,0
132260,-166.666666666667,4,2,4,80,0,0
132790,-100,4,2,4,80,0,0
143201,-166.666666666667,4,2,4,80,0,0
143554,-83.3333333333333,4,2,4,80,0,0
144084,-100,4,2,4,80,0,0
149731,-125,4,2,1,70,0,0
151672,-125,4,2,4,70,0,0
151848,-100,4,2,4,80,0,0
161051,338.983050847458,4,2,5,80,1,0
165118,-125,4,2,1,80,0,0
166474,-100,4,2,5,80,0,0
171898,-125,4,2,5,80,0,0
172237,-83.3333333333333,4,2,5,80,0,0
172576,-100,4,2,5,80,0,0
177025,-100,4,2,1,80,0,0
177322,-100,4,2,5,80,0,0
188169,-125,4,2,5,80,0,0
201718,337.078651685393,4,2,5,80,1,0
235788,666.666666666667,4,2,6,80,1,0
235788,-55.5555555555556,4,2,6,80,0,0
263857,333.333333333333,4,2,7,80,1,0
275412,-100,4,2,7,5,0,0
275523,-100,4,2,7,80,0,0
306373,333.333333333333,4,2,8,80,1,0
326373,-100,4,2,1,80,0,0
327706,-100,4,2,8,80,0,0
331873,-100,4,2,7,80,0,0
332706,-100,4,2,8,80,0,0
344946,324.324324324324,4,2,3,80,1,0
377615,320.855614973262,4,2,9,80,1,0
409796,315.789473684211,4,2,10,80,1,0
446587,307.692307692308,4,2,3,80,1,0
450125,-133.333333333333,4,2,3,80,0,0
450279,-133.333333333333,4,2,3,25,0,0
450433,-133.333333333333,4,2,3,75,0,0
450587,-133.333333333333,4,2,3,50,0,0
450740,-133.333333333333,4,2,3,75,0,0
450894,-117.647058823529,4,2,2,50,0,0
451202,-117.647058823529,4,2,4,60,0,0
451510,-100,4,2,7,70,0,0
461587,-100,4,2,7,5,0,0
461663,-100,4,2,7,70,0,0
467433,-100,4,2,7,5,0,0
467510,-100,4,2,7,70,0,0
468740,-100,4,2,7,60,0,0
471433,-100,4,2,7,5,0,0
471510,-100,4,2,7,60,0,0
479967,294.117647058824,4,2,7,80,1,0
489378,-125,4,2,7,50,0,0
497614,-200,4,2,7,60,0,0
498128,-200,4,2,7,5,0,0
498202,-200,4,2,7,30,0,0
498717,-200,4,2,7,5,0,0
498790,-100,4,2,4,80,0,0
499011,-100,4,2,4,5,0,0
499084,-100,4,2,4,80,0,0
508422,-100,4,2,7,5,0,0
508496,-80,4,2,7,80,0,0
508643,-100,4,2,4,80,0,0
527062,-100,4,2,4,5,0,0
527099,-100,4,2,4,80,0,0
528092,-100,4,2,4,5,0,0
528128,-100,4,2,4,80,0,0
529378,-500,4,2,4,80,0,0
529819,-500,4,2,4,40,0,0

[Colours]
Combo1 : 128,255,128
Combo2 : 208,208,208
Combo3 : 240,208,83
Combo4 : 140,140,255

[HitObjects]
173,136,4049,6,0,P|162:174|185:236,1,83.5,8|8,0:0|0:0,0:0:0:0:
323,173,4549,2,0,L|218:178,1,83.5,8|8,0:0|0:0,0:0:0:0:
126,290,5049,2,0,L|209:293,1,83.5,8|8,0:0|0:0,0:0:0:0:
353,303,5549,1,8,0:0:0:0:
209,293,5799,1,8,0:0:0:0:
384,306,6049,6,0,P|397:256|384:221,1,83.5,8|8,0:0|0:0,0:0:0:0:
319,93,6549,2,0,P|309:133|322:172,1,83.5,8|8,0:0|0:0,0:0:0:0:
470,119,7049,2,0,L|373:130,1,83.5,8|8,0:0|0:0,0:0:0:0:
264,227,7549,1,8,0:0:0:0:
387,226,7799,1,8,0:0:0:0:
234,228,8049,6,0,L|137:217,1,83.5,8|8,0:0|0:0,0:0:0:0:
257,136,8549,1,8,0:0:0:0:
173,298,8799,1,8,0:0:0:0:
97,135,9049,2,0,L|179:144,1,83.5,8|8,0:0|0:0,0:0:0:0:
17,169,9549,1,8,0:0:0:0:
24,84,9799,1,8,0:0:0:0:
179,144,10049,6,0,L|97:135,1,83.5,8|8,0:0|0:0,0:0:0:0:
332,144,10549,2,0,L|415:135,1,83.5,8|8,0:0|0:0,0:0:0:0:
256,155,11049,1,8,0:0:0:0:
362,69,11299,1,8,0:0:0:0:
378,212,11549,1,8,0:0:0:0:
332,144,11799,1,8,0:0:0:0:
494,129,12049,6,0,P|504:175|483:223,1,83.5,8|8,0:0|0:0,0:0:0:0:
379,291,12549,2,0,P|368:251|378:211,1,83.5,8|8,0:0|0:0,0:0:0:0:
466,298,13049,1,8,0:0:0:0:
339,368,13299,1,8,0:0:0:0:
294,202,13549,2,0,L|377:210,1,83.5,8|8,0:0|0:0,0:0:0:0:
509,111,14049,6,0,L|414:121,1,83.5,8|8,0:0|0:0,0:0:0:0:
294,202,14549,2,0,L|389:212,1,83.5,8|8,0:0|0:0,0:0:0:0:
381,41,15049,2,0,L|286:51,1,83.5,8|8,0:0|0:0,0:0:0:0:
188,131,15549,1,8,0:0:0:0:
342,130,15799,1,8,0:0:0:0:
185,52,16049,6,0,P|174:91|188:131,1,83.5,8|8,0:0|0:0,0:0:0:0:
294,202,16549,1,8,0:0:0:0:
297,49,16799,1,8,0:0:0:0:
187,130,17049,2,0,L|276:120,1,83.5,8|8,0:0|0:0,0:0:0:0:
110,141,17549,1,8,0:0:0:0:
155,205,17799,1,8,0:0:0:0:
37,106,18049,6,0,P|31:159|50:198,1,83.5,8|8,0:0|0:0,0:0:0:0:
150,285,18549,2,0,P|162:245|154:204,1,83.5,8|8,0:0|0:0,0:0:0:0:
41,186,19049,1,8,0:0:0:0:
208,102,19299,1,8,0:0:0:0:
154,204,19549,1,8,0:0:0:0:
41,186,19799,1,8,0:0:0:0:
208,102,20049,6,0,B|250:83|293:107|293:107|336:129|381:104,1,167,10|10,0:0|0:0,0:0:0:0:
445,58,20799,1,8,0:0:0:0:
491,235,21049,2,0,P|437:184|342:224,1,167,10|8,0:0|0:0,0:0:0:0:
415,266,21799,1,8,0:0:0:0:
372,372,22049,6,0,L|353:191,1,167,10|10,0:0|0:0,0:0:0:0:
403,75,22799,1,10,0:0:0:0:
281,159,23049,2,0,P|233:164|190:145,1,83.5,10|10,0:0|0:0,0:0:0:0:
217,8,23549,2,0,P|238:44|247:85,1,83.5,10|10,0:0|0:0,0:0:0:0:
32,69,24049,6,0,P|77:34|172:85,1,167,10|10,0:0|0:0,0:0:0:0:
108,228,24799,1,10,0:0:0:0:
100,112,25049,2,0,L|107:202,1,83.5,10|10,0:0|0:0,0:0:0:0:
114,329,25549,1,10,0:0:0:0:
106,195,25799,1,10,0:0:0:0:
243,249,26049,6,0,P|291:254|339:224,1,83.5,10|10,0:0|0:0,0:0:0:0:
383,93,26549,2,0,P|354:132|356:188,1,83.5,10|10,0:0|0:0,0:0:0:0:
447,297,27049,2,0,P|427:252|377:226,1,83.5,10|10,0:0|0:0,0:0:0:0:
273,179,27549,1,10,0:0:0:0:
371,305,27799,1,10,0:0:0:0:
405,149,28049,6,0,P|331:123|273:177,1,167,10|10,0:0|0:0,0:0:0:0:
400,228,28799,1,10,0:0:0:0:
386,57,29049,2,0,B|341:41|296:60|296:60|246:80|200:57,1,167,10|10,0:0|0:0,0:0:0:0:
272,178,29799,1,10,0:0:0:0:
146,48,30049,6,0,L|162:234,1,167,10|10,0:0|0:0,0:0:0:0:
303,331,30799,1,10,0:0:0:0:
409,235,31049,2,0,P|355:231|324:253,1,83.5,10|10,0:0|0:0,0:0:0:0:
225,320,31549,2,0,P|262:337|302:330,1,83.5,10|10,0:0|0:0,0:0:0:0:
440,165,32049,6,0,P|361:171|331:244,1,167,10|10,0:0|0:0,0:0:0:0:
272,156,32799,1,10,0:0:0:0:
407,315,33049,2,0,P|417:275|408:234,1,83.5,10|10,0:0|0:0,0:0:0:0:
272,156,33549,1,10,0:0:0:0:
336,272,33799,1,10,0:0:0:0:
229,86,34049,6,0,L|137:95,1,83.5,10|10,0:0|0:0,0:0:0:0:
26,178,34544,2,0,L|109:185,1,83.5,10|10,0:0|0:0,0:0:0:0:
312,78,35040,2,0,L|223:86,1,83.5,10|10,0:0|0:0,0:0:0:0:
141,274,35536,2,0,L|230:266,1,83.5,10|10,0:0|0:0,0:0:0:0:
410,183,36032,6,0,P|369:227|435:322,2,167,10|10|10,0:0|0:0|0:0,0:0:0:0:
493,285,37549,2,0,L|485:372,1,83.5,10|10,0:0|0:0,0:0:0:0:
410,183,38049,6,0,L|402:109,1,66.8,10|10,0:0|0:0,0:0:0:0:
498,79,38549,2,0,L|506:153,1,66.8,10|10,0:0|0:0,0:0:0:0:
362,37,39049,2,0,P|416:27|448:40,1,66.8,10|10,0:0|0:0,0:0:0:0:
319,113,39549,2,0,P|285:116|254:105,1,66.8,10|8,0:0|0:0,0:0:0:0:
138,47,40049,6,0,P|166:106|155:144,1,100.199996942139,10|10,0:0|0:0,0:0:0:0:
19,170,41049,2,0,P|41:126|87:106,1,100.199996942139,10|10,0:0|0:0,0:0:0:0:
186,217,42049,6,0,P|136:218|97:189,2,100.199996942139,10|10|10,0:0|0:0|0:0,0:0:0:0:
253,166,43549,2,0,L|256:112,1,50.0999984710694,10|10,0:0|0:0,0:0:0:0:
389,102,44049,6,0,L|384:224,1,83.5,8|8,0:0|0:0,0:0:0:0:
317,306,44549,2,0,L|313:222,1,83.5,8|8,0:0|0:0,0:0:0:0:
416,320,45049,1,8,0:0:0:0:
313,222,45299,1,8,0:0:0:0:
464,154,45549,2,0,L|459:276,1,83.5,8|8,0:0|0:0,0:0:0:0:
317,306,46049,6,0,L|313:222,1,83.5,8|8,0:0|0:0,0:0:0:0:
164,351,46549,2,0,P|211:364|251:350,1,83.5,8|8,0:0|0:0,0:0:0:0:
311,190,47049,1,8,0:0:0:0:
207,285,47299,1,8,0:0:0:0:
319,357,47549,2,0,L|315:273,1,83.5,8|8,0:0|0:0,0:0:0:0:
213,122,48049,6,0,L|209:205,1,83.5,8|8,0:0|0:0,0:0:0:0:
316,274,48549,2,0,L|312:190,1,83.5,8|8,0:0|0:0,0:0:0:0:
183,61,49049,2,0,P|231:79|267:69,1,83.5,8|8,0:0|0:0,0:0:0:0:
424,98,49549,2,0,P|383:91|345:109,1,83.5,8|8,0:0|0:0,0:0:0:0:
479,247,50049,6,0,L|475:163,1,83.5,8|8,0:0|0:0,0:0:0:0:
420,16,50549,1,8,0:0:0:0:
396,170,50799,1,8,0:0:0:0:
502,85,51049,2,0,P|461:82|423:97,1,83.5,8|8,0:0|0:0,0:0:0:0:
316,157,51549,2,0,P|354:172|395:169,1,83.5,8|8,0:0|0:0,0:0:0:0:
266,93,52049,5,8,0:0:0:0:
209,126,62678,5,0,0:0:0:0:
209,126,64236,6,0,P|178:208|216:256,2,150.299995413208,4|0|8,0:0|0:0|0:0,0:0:0:0:
330,175,65405,1,0,0:0:0:0:
253,188,65600,1,8,0:0:0:0:
343,25,65795,2,0,L|329:182,1,150.299995413208,2|0,0:0|0:0,0:0:0:0:
451,317,66574,2,0,L|437:167,1,150.299995413208,8|0,0:0|0:0,0:0:0:0:
431,88,67158,1,0,0:0:0:0:
330,175,67353,6,0,B|295:189|257:171|257:171|216:152|168:177,1,150.299995413208,4|0,0:0|0:0,0:0:0:0:
205,356,68132,2,0,P|251:282|205:242,1,150.299995413208,2|0,0:0|0:0,0:0:0:0:
147,294,68717,1,0,0:0:0:0:
217,246,68912,1,0,0:0:0:0:
80,236,69106,1,8,0:0:0:0:
147,294,69301,1,0,0:0:0:0:
145,111,69691,2,0,L|151:185,1,75.1499977066041,2|8,0:0|0:0,0:0:0:0:
55,252,70080,2,0,L|61:177,1,75.1499977066041,0|8,0:0|0:0,0:0:0:0:
217,47,70470,6,0,B|253:31|292:50|292:50|332:70|381:44,1,150.299995413208,4|0,0:0|0:0,0:0:0:0:
441,20,71054,1,0,0:0:0:0:
355,140,71249,1,2,0:0:0:0:
428,102,71444,2,0,P|464:92|501:100,2,75.1499977066041,0|0|8,0:0|0:0|0:0,0:0:0:0:
442,271,72028,2,0,B|475:288|475:288|469:174,2,150.299995413208,0|0|2,0:0|0:0|0:0,0:0:0:0:
307,360,73197,1,0,0:0:0:0:
217,243,73587,6,0,P|268:200|364:236,1,150.299995413208,8|0,0:0|0:0,0:0:0:0:
199,346,74366,2,0,L|113:337,1,75.1499977066041,2|0,0:0|0:0,0:0:0:0:
276,356,74756,1,8,0:0:0:0:
199,346,74951,1,0,0:0:0:0:
307,360,75145,1,0,0:0:0:0:
190,194,75340,2,0,L|198:345,1,150.299995413208,6|0,0:0|0:0,0:0:0:0:
307,360,75925,1,8,0:0:0:0:
296,174,76119,2,0,L|303:270,1,75.1499977066041,0|8,0:0|0:0,0:0:0:0:
303,271,76412,1,8,0:0:0:0:
303,271,76509,1,8,0:0:0:0:
474,97,76704,6,0,P|386:75|334:129,2,150.299995413208,4|0|2,0:0|0:0|0:0,0:0:0:0:
443,229,77873,1,0,0:0:0:0:
412,149,78067,1,8,0:0:0:0:
451,251,78262,2,0,P|376:257|302:270,1,150.299995413208
105,175,79041,2,0,P|179:187|253:193,1,150.299995413208,10|0,0:0|0:0,0:0:0:0:
370,36,79821,6,0,P|298:44|264:108,1,150.299995413208,4|0,0:0|0:0,0:0:0:0:
343,107,80405,1,0,0:0:0:0:
358,205,80600,2,0,L|344:111,1,75.1499977066041,10|0,0:0|0:0,0:0:0:0:
458,65,80990,2,0,L|446:139,1,75.1499977066041
397,272,81379,2,0,P|345:283|316:271,1,75.1499977066041,0|8,0:0|0:0,0:0:0:0:
254,193,81769,1,0,0:0:0:0:
358,205,81964,1,0,0:0:0:0:
239,291,82158,2,0,L|250:216,1,75.1499977066041,10|8,0:0|0:0,0:0:0:0:
346,130,82548,2,0,L|358:205,1,75.1499977066041,0|8,0:0|0:0,0:0:0:0:
234,320,82938,6,0,P|148:338|95:279,2,150.299995413208,4|0|10,0:0|0:0|0:0,0:0:0:0:
132,220,84106,1,0,0:0:0:0:
104,301,84301,1,0,0:0:0:0:
235,321,84496,2,0,L|216:156,1,150.299995413208,10|0,0:0|0:0,0:0:0:0:
201,77,85080,1,0,0:0:0:0:
59,141,85275,2,0,P|135:142|162:124,1,75.1499977066041,10|0,0:0|0:0,0:0:0:0:
296,55,85665,2,0,P|259:48|222:57,1,75.1499977066041,8|0,0:0|0:0,0:0:0:0:
374,137,86054,5,6,0:0:0:0:
256,192,86249,12,0,88392,0:0:0:0:
149,191,97418,6,0,B|185:169|234:191|234:191|275:209|309:189,1,167,4|8,0:0|0:0,0:0:0:0:
188,268,97947,1,0,0:0:0:0:
334,176,98123,2,0,L|331:269,1,83.5,2|0,0:0|0:0,0:0:0:0:
200,139,98476,2,0,L|197:55,1,83.5,8|0,0:0|0:0,0:0:0:0:
412,162,98829,6,0,P|353:180|315:166,1,83.5,2|0,0:0|0:0,0:0:0:0:
197,55,99182,2,0,P|238:51|275:68,1,83.5,8|0,0:0|0:0,0:0:0:0:
129,208,99535,2,0,L|126:124,1,83.5,2|0,0:0|0:0,0:0:0:0:
292,87,99888,1,8,0:0:0:0:
122,47,100065,1,0,0:0:0:0:
132,242,100241,6,0,P|183:245|213:229,1,83.5,2|0,0:0|0:0,0:0:0:0:
49,87,100594,2,0,L|52:171,1,83.5,8|0,0:0|0:0,0:0:0:0:
56,318,100947,1,2,0:0:0:0:
51,170,101123,1,0,0:0:0:0:
57,347,101300,1,8,0:0:0:0:
201,254,101476,1,0,0:0:0:0:
355,354,101653,6,0,P|298:360|268:346,1,83.5,2|0,0:0|0:0,0:0:0:0:
157,186,102006,2,0,P|196:174|237:182,1,83.5,8|0,0:0|0:0,0:0:0:0:
366,274,102359,1,2,0:0:0:0:
201,254,102535,1,0,0:0:0:0:
362,191,102712,1,8,0:0:0:0:
363,211,102800,1,8,0:0:0:0:
364,232,102888,1,8,0:0:0:0:
365,253,102976,1,8,0:0:0:0:
366,274,103065,6,0,L|196:253,1,167,4|8,0:0|0:0,0:0:0:0:
119,119,103594,1,0,0:0:0:0:
250,59,103770,2,0,P|261:137|248:163,1,83.5,2|0,0:0|0:0,0:0:0:0:
109,198,104123,2,0,P|104:156|119:117,1,83.5,8|0,0:0|0:0,0:0:0:0:
317,97,104476,5,2,0:0:0:0:
184,167,104653,1,0,0:0:0:0:
80,46,104829,2,0,L|184:35,1,83.5,8|0,0:0|0:0,0:0:0:0:
343,101,105182,2,0,L|259:92,1,83.5,2|0,0:0|0:0,0:0:0:0:
434,40,105535,1,8,0:0:0:0:
425,195,105712,1,0,0:0:0:0:
439,14,105888,6,0,L|355:22,1,83.5,2|0,0:0|0:0,0:0:0:0:
263,177,106241,2,0,L|346:185,1,83.5,8|0,0:0|0:0,0:0:0:0:
502,83,106594,1,2,0:0:0:0:
343,101,106770,1,0,0:0:0:0:
446,282,106947,1,8,0:0:0:0:
435,166,107123,1,0,0:0:0:0:
259,291,107300,5,2,0:0:0:0:
435,166,107477,1,8,0:1:0:0:
456,376,107653,1,8,0:1:0:0:
435,166,107829,2,0,L|439:218,1,41.75,8|8,0:1|0:1,0:0:0:0:
446,282,108006,1,2,0:0:0:0:
495,104,108182,5,8,0:1:0:0:
472,88,108270,1,0,0:0:0:0:
445,80,108359,1,2,0:0:0:0:
417,81,108447,1,8,0:1:0:0:
391,91,108535,1,8,0:1:0:0:
370,108,108623,1,8,0:1:0:0:
354,131,108712,6,0,B|318:151|277:132|277:132|231:111|192:131,1,167,4|8,0:0|0:0,0:0:0:0:
304,218,109241,1,0,0:0:0:0:
197,46,109418,2,0,L|192:145,1,83.5,2|0,0:0|0:0,0:0:0:0:
308,301,109770,2,0,L|303:217,1,83.5,8|0,0:0|0:0,0:0:0:0:
160,352,110123,6,0,P|217:364|246:355,1,83.5,2|0,0:0|0:0,0:0:0:0:
383,212,110476,2,0,P|342:205|302:217,1,83.5,8|0,0:0|0:0,0:0:0:0:
465,295,110829,1,2,0:0:0:0:
454,118,111006,1,0,0:0:0:0:
303,216,111182,1,8,0:0:0:0:
411,212,111359,1,0,0:0:0:0:
247,133,111535,6,0,L|156:141,1,83.5,2|0,0:0|0:0,0:0:0:0:
15,259,111888,2,0,L|98:266,1,83.5,8|0,0:0|0:0,0:0:0:0:
19,81,112241,2,0,P|-2:153|12:182,1,83.5,2|0,0:0|0:0,0:0:0:0:
109,57,112594,1,8,0:0:0:0:
9,180,112770,1,0,0:0:0:0:
172,289,112947,6,0,P|173:247|152:212,1,83.5,2|0,0:0|0:0,0:0:0:0:
52,373,113300,2,0,P|93:374|128:353,1,83.5,8|0,0:0|0:0,0:0:0:0:
325,309,113653,2,0,P|283:310|248:289,1,83.5,2|0,0:0|0:0,0:0:0:0:
97,162,114006,1,8,0:0:0:0:
113,149,114094,1,8,0:0:0:0:
132,141,114182,1,8,0:0:0:0:
153,139,114270,1,8,0:0:0:0:
174,141,114359,6,0,P|244:136|348:120,1,167,4|8,0:0|0:0,0:0:0:0:
303,215,114888,1,0,0:0:0:0:
225,34,115065,2,0,P|282:32|325:35,1,83.5,2|0,0:0|0:0,0:0:0:0:
149,62,115417,1,8,0:0:0:0:
308,33,115594,1,0,0:0:0:0:
169,224,115770,6,0,L|174:132,1,83.5,2|0,0:0|0:0,0:0:0:0:
312,57,116123,2,0,L|316:140,1,83.5,8|0,0:0|0:0,0:0:0:0:
210,287,116476,2,0,P|150:297|109:272,1,83.5,2|0,0:0|0:0,0:0:0:0:
303,215,116829,1,8,0:0:0:0:
130,289,117006,1,0,0:0:0:0:
313,376,117182,6,0,L|308:285,1,83.5,2|0,0:0|0:0,0:0:0:0:
173,140,117535,2,0,L|168:223,1,83.5,8|0,0:0|0:0,0:0:0:0:
308,292,117888,1,2,0:0:0:0:
130,289,118065,1,0,0:0:0:0:
303,215,118241,1,8,0:0:0:0:
190,348,118417,1,0,0:0:0:0:
173,140,118594,6,0,L|168:223,1,83.5,2|8,0:0|0:1,0:0:0:0:
385,168,118947,2,0,L|380:84,1,83.5,2|8,0:0|0:1,0:0:0:0:
377,14,119212,1,8,0:0:0:0:
377,14,119300,1,8,0:0:0:0:
177,70,119476,2,0,L|173:137,1,41.75,8|8,0:1|0:1,0:0:0:0:
276,198,119653,1,2,0:0:0:0:
274,177,119741,1,8,0:1:0:0:
273,156,119829,1,8,0:1:0:0:
272,135,119917,1,8,0:1:0:0:
271,114,120006,5,12,0:0:0:0:
196,108,129966,6,0,L|189:215,1,83.5,6|0,0:0|0:0,0:0:0:0:
326,317,130319,2,0,L|320:233,1,83.5,2|2,0:0|0:0,0:0:0:0:
178,296,130672,1,8,0:0:0:0:
320,233,130848,1,8,0:0:0:0:
118,233,131025,1,8,0:0:0:0:
351,221,131201,1,8,0:0:0:0:
169,379,131378,5,6,0:0:0:0:
169,379,132260,2,0,P|162:329|185:282,1,100.199996942139
407,346,132790,6,0,B|372:326|324:346|324:346|274:366|236:333,1,167,6|8,0:0|0:0,0:0:0:0:
255,180,133319,2,0,P|271:227|245:274,1,83.5,0|2,0:0|0:0,0:0:0:0:
118,329,133672,2,0,P|150:291|204:290,1,83.5,2|8,0:0|0:0,0:0:0:0:
28,329,134025,1,0,0:0:0:0:
116,138,134201,6,0,L|110:236,1,83.5,2|0,0:0|0:0,0:0:0:0:
30,369,134554,2,0,L|24:285,1,83.5,8|0,0:0|0:0,0:0:0:0:
47,80,134907,2,0,P|108:50|202:127,1,167,2|8,0:0|0:0,0:0:0:0:
40,169,135437,1,8,0:0:0:0:
280,151,135613,6,0,P|225:137|95:142,1,167,6|8,0:0|0:0,0:0:0:0:
24,285,136143,2,0,P|107:288|188:271,1,167,0|2,0:0|0:0,0:0:0:0:
303,115,136672,2,0,P|279:172|290:216,1,83.5,8|0,0:0|0:0,0:0:0:0:
419,333,137025,6,0,P|445:253|374:179,1,167,2|8,0:0|0:0,0:0:0:0:
138,139,137554,2,0,P|221:132|310:113,1,167,0|2,0:0|0:0,0:0:0:0:
215,261,138084,1,8,0:0:0:0:
330,111,138260,1,0,0:0:0:0:
330,111,138348,1,8,0:1:0:0:
330,111,138437,5,2,0:0:0:0:
256,44,138613,1,2,0:0:0:0:
307,316,138790,1,12,0:0:0:0:
138,139,138966,2,0,L|228:127,1,83.5,0|2,0:0|0:0,0:0:0:0:
97,297,139319,2,0,P|80:247|93:210,1,83.5,2|8,0:0|0:0,0:0:0:0:
197,354,139672,1,0,0:0:0:0:
197,354,139760,1,8,0:1:0:0:
197,354,139848,5,2,0:0:0:0:
282,294,140025,1,2,0:0:0:0:
12,355,140201,1,12,0:0:0:0:
175,180,140378,2,0,L|185:279,1,83.5,0|2,0:0|0:0,0:0:0:0:
401,197,140731,2,0,L|391:98,1,83.5,2|8,0:0|0:0,0:0:0:0:
408,289,141084,1,0,0:0:0:0:
450,61,141260,6,0,P|384:36|315:116,1,167,2|8,0:0|0:0,0:0:0:0:
175,180,141790,2,0,P|233:191|261:190,1,83.5,0|2,0:0|0:0,0:0:0:0:
479,147,142143,2,0,P|437:147|396:157,1,83.5,2|8,0:0|0:0,0:0:0:0:
273,312,142495,1,0,0:0:0:0:
460,330,142672,5,8,0:0:0:0:
493,307,142760,1,8,0:0:0:0:
496,267,142848,1,8,0:0:0:0:
466,239,142936,1,8,0:0:0:0:
426,246,143024,1,8,0:0:0:0:
273,312,143201,2,0,P|245:317|190:336,1,75.1499977066041,4|0,0:0|0:0,0:0:0:0:
100,328,143554,6,0,P|164:332|243:326,1,100.199996942139,6|8,0:0|0:0,0:0:0:0:
18,291,143907,1,0,0:0:0:0:
36,46,144084,6,0,L|25:222,1,167,6|8,0:0|0:0,0:0:0:0:
200,331,144613,2,0,L|195:248,1,83.5,0|2,0:0|0:0,0:0:0:0:
115,38,144966,2,0,P|74:32|28:51,1,83.5,2|8,0:0|0:0,0:0:0:0:
197,124,145319,1,0,0:0:0:0:
25,212,145495,6,0,L|18:102,1,83.5,2|0,0:0|0:0,0:0:0:0:
202,40,145848,2,0,L|196:123,1,83.5,8|0,0:0|0:0,0:0:0:0:
25,212,146201,1,2,0:0:0:0:
243,188,146378,1,2,0:0:0:0:
117,62,146554,2,0,L|122:145,1,83.5,8|0,0:0|0:0,0:0:0:0:
228,322,146907,6,0,B|266:337|310:314|310:314|357:287|399:314,1,167,6|8,0:0|0:0,0:0:0:0:
450,131,147437,1,0,0:0:0:0:
260,169,147613,2,0,P|249:209|262:251,1,83.5,2|2,0:0|0:0,0:0:0:0:
454,350,147966,2,0,P|465:310|455:270,1,83.5,8|0,0:0|0:0,0:0:0:0:
260,169,148319,5,8,0:0:0:0:
388,308,148495,1,2,0:0:0:0:
450,131,148672,1,12,0:0:0:0:
233,177,148848,1,0,0:0:0:0:
405,205,149025,1,2,0:0:0:0:
207,97,149201,1,2,0:0:0:0:
445,47,149378,2,0,L|451:160,1,83.5,8|2,0:0|0:0,0:0:0:0:
239,94,149731,5,2,0:0:0:0:
239,94,150437,2,0,P|295:94|338:46,2,100.2
97,38,151143,5,2,0:0:0:0:
97,38,151672,2,0,L|106:90,1,33.4,2|2,0:0|0:0,0:0:0:0:
165,126,151848,2,0,P|86:115|54:152,2,125.25,6|0|0,0:0|0:0|0:0,0:0:0:0:
40,236,152554,6,0,P|118:214|214:210,1,167,4|2,0:0|0:0,0:0:0:0:
330,267,153084,1,2,0:0:0:0:
133,303,153260,1,8,0:0:0:0:
319,183,153437,1,8,0:0:0:0:
209,342,153613,1,8,0:0:0:0:
395,218,153790,1,8,0:0:0:0:
207,106,153966,5,6,0:0:0:0:
423,94,154142,1,2,0:0:0:0:
335,350,154319,2,0,P|332:290|328:250,1,83.5
319,183,154584,1,0,0:0:0:0:
319,183,154672,1,0,0:0:0:0:
206,260,154848,1,0,0:0:0:0:
457,206,155025,1,8,0:0:0:0:
432,173,155113,1,8,0:0:0:0:
394,156,155201,1,8,0:0:0:0:
353,160,155289,1,8,0:0:0:0:
318,183,155377,5,6,0:0:0:0:
195,117,164949,5,0,0:0:0:0:
195,117,165118,2,0,P|165:182|200:241,1,133.6,2|0,0:0|0:0,0:0:0:0:
272,91,165627,1,0,0:0:0:0:
272,91,166474,6,0,B|311:106|355:87|355:87|398:69|437:89,1,167,6|8,0:0|0:0,0:0:0:0:
303,254,166983,2,0,P|302:208|334:154,1,83.5,0|2,0:0|0:0,0:0:0:0:
504,147,167322,2,0,P|464:170|401:170,1,83.5,2|8,0:0|0:0,0:0:0:0:
316,21,167661,1,0,0:0:0:0:
316,21,167745,1,0,0:0:0:0:
316,21,167830,6,0,P|355:44|387:98,1,83.5,2|0,0:0|0:0,0:0:0:0:
485,320,168169,1,8,0:0:0:0:
346,176,168339,2,0,P|428:175|450:187,1,83.5,0|2,0:0|0:0,0:0:0:0:
325,336,168678,2,0,P|284:343|243:334,1,83.5,2|8,0:0|0:0,0:0:0:0:
427,174,169017,1,0,0:0:0:0:
427,174,169101,1,0,0:0:0:0:
427,174,169186,6,0,L|435:257,1,83.5,2|0,0:0|0:0,0:0:0:0:
301,101,169525,1,8,0:0:0:0:
243,334,169695,2,0,P|190:345|159:335,1,83.5,0|2,0:0|0:0,0:0:0:0:
30,182,170034,2,0,P|70:170|110:179,1,83.5,2|8,0:0|0:0,0:0:0:0:
33,58,170373,1,0,0:0:0:0:
33,58,170457,1,0,0:0:0:0:
33,57,170542,6,0,P|133:63|222:109,1,167,2|8,0:0|0:0,0:0:0:0:
270,268,171051,1,0,0:0:0:0:
61,324,171220,2,0,L|48:227,1,83.5,2|2,0:0|0:0,0:0:0:0:
194,90,171559,2,0,L|182:172,1,83.5,8|8,0:0|0:0,0:0:0:0:
181,254,171813,1,8,0:0:0:0:
181,254,171898,6,0,P|238:280|279:262,1,100.2,2|0,0:0|0:0,0:0:0:0:
359,242,172237,6,0,P|335:323|270:269,1,200.399993884278,12|0,0:0|0:0,0:0:0:0:
436,221,172745,1,2,0:0:0:0:
190,177,172915,1,8,0:0:0:0:
378,76,173084,6,0,P|363:182|358:248,1,167,6|2,0:0|0:0,0:0:0:0:
512,317,173593,2,0,P|511:276|500:213,1,83.5,8|0,0:0|0:0,0:0:0:0:
285,290,173932,2,0,P|321:309|381:331,1,83.5,2|2,0:0|0:0,0:0:0:0:
416,83,174271,2,0,P|380:104|331:145,1,83.5,8|2,0:0|0:0,0:0:0:0:
143,250,174610,6,0,P|214:260|273:278,1,125.25,6|0,0:0|0:0,0:0:0:0:
285,290,174949,1,0,0:0:0:0:
489,89,175118,2,0,P|418:99|358:117,1,125.25,6|0,0:0|0:0,0:0:0:0:
347,129,175457,1,0,0:0:0:0:
504,235,175627,1,6,0:0:0:0:
273,348,175796,6,0,P|261:308|269:267,1,83.5,0|2,0:0|0:0,0:0:0:0:
431,138,176135,1,6,0:0:0:0:
345,304,176305,1,2,0:0:0:0:
342,95,176474,1,2,0:0:0:0:
425,281,176644,2,0,P|367:298|333:306,1,83.5,6|2,0:0|0:0,0:0:0:0:
146,285,176983,2,0,P|163:280|174:279,6,20.875,8|2|2|2|2|2|2,0:0|0:0|0:0|0:0|0:0|0:0|0:0,0:0:0:0:
75,315,177322,6,0,P|35:260|88:162,1,167,6|8,0:0|0:0,0:0:0:0:
240,124,177830,2,0,L|228:221,1,83.5,0|2,0:0|0:0,0:0:0:0:
57,100,178169,2,0,L|46:17,1,83.5,2|8,0:0|0:0,0:0:0:0:
150,222,178508,1,0,0:0:0:0:
150,222,178593,1,0,0:0:0:0:
150,222,178678,6,0,P|191:222|229:205,1,83.5,2|0,0:0|0:0,0:0:0:0:
386,192,179017,1,8,0:0:0:0:
252,282,179186,2,0,P|227:238|234:193,1,83.5,0|2,0:0|0:0,0:0:0:0:
439,134,179525,2,0,P|414:177|370:193,1,83.5,2|8,0:0|0:0,0:0:0:0:
230,31,179864,1,0,0:0:0:0:
230,31,179949,1,0,0:0:0:0:
230,31,180034,6,0,P|279:31|315:61,1,83.5,2|0,0:0|0:0,0:0:0:0:
447,217,180373,1,8,0:0:0:0:
252,282,180542,2,0,L|260:198,1,83.5,0|2,0:0|0:0,0:0:0:0:
439,134,180881,2,0,L|447:217,1,83.5,2|8,0:0|0:0,0:0:0:0:
280,34,181220,1,0,0:0:0:0:
280,34,181305,1,0,0:0:0:0:
280,34,181389,6,0,L|260:198,1,167,2|8,0:0|0:0,0:0:0:0:
342,357,181898,1,0,0:0:0:0:
336,176,182067,2,0,P|295:178|259:199,1,83.5,2|2,0:0|0:0,0:0:0:0:
163,342,182406,2,0,P|198:363|239:364,1,83.5,0|2,0:0|0:0,0:0:0:0:
356,96,182745,6,0,P|274:99|178:165,1,167,6|8,0:0|0:0,0:0:0:0:
403,220,183254,2,0,P|336:175|258:199,1,167,6|2,0:0|0:0,0:0:0:0:
365,314,183762,1,8,0:0:0:0:
272,82,183932,6,0,P|218:126|276:201,1,167,6|8,0:0|0:0,0:0:0:0:
407,126,184440,2,0,P|357:132|323:157,1,83.5,0|2,0:0|0:0,0:0:0:0:
483,268,184779,2,0,L|475:166,1,83.5,8|0,0:0|0:0,0:0:0:0:
413,42,185118,2,0,L|406:125,1,83.5,8|0,0:0|0:0,0:0:0:0:
365,314,185457,6,0,B|329:335|285:313|285:313|235:289|189:321,1,167,6|0,0:0|0:0,0:0:0:0:
129,358,185966,1,2,0:0:0:0:
115,191,186135,2,0,P|124:289|129:382,1,167,8|0,0:0|0:0,0:0:0:0:
42,143,186644,6,0,P|94:109|196:157,1,167,0|8,0:0|0:0,0:0:0:0:
335,179,187152,2,0,P|274:184|245:195,1,83.5,2|2,0:0|0:0,0:0:0:0:
72,212,187491,2,0,P|112:223|153:224,1,83.5,8|0,0:0|0:0,0:0:0:0:
237,77,187830,2,0,P|207:106|185:141,1,83.5,0|2,0:0|0:0,0:0:0:0:
304,283,188169,6,0,P|308:220|253:190,1,133.6,6|0,0:0|0:0,0:0:0:0:
232,332,188678,1,0,0:0:0:0:
232,332,189186,1,0,0:0:0:0:
310,366,189356,6,0,L|469:345,1,133.6
232,332,189864,2,0,L|99:314,1,133.6
304,283,190373,1,0,0:0:0:0:
170,289,190542,1,0,0:0:0:0:
335,282,190712,1,0,0:0:0:0:
248,55,190881,5,6,0:0:0:0:
256,192,190966,12,10,192067,0:0:0:0:
160,88,201718,6,0,L|153:191,1,83.5,6|0,0:0|0:0,0:0:0:0:
396,302,202055,2,0,L|390:218,1,83.5,8|0,0:0|0:0,0:0:0:0:
112,237,202392,2,0,P|160:249|202:233,1,83.5,2|0,0:0|0:0,0:0:0:0:
427,151,202729,2,0,P|386:141|347:153,1,83.5,8|0,0:0|0:0,0:0:0:0:
232,325,203066,5,2,0:0:0:0:
364,311,203234,1,0,0:0:0:0:
191,239,203403,1,8,0:0:0:0:
390,218,203571,1,0,0:0:0:0:
154,171,203740,1,2,0:0:0:0:
389,126,203909,1,0,0:0:0:0:
303,354,204077,1,8,0:0:0:0:
279,142,204246,1,0,0:0:0:0:
441,294,204414,6,0,P|404:313|363:310,1,83.5,2|0,0:0|0:0,0:0:0:0:
188,90,204751,2,0,P|229:90|264:112,1,83.5,8|0,0:0|0:0,0:0:0:0:
148,268,205088,2,0,L|154:162,1,83.5,2|0,0:0|0:0,0:0:0:0:
386,135,205425,2,0,L|390:218,1,83.5,8|0,0:0|0:0,0:0:0:0:
152,184,205762,5,2,0:0:0:0:
311,214,205931,1,0,0:0:0:0:
152,184,206100,1,8,0:0:0:0:
386,135,206268,1,0,0:0:0:0:
256,28,206437,2,0,L|265:130,1,83.5,2|0,0:0|0:0,0:0:0:0:
109,340,206774,2,0,L|116:256,1,83.5,8|0,0:0|0:0,0:0:0:0:
123,183,207026,1,8,0:0:0:0:
123,183,207111,5,6,0:0:0:0:
262,306,207279,1,0,0:0:0:0:
168,114,207448,2,0,P|116:99|74:114,1,83.5,8|0,0:0|0:0,0:0:0:0:
310,226,207785,2,0,P|350:232|389:217,1,83.5,2|0,0:0|0:0,0:0:0:0:
229,183,208122,1,8,0:0:0:0:
413,25,208291,6,0,L|402:202,1,167
239,347,208796,2,0,L|233:260,1,83.5,8|0,0:0|0:0,0:0:0:0:
402,360,209133,2,0,P|335:376|310:362,1,83.5,2|0,0:0|0:0,0:0:0:0:
227,153,209470,1,8,0:0:0:0:
355,300,209639,1,0,0:0:0:0:
134,294,209807,6,0,L|140:207,1,83.5,2|0,0:0|0:0,0:0:0:0:
402,191,210144,1,8,0:0:0:0:
233,263,210313,1,0,0:0:0:0:
311,45,210482,2,0,L|316:128,1,83.5,2|0,0:0|0:0,0:0:0:0:
209,20,210819,1,8,0:0:0:0:
402,191,210987,6,0,P|321:153|248:227,1,167,4|2,0:0|0:0,0:0:0:0:
419,278,211493,1,8,0:0:0:0:
237,342,211661,1,0,0:0:0:0:
237,342,211746,1,0,0:0:0:0:
237,342,211830,2,0,P|283:342|331:317,1,83.5,2|8,0:0|0:0,0:0:0:0:
402,191,212167,2,0,P|363:175|321:176,1,83.5,8|0,0:0|0:0,0:0:0:0:
426,361,212504,6,0,L|418:266,1,83.5,6|0,0:0|0:0,0:0:0:0:
240,179,212841,2,0,L|232:262,1,83.5,8|0,0:0|0:0,0:0:0:0:
411,361,213178,2,0,L|418:277,1,83.5,2|0,0:0|0:0,0:0:0:0:
225,179,213515,2,0,L|232:262,1,83.5,8|0,0:0|0:0,0:0:0:0:
402,191,213852,5,2,0:0:0:0:
232,262,214021,1,0,0:0:0:0:
422,186,214189,1,8,0:0:0:0:
225,179,214358,1,0,0:0:0:0:
417,277,214526,1,2,0:0:0:0:
221,342,214695,1,0,0:0:0:0:
417,277,214864,1,8,0:0:0:0:
225,179,215032,1,0,0:0:0:0:
447,288,215201,6,0,L|438:182,1,83.5,2|0,0:0|0:0,0:0:0:0:
232,95,215538,2,0,L|224:178,1,83.5,8|0,0:0|0:0,0:0:0:0:
512,117,215875,2,0,P|454:113|427:133,1,83.5,2|0,0:0|0:0,0:0:0:0:
136,252,216212,2,0,P|173:269|214:261,1,83.5,8|0,0:0|0:0,0:0:0:0:
309,158,216549,5,2,0:0:0:0:
304,348,216718,1,0,0:0:0:0:
311,136,216886,1,8,0:0:0:0:
403,327,217055,1,0,0:0:0:0:
223,178,217223,2,0,L|233:86,1,83.5,2|0,0:0|0:0,0:0:0:0:
214,261,217560,2,0,P|251:277|291:269,1,83.5,8|0,0:0|0:0,0:0:0:0:
361,227,217813,1,8,0:0:0:0:
361,227,217897,5,6,0:0:0:0:
232,94,218066,1,0,0:0:0:0:
404,66,218234,2,0,L|394:149,1,83.5,8|0,0:0|0:0,0:0:0:0:
214,261,218571,2,0,L|223:177,1,83.5,2|0,0:0|0:0,0:0:0:0:
394,149,218909,1,8,0:0:0:0:
207,88,219077,1,0,0:0:0:0:
420,147,219246,5,2,0:0:0:0:
193,182,219414,1,0,0:0:0:0:
450,144,219583,1,8,0:0:0:0:
292,268,219751,2,0,L|300:210,1,41.75,0|8,0:0|0:0,0:0:0:0:
341,327,219920,1,2,0:0:0:0:
313,340,220004,1,0,0:0:0:0:
282,342,220088,1,0,0:0:0:0:
252,332,220173,1,0,0:0:0:0:
229,311,220257,1,0,0:0:0:0:
229,311,220594,5,6,0:0:0:0:
418,268,220762,1,2,0:0:0:0:
229,311,220931,1,8,0:0:0:0:
229,311,221268,5,2,0:0:0:0:
285,118,221437,1,2,0:0:0:0:
229,311,221605,1,8,0:0:0:0:
418,268,221774,1,2,0:0:0:0:
193,201,221942,5,12,0:0:0:0:
408,160,222111,1,2,0:0:0:0:
229,311,222279,1,8,0:0:0:0:
418,268,222448,1,2,0:0:0:0:
418,268,222532,1,8,0:0:0:0:
418,268,222616,1,8,0:0:0:0:
295,98,222785,1,2,0:0:0:0:
318,307,222953,1,8,0:0:0:0:
209,111,223122,1,4,0:0:0:0:
209,111,223459,5,2,0:0:0:0:
218,328,223628,1,8,0:0:0:0:
295,98,223796,1,2,0:0:0:0:
323,326,223965,1,8,0:0:0:0:
203,93,224133,1,2,0:0:0:0:
207,344,224302,1,8,0:0:0:0:
418,202,224470,6,0,B|388:181|335:205|335:205|283:229|231:194,1,167,6|0,0:0|0:0,0:0:0:0:
175,80,224976,1,8,0:0:0:0:
379,64,225144,1,0,0:0:0:0:
144,83,225482,5,14,0:0:0:0:
403,60,225650,1,14,0:0:0:0:
123,292,235788,6,0,P|182:316|252:267,1,150.299995413208,6|0,0:0|0:0,0:0:0:0:
277,176,236288,1,2,0:0:0:0:
165,160,236454,2,0,L|178:250,1,75.1499977066041,8|2,0:0|0:0,0:0:0:0:
152,80,236788,1,2,0:0:0:0:
225,33,236954,2,0,B|260:17|298:33|298:33|333:52|388:33,1,150.299995413208
492,160,237454,2,0,P|416:118|354:158,1,150.299995413208,2|8,0:0|0:0,0:0:0:0:
331,261,237954,1,2,0:0:0:0:
402,318,238121,2,0,L|482:310,1,75.1499977066041,2|2,0:0|0:0,0:0:0:0:
299,257,238454,6,0,L|224:249,1,75.1499977066041,2|0,0:0|0:0,0:0:0:0:
318,347,238788,1,0,0:0:0:0:
219,336,238954,2,0,L|144:328,1,75.1499977066041,2|8,0:0|0:0,0:0:0:0:
165,160,239288,2,0,L|239:167,1,75.1499977066041,2|2,0:0|0:0,0:0:0:0:
101,214,239621,2,0,P|82:152|130:82,1,150.299995413208,0|2,0:0|0:0,0:0:0:0:
277,63,240121,1,2,0:0:0:0:
165,160,240288,1,0,0:0:0:0:
137,9,240454,2,0,L|223:15,1,75.1499977066041,8|0,0:0|0:0,0:0:0:0:
351,57,240788,2,0,L|276:62,1,75.1499977066041,2|2,0:0|0:0,0:0:0:0:
422,243,241121,6,0,P|440:143|405:98,1,150.299995413208,2|0,0:0|0:0,0:0:0:0:
353,180,241621,1,2,0:0:0:0:
400,319,241788,2,0,P|468:308|487:287,2,75.1499977066041,8|2|2,0:0|0:0|0:0,0:0:0:0:
353,180,242288,1,0,0:0:0:0:
416,107,242454,2,0,P|446:173|422:243,1,150.299995413208,2|2,0:0|0:0,0:0:0:0:
328,270,242954,1,2,0:0:0:0:
232,260,243121,2,0,L|142:250,2,75.1499977066041,8|2|0,0:0|0:0|0:0,0:0:0:0:
328,270,243621,1,2,0:0:0:0:
131,248,243788,6,0,B|112:217|127:175|127:175|142:132|122:99,1,150.299995413208,2|0,0:0|0:0,0:0:0:0:
21,65,244288,2,0,P|11:101|18:138,1,75.1499977066041,2|8,0:0|0:0,0:0:0:0:
156,178,244621,2,0,P|162:141|153:105,1,75.1499977066041,2|0,0:0|0:0,0:0:0:0:
21,65,244954,1,2,0:0:0:0:
149,14,245121,2,0,L|282:19,1,75.1499977066041,2|0,0:0|0:0,0:0:0:0:
392,67,245454,2,0,L|316:69,1,75.1499977066041,2|0,0:0|0:0,0:0:0:0:
243,97,245704,1,0,0:0:0:0:
243,97,245788,1,8,0:0:0:0:
357,149,245954,1,0,0:0:0:0:
244,169,246121,2,0,P|235:132|243:96,1,75.1499977066041,2|0,0:0|0:0,0:0:0:0:
314,254,246454,6,0,P|245:280|175:255,1,150.299995413208,2|0,0:0|0:0,0:0:0:0:
244,169,246954,1,2,0:0:0:0:
404,204,247121,1,8,0:0:0:0:
317,329,247288,2,0,L|313:231,1,75.1499977066041,2|2,0:0|0:0,0:0:0:0:
413,53,247621,2,0,L|404:203,1,150.299995413208
314,353,248121,2,0,B|283:367|249:347|249:347|200:325|163:348,1,150.299995413208,2|8,0:0|0:0,0:0:0:0:
172,261,248621,1,0,0:0:0:0:
87,367,248788,2,0,P|84:326|98:293,1,75.1499977066041,2|2,0:0|0:0,0:0:0:0:
164,130,249121,6,0,P|199:194|171:261,1,150.299995413208,2|2,0:0|0:0,0:0:0:0:
36,195,249621,2,0,L|115:199,1,75.1499977066041,2|8,0:0|0:0,0:0:0:0:
239,127,249954,2,0,L|163:130,1,75.1499977066041,2|2,0:0|0:0,0:0:0:0:
309,195,250288,2,0,L|464:201,1,150.299995413208,0|2,0:0|0:0,0:0:0:0:
333,109,250788,1,2,0:0:0:0:
459,200,250954,1,0,0:0:0:0:
316,267,251121,2,0,P|304:231|308:194,1,75.1499977066041,8|0,0:0|0:0,0:0:0:0:
421,55,251454,2,0,P|424:92|412:127,1,75.1499977066041,2|2,0:0|0:0,0:0:0:0:
176,193,251788,6,0,P|266:167|321:215,1,150.299995413208,2|0,0:0|0:0,0:0:0:0:
335,298,252288,1,2,0:0:0:0:
230,326,252454,2,0,L|241:239,1,75.1499977066041,8|2,0:0|0:0,0:0:0:0:
256,135,252788,1,2,0:0:0:0:
335,298,252954,2,0,P|401:327|467:296,1,150.299995413208,0|2,0:0|0:0,0:0:0:0:
406,164,253454,2,0,L|401:267,1,75.1499977066041,2|2,0:0|0:0,0:0:0:0:
416,80,253788,1,8,0:0:0:0:
323,31,253954,1,2,0:0:0:0:
256,135,254121,2,0,P|294:145|340:137,1,75.1499977066041,0|2,0:0|0:0,0:0:0:0:
189,12,254454,6,0,L|193:98,2,75.1499977066041,2|0|0,0:0|0:0|0:0,0:0:0:0:
120,137,254954,2,0,L|116:212,1,75.1499977066041,2|8,0:0|0:0,0:0:0:0:
261,295,255288,2,0,L|257:219,1,75.1499977066041,2|2,0:0|0:0,0:0:0:0:
114,238,255621,1,2,0:0:0:0:
256,135,255788,2,0,P|336:106|403:147,1,150.299995413208,2|2,0:0|0:0,0:0:0:0:
402,239,256288,1,0,0:0:0:0:
261,323,256454,2,0,B|229:335|186:317|186:317|145:299|112:319,1,150.299995413208,8|2,0:0|0:0,0:0:0:0:
19,371,256954,1,0,0:0:0:0:
116,212,257121,5,2,0:0:0:0:
182,97,269190,6,0,P|148:181|199:241,1,167,6|8,0:0|0:0,0:0:0:0:
390,141,269690,1,0,0:0:0:0:
229,162,269857,2,0,L|312:151,1,83.5,2|0,0:0|0:0,0:0:0:0:
492,230,270190,2,0,L|409:218,1,83.5,8|0,0:0|0:0,0:0:0:0:
177,335,270523,6,0,L|358:308,1,167,2|8,0:0|0:0,0:0:0:0:
188,236,271023,1,0,0:0:0:0:
104,376,271190,2,0,P|94:340|105:293,1,83.5,2|0,0:0|0:0,0:0:0:0:
209,136,271523,2,0,P|218:176|208:216,1,83.5,8|0,0:0|0:0,0:0:0:0:
0,85,271857,6,0,L|169:67,1,167,6|8,0:0|0:0,0:0:0:0:
336,123,272357,1,0,0:0:0:0:
42,153,272523,2,0,L|211:135,1,167,6|8,0:0|0:0,0:0:0:0:
80,234,273023,1,0,0:0:0:0:
326,258,273190,6,0,L|159:240,1,167,6|8,0:0|0:0,0:0:0:0:
300,340,273690,1,0,0:0:0:0:
469,274,273857,2,0,P|474:220|460:180,1,83.5,2|0,0:0|0:0,0:0:0:0:
368,49,274190,2,0,P|345:102|370:164,1,111.333333333333,4|0,0:0|0:0,0:0:0:0:
466,192,274523,6,0,L|470:119,2,55.6666666666667,2|0|0,0:0|0:0|0:0,0:0:0:0:
356,206,274857,2,0,L|360:133,2,55.6666666666667,2|0|0,0:0|0:0|0:0,0:0:0:0:
245,225,275190,1,2,0:0:0:0:
245,225,275301,2,0,L|249:152,1,55.6666666666667
138,72,275523,1,2,0:0:0:0:
138,72,275634,1,0,0:0:0:0:
138,72,275745,1,0,0:0:0:0:
138,72,275857,6,0,L|127:239,1,167,6|8,0:0|0:0,0:0:0:0:
245,349,276412,1,0,0:0:0:0:
314,302,276523,2,0,P|234:266|163:334,1,167,2|8,0:0|0:0,0:0:0:0:
477,308,277190,5,6,0:0:0:0:
495,277,277301,1,0,0:0:0:0:
460,274,277412,1,0,0:0:0:0:
477,287,277523,6,0,L|469:159,1,111.333333333333,8|0,0:0|0:0,0:0:0:0:
447,96,277857,2,0,P|391:81|333:121,1,111.333333333333,2|0,0:0|0:0,0:0:0:0:
299,178,278190,2,0,P|243:193|185:153,1,111.333333333333,8|0,0:0|0:0,0:0:0:0:
113,36,278523,6,0,P|150:88|142:140,1,83.5,8|0,0:0|0:0,0:0:0:0:
77,251,278857,2,0,P|103:192|152:173,1,83.5,8|0,0:0|0:0,0:0:0:0:
420,166,279190,1,8,0:0:0:0:
395,148,279273,1,8,0:0:0:0:
364,143,279357,1,8,0:0:0:0:
334,149,279440,1,8,0:0:0:0:
309,168,279523,1,8,0:0:0:0:
284,186,279607,1,8,0:0:0:0:
253,193,279690,1,8,0:0:0:0:
223,187,279773,1,8,0:0:0:0:
197,170,279857,6,0,L|207:354,1,167,6|8,0:0|0:0,0:0:0:0:
338,254,280357,1,0,0:0:0:0:
230,100,280523,2,0,P|190:91|151:105,1,83.5,2|0,0:0|0:0,0:0:0:0:
338,254,280857,2,0,P|376:267|417:258,1,83.5,8|0,0:0|0:0,0:0:0:0:
410,59,281190,6,0,P|363:92|407:201,1,167,2|8,0:0|0:0,0:0:0:0:
508,147,281690,1,0,0:0:0:0:
491,342,281857,2,0,L|498:240,1,83.5,2|0,0:0|0:0,0:0:0:0:
375,105,282190,2,0,L|380:188,1,83.5,8|0,0:0|0:0,0:0:0:0:
228,327,282523,6,0,P|299:281|387:329,1,167,6|8,0:0|0:0,0:0:0:0:
142,360,283023,1,0,0:0:0:0:
152,193,283190,2,0,L|141:371,1,167,6|8,0:0|0:0,0:0:0:0:
159,109,283690,1,0,0:0:0:0:
387,167,283857,6,0,B|353:186|306:163|306:163|253:140|209:171,1,167,6|8,0:0|0:0,0:0:0:0:
355,91,284357,1,0,0:0:0:0:
221,244,284523,2,0,L|227:143,1,83.5,2|0,0:0|0:0,0:0:0:0:
431,14,284857,2,0,L|435:97,1,83.5,8|0,0:0|0:0,0:0:0:0:
459,318,285190,5,8,0:0:0:0:
420,325,285301,1,8,0:0:0:0:
381,332,285412,1,8,0:0:0:0:
297,322,285523,5,8,0:0:0:0:
258,329,285634,1,8,0:0:0:0:
219,336,285745,1,8,0:0:0:0:
140,308,285857,6,0,P|112:260|149:180,1,125.25,8|0,0:0|0:0,0:0:0:0:
183,134,286190,6,0,P|117:159|68:133,1,111.333333333333,6|0,0:0|0:0,0:0:0:0:
5,106,286523,5,8,0:0:0:0:
12,67,286634,1,8,0:0:0:0:
19,28,286745,1,8,0:0:0:0:
110,14,286857,5,8,0:0:0:0:
104,52,286968,1,8,0:0:0:0:
98,90,287079,1,8,0:0:0:0:
80,171,287190,6,0,P|133:185|199:143,1,125.25,8|0,0:0|0:0,0:0:0:0:
261,95,287523,6,0,P|313:81|375:121,1,111.333333333333,6|0,0:0|0:0,0:0:0:0:
416,170,287857,6,0,L|401:354,1,167,6|8,0:0|0:0,0:0:0:0:
311,170,288412,1,0,0:0:0:0:
311,170,288523,1,2,0:0:0:0:
507,125,288690,1,0,0:0:0:0:
284,177,288857,1,8,0:0:0:0:
512,206,289023,1,0,0:0:0:0:
304,86,289190,6,0,L|310:169,1,83.5,2|0,0:0|0:0,0:0:0:0:
424,331,289523,2,0,L|431:246,1,83.5,8|0,0:0|0:0,0:0:0:0:
293,54,289857,5,2,0:0:0:0:
268,34,289940,1,0,0:0:0:0:
239,22,290023,1,0,0:0:0:0:
208,18,290107,1,0,0:0:0:0:
178,24,290190,1,8,0:0:0:0:
150,37,290273,1,8,0:0:0:0:
126,58,290357,1,8,0:0:0:0:
110,85,290440,1,8,0:0:0:0:
101,115,290523,6,0,L|118:306,1,167,6|8,0:0|0:0,0:0:0:0:
194,120,291023,1,0,0:0:0:0:
119,308,291190,1,2,0:0:0:0:
194,120,291357,1,0,0:0:0:0:
282,304,291523,2,0,P|204:322|186:316,1,83.5,8|0,0:0|0:0,0:0:0:0:
302,54,291857,6,0,L|319:240,1,167,6|8,0:0|0:0,0:0:0:0:
461,120,292357,1,0,0:0:0:0:
361,299,292523,2,0,P|322:311|281:303,1,83.5,2|0,0:0|0:0,0:0:0:0:
380,115,292856,2,0,P|420:107|460:119,1,83.5,8|0,0:0|0:0,0:0:0:0:
231,211,293190,5,6,0:0:0:0:
429,186,293356,1,0,0:0:0:0:
206,216,293523,1,8,0:0:0:0:
429,186,293690,1,0,0:0:0:0:
211,129,293856,1,2,0:0:0:0:
269,351,294023,1,2,0:0:0:0:
284,81,294190,1,8,0:0:0:0:
51,192,294356,1,8,0:0:0:0:
51,192,294440,1,8,0:0:0:0:
51,192,294523,5,2,0:0:0:0:
268,248,294690,2,0,P|212:220|129:272,2,167,2|2|0,0:0|0:0|0:0,0:0:0:0:
120,368,295523,1,2,0:0:0:0:
124,126,295690,1,0,0:0:0:0:
124,126,295773,1,0,0:0:0:0:
124,126,295856,5,4,0:0:0:0:
181,125,306373,6,0,B|214:144|259:118|259:118|307:92|354:117,1,167,6|2,0:0|0:0,0:0:0:0:
210,214,306873,1,0,0:0:0:0:
120,50,307039,2,0,P|85:124|119:198,1,167,2|2,0:0|0:0,0:0:0:0:
210,214,307539,1,0,0:0:0:0:
470,238,307706,6,0,L|286:221,1,167,2|2,0:0|0:0,0:0:0:0:
120,334,308206,1,0,0:0:0:0:
262,371,308373,2,0,P|268:328|256:285,1,83.5,2|0,0:0|0:0,0:0:0:0:
120,117,308706,2,0,P|110:157|116:198,1,83.5,2|0,0:0|0:0,0:0:0:0:
282,67,309039,6,0,L|181:58,1,83.5,2|0,0:0|0:0,0:0:0:0:
33,190,309373,2,0,L|134:199,1,83.5,2|0,0:0|0:0,0:0:0:0:
286,153,309706,1,2,0:0:0:0:
116,197,309873,1,0,0:0:0:0:
322,154,310039,2,0,L|423:163,1,83.5,2|0,0:0|0:0,0:0:0:0:
223,317,310373,6,0,P|203:228|251:159,1,167,2|2,0:0|0:0,0:0:0:0:
405,161,310873,1,0,0:0:0:0:
389,344,311039,2,0,L|285:330,1,83.5,2|0,0:0|0:0,0:0:0:0:
240,166,311373,2,0,L|344:152,1,83.5,2|0,0:0|0:0,0:0:0:0:
430,349,311706,6,0,L|282:329,2,125.25,6|0|0,0:0|0:0|0:0,0:0:0:0:
226,324,312373,1,2,0:0:0:0:
407,262,312539,1,0,0:0:0:0:
204,332,312706,1,2,0:0:0:0:
428,254,312873,1,0,0:0:0:0:
212,210,313039,6,0,P|196:269|224:323,2,125.25,2|0|0,0:0|0:0|0:0,0:0:0:0:
374,95,313706,1,2,0:0:0:0:
277,261,313873,1,0,0:0:0:0:
274,40,314039,1,2,0:0:0:0:
380,212,314206,1,0,0:0:0:0:
182,109,314373,6,0,L|91:119,1,83.5,2|0,0:0|0:0,0:0:0:0:
380,212,314706,2,0,L|471:202,1,83.5,2|0,0:0|0:0,0:0:0:0:
212,210,315039,1,2,0:0:0:0:
412,126,315206,1,0,0:0:0:0:
390,350,315373,1,2,0:0:0:0:
325,139,315539,1,0,0:0:0:0:
153,320,315706,6,0,B|191:338|235:315|235:315|281:291|331:321,1,167,10|10,0:1|0:1,0:0:0:0:
110,247,316206,1,0,0:0:0:0:
118,85,316373,2,0,L|114:178,1,83.5,10|0,0:1|0:0,0:0:0:0:
298,28,316706,2,0,P|237:8|176:35,1,125.25,10|0,0:1|0:0,0:0:0:0:
298,28,317039,6,0,P|349:60|453:10,1,167,6|2,0:0|0:0,0:0:0:0:
295,137,317539,1,0,0:0:0:0:
468,11,317706,2,0,L|457:183,1,167,2|2,0:0|0:0,0:0:0:0:
448,357,318206,1,0,0:0:0:0:
367,220,318373,6,0,L|372:303,1,83.5,2|0,0:0|0:0,0:0:0:0:
215,140,318706,2,0,P|259:127|309:148,1,83.5,2|0,0:0|0:0,0:0:0:0:
372,333,319039,2,0,P|331:342|292:329,1,83.5,2|0,0:0|0:0,0:0:0:0:
168,207,319373,1,2,0:0:0:0:
292,329,319539,1,0,0:0:0:0:
94,370,319706,6,0,L|83:189,1,167,2|2,0:0|0:0,0:0:0:0:
174,320,320206,1,0,0:0:0:0:
162,123,320373,2,0,L|169:222,1,83.5,2|0,0:0|0:0,0:0:0:0:
12,331,320706,2,0,L|5:232,1,83.5,2|0,0:0|0:0,0:0:0:0:
156,44,321039,6,0,B|196:21|243:43|243:43|284:65|334:32,1,167,2|10,0:0|0:1,0:0:0:0:
247,169,321539,1,0,0:0:0:0:
381,0,321706,2,0,P|394:53|379:96,1,83.5,10|0,0:1|0:0,0:0:0:0:
241,249,322039,2,0,P|234:208|247:168,1,83.5,10|0,0:1|0:0,0:0:0:0:
481,217,322373,6,0,P|417:215|310:216,1,167,6|2,0:0|0:0,0:0:0:0:
463,322,322873,1,0,0:0:0:0:
440,136,323039,2,0,P|399:135|337:135,1,83.5,2|0,0:0|0:0,0:0:0:0:
301,330,323373,2,0,P|342:331|384:330,1,83.5,2|0,0:0|0:0,0:0:0:0:
239,135,323706,6,0,P|203:213|250:292,1,167,2|2,0:0|0:0,0:0:0:0:
356,134,324206,1,0,0:0:0:0:
155,129,324373,2,0,L|238:134,1,83.5,2|0,0:0|0:0,0:0:0:0:
411,38,324706,2,0,L|327:43,1,83.5,2|0,0:0|0:0,0:0:0:0:
484,154,325039,5,2,0:0:0:0:
356,134,325206,1,0,0:0:0:0:
447,273,325373,1,2,0:0:0:0:
501,130,325539,1,0,0:0:0:0:
363,277,325706,2,0,L|453:272,1,83.5,2|0,0:0|0:0,0:0:0:0:
512,112,326039,2,0,L|422:107,1,83.5,2|0,0:0|0:0,0:0:0:0:
284,287,326373,5,2,0:0:0:0:
266,304,326539,1,2,0:0:0:0:
260,280,326706,1,2,0:0:0:0:
284,287,326873,1,2,0:0:0:0:
269,291,327039,6,0,B|246:301|213:284|213:284|175:271|149:288,1,125.25,2|0,0:0|0:0,0:0:0:0:
136,305,327373,2,0,L|133:325,6,20.875,2|0|0|0|0|0|0,0:0|0:0|0:0|0:0|0:0|0:0|0:0,0:0:0:0:
87,235,327706,6,0,L|97:128,1,83.5,6|0,0:0|0:0,0:0:0:0:
244,44,328039,2,0,L|251:127,1,83.5,2|0,0:0|0:0,0:0:0:0:
99,75,328373,1,10,0:1:0:0:
251,127,328539,1,8,0:1:0:0:
99,75,328706,1,10,0:1:0:0:
277,36,328873,1,8,0:1:0:0:
225,227,329039,5,10,0:1:0:0:
290,11,329206,1,0,0:0:0:0:
225,227,329373,1,10,0:1:0:0:
432,189,329539,2,0,P|370:149|277:186,1,167,8|8,0:1|0:1,0:0:0:0:
199,307,330039,2,0,P|245:308|282:284,1,83.5,10|8,0:1|0:1,0:0:0:0:
129,161,330373,6,0,L|147:274,1,83.5,10|8,0:1|0:1,0:0:0:0:
114,80,330706,1,10,0:1:0:0:
64,260,330873,2,0,P|112:239|148:246,1,83.5,8|10,0:1|0:1,0:0:0:0:
246,344,331206,1,8,0:1:0:0:
141,243,331373,1,10,0:1:0:0:
273,196,331539,1,8,0:1:0:0:
138,346,331706,5,6,0:0:0:0:
342,279,331873,1,8,0:0:0:0:
342,279,331956,1,8,0:0:0:0:
342,279,332039,1,2,0:0:0:0:
111,358,332206,2,0,P|72:306|116:206,1,167,4|0,0:0|0:0,0:0:0:0:
280,112,332706,2,0,L|272:206,1,83.5,10|8,0:1|0:1,0:0:0:0:
89,52,333039,6,0,L|97:146,1,83.5,6|0,0:0|0:0,0:0:0:0:
280,112,333373,2,0,L|287:28,1,83.5,6|0,0:0|0:0,0:0:0:0:
187,154,333706,1,10,0:1:0:0:
372,168,333873,1,8,0:1:0:0:
187,154,334039,2,0,L|197:260,1,83.5,10|8,0:1|0:1,0:0:0:0:
372,168,334373,5,10,0:1:0:0:
194,237,334539,1,10,0:1:0:0:
337,365,334706,1,10,0:1:0:0:
285,202,334873,2,0,L|277:296,1,83.5,8|10,0:1|0:1,0:0:0:0:
440,325,335206,1,8,0:1:0:0:
376,146,335372,1,10,0:1:0:0:
275,311,335539,1,8,0:1:0:0:
472,331,335706,6,0,L|464:247,1,83.5,10|8,0:1|0:1,0:0:0:0:
379,113,336039,1,10,0:1:0:0:
365,290,336206,1,8,0:1:0:0:
383,83,336372,1,10,0:1:0:0:
365,290,336539,1,8,0:1:0:0:
383,83,336706,1,10,0:1:0:0:
215,187,336872,6,0,P|279:189|313:161,1,83.5,0|2,0:0|0:0,0:0:0:0:
162,122,337206,1,8,0:1:0:0:
162,122,337372,2,0,P|128:176|135:219,1,83.5,10|0,0:1|0:0,0:0:0:0:
246,111,337706,2,0,P|215:54|174:39,1,83.5
79,132,338039,2,0,L|180:119,1,83.5
413,81,338372,5,2,0:0:0:0:
155,113,349486,6,0,P|146:165|168:208,1,83.5,2|0,0:0|0:0,0:0:0:0:
287,143,349810,1,8,0:0:0:0:
266,145,349891,1,8,0:0:0:0:
245,148,349973,1,8,0:0:0:0:
70,273,350135,6,0,L|235:294,1,167,6|12,0:0|0:0,0:0:0:0:
418,242,350621,1,0,0:0:0:0:
235,294,350783,1,2,0:0:0:0:
443,332,350946,1,2,0:0:0:0:
360,118,351108,2,0,L|348:218,1,83.5,8|0,0:0|0:0,0:0:0:0:
505,64,351432,6,0,P|462:48|408:64,1,83.5,2|0,0:0|0:0,0:0:0:0:
347,232,351756,1,8,0:0:0:0:
457,125,351918,1,0,0:0:0:0:
275,101,352081,2,0,L|263:201,1,83.5,0|2,0:0|0:0,0:0:0:0:
477,295,352405,2,0,L|467:212,1,83.5,8|0,0:0|0:0,0:0:0:0:
254,263,352729,6,0,B|223:282|176:259|176:259|126:238|83:266,1,167,2|8,0:0|0:0,0:0:0:0:
233,347,353216,1,0,0:0:0:0:
166,170,353378,1,2,0:0:0:0:
233,347,353540,1,2,0:0:0:0:
28,309,353702,2,0,P|13:267|37:203,1,83.5,8|0,0:0|0:0,0:0:0:0:
175,36,354027,6,0,P|199:92|184:152,1,125.25,2|0,0:0|0:0,0:0:0:0:
166,170,354351,1,8,0:0:0:0:
27,93,354513,2,0,L|121:102,1,83.5,2|0,0:0|0:0,0:0:0:0:
282,229,354837,2,0,L|376:220,1,83.5,2|8,0:0|0:0,0:0:0:0:
205,238,355162,1,2,0:0:0:0:
402,144,355324,6,0,P|447:211|420:287,1,167,2|8,0:0|0:0,0:0:0:0:
282,229,355810,1,0,0:0:0:0:
476,207,355973,1,2,0:0:0:0:
345,381,356135,2,0,P|333:341|350:294,1,83.5,0|8,0:0|0:0,0:0:0:0:
476,207,356459,1,0,0:0:0:0:
251,234,356621,5,2,0:0:0:0:
403,65,356783,2,0,P|414:104|402:144,1,83.5,0|8,0:0|0:0,0:0:0:0:
251,234,357108,1,2,0:0:0:0:
239,52,357270,2,0,L|245:158,1,83.5,0|2,0:0|0:0,0:0:0:0:
397,227,357594,2,0,L|401:143,1,83.5,8|0,0:0|0:0,0:0:0:0:
184,189,357918,5,2,0:0:0:0:
317,51,358081,2,0,P|276:39|221:69,1,83.5,0|8,0:0|0:0,0:0:0:0:
174,210,358405,1,0,0:0:0:0:
323,130,358567,1,8,0:0:0:0:
113,121,358729,1,2,0:0:0:0:
206,313,358891,1,2,0:0:0:0:
95,99,359054,6,0,L|90:204,1,83.5,2|0,0:0|0:0,0:0:0:0:
282,315,359378,2,0,L|278:231,1,83.5,2|0,0:0|0:0,0:0:0:0:
83,263,359702,1,0,0:0:0:0:
286,347,359864,2,0,P|343:345|375:320,1,83.5,8|2,0:0|0:0,0:0:0:0:
400,267,360108,1,2,0:0:0:0:
400,267,360189,2,0,L|394:174,1,83.5,8|0,0:0|0:0,0:0:0:0:
382,17,360513,6,0,L|394:184,1,167,6|8,0:0|0:0,0:0:0:0:
297,50,361000,1,0,0:0:0:0:
466,43,361162,2,0,L|472:135,1,83.5,2|2,0:0|0:0,0:0:0:0:
323,240,361486,2,0,P|268:247|225:222,1,83.5,8|0,0:0|0:0,0:0:0:0:
73,112,361810,6,0,P|152:76|216:126,1,167,6|8,0:0|0:0,0:0:0:0:
51,209,362297,1,2,0:0:0:0:
33,21,362459,2,0,L|40:106,1,83.5,0|2,0:0|0:0,0:0:0:0:
132,304,362783,2,0,L|138:220,1,83.5,8|0,0:0|0:0,0:0:0:0:
293,49,363108,6,0,P|369:23|432:73,1,167,6|8,0:0|0:0,0:0:0:0:
418,284,363594,1,0,0:0:0:0:
354,106,363756,1,2,0:0:0:0:
430,308,363918,1,2,0:0:0:0:
223,278,364081,1,8,0:0:0:0:
482,187,364243,6,0,L|315:202,1,167,6|0,0:0|0:0,0:0:0:0:
137,352,364729,1,8,0:0:0:0:
306,285,364891,2,0,L|215:277,1,83.5,2|0,0:0|0:0,0:0:0:0:
25,362,365216,2,0,L|108:354,1,83.5,2|8,0:0|0:0,0:0:0:0:
156,187,365540,1,0,0:0:0:0:
69,15,365702,6,0,P|39:90|88:172,1,167,2|8,0:0|0:0,0:0:0:0:
235,151,366189,1,2,0:0:0:0:
70,246,366351,2,0,L|75:155,1,83.5,2|0,0:0|0:0,0:0:0:0:
263,147,366675,1,8,0:0:0:0:
142,20,366837,6,0,L|155:188,1,167,2|0,0:0|0:0,0:0:0:0:
300,71,367324,2,0,P|259:63|220:75,1,83.5,8|2,0:0|0:0,0:0:0:0:
155,186,367648,1,0,0:0:0:0:
345,226,367810,1,2,0:0:0:0:
220,74,367973,1,8,0:0:0:0:
157,268,368135,1,0,0:0:0:0:
339,143,368297,6,0,L|348:256,1,83.5,2|0,0:0|0:0,0:0:0:0:
150,351,368621,2,0,L|156:267,1,83.5,8|0,0:0|0:0,0:0:0:0:
352,305,368946,1,8,0:0:0:0:
157,268,369108,1,2,0:0:0:0:
345,226,369270,1,0,0:0:0:0:
75,289,369432,5,8,0:0:0:0:
75,289,370891,5,2,0:0:0:0:
256,192,371054,12,0,372027,0:0:0:0:
278,210,382748,6,0,B|317:224|365:200|365:200|407:178|459:198,1,167,6|8,0:0|0:0,0:0:0:0:
310,131,383229,1,0,0:0:0:0:
235,350,383390,2,0,P|218:307|234:247,1,83.5,2|2,0:0|0:0,0:0:0:0:
296,51,383711,2,0,P|313:94|297:154,1,83.5,8|0,0:0|0:0,0:0:0:0:
61,288,384032,6,0,B|90:263|144:278|144:278|191:294|244:256,1,167,2|8,0:0|0:0,0:0:0:0:
230,98,384513,1,2,0:0:0:0:
33,212,384673,2,0,P|84:196|145:200,1,83.5,0|2,0:0|0:0,0:0:0:0:
190,370,384994,2,0,P|148:364|109:350,1,83.5,8|0,0:0|0:0,0:0:0:0:
255,191,385315,6,0,P|344:206|447:243,1,167,2|8,0:0|0:0,0:0:0:0:
263,294,385796,1,0,0:0:0:0:
244,108,385957,2,0,L|256:206,1,83.5,2|2,0:0|0:0,0:0:0:0:
267,328,386278,1,8,0:0:0:0:
305,58,386438,6,0,P|245:29|165:103,1,167,0|2,0:0|0:0,0:0:0:0:
18,225,386919,2,0,P|82:233|117:216,1,83.5,8|2,0:0|0:0,0:0:0:0:
162,184,387160,1,0,0:0:0:0:
162,184,387240,1,0,0:0:0:0:
27,62,387401,1,2,0:0:0:0:
183,199,387561,2,0,L|178:295,1,83.5,8|0,0:0|0:0,0:0:0:0:
175,359,387802,1,8,0:0:0:0:
175,359,387882,6,0,B|208:373|258:348|258:348|306:325|342:348,1,167,6|8,0:0|0:0,0:0:0:0:
441,209,388363,1,0,0:0:0:0:
335,344,388524,1,2,0:0:0:0:
459,184,388684,1,2,0:0:0:0:
270,154,388844,2,0,L|277:254,1,83.5,8|0,0:0|0:0,0:0:0:0:
470,59,389165,6,0,P|382:36|309:96,1,167,2|8,0:0|0:0,0:0:0:0:
279,266,389647,1,2,0:0:0:0:
459,184,389807,2,0,P|406:167|359:180,1,83.5,0|2,0:0|0:0,0:0:0:0:
173,295,390128,2,0,P|214:297|252:281,1,83.5,8|0,0:0|0:0,0:0:0:0:
79,68,390449,6,0,L|98:260,1,167,2|8,0:0|0:0,0:0:0:0:
179,47,390930,1,0,0:0:0:0:
4,140,391090,2,0,L|15:238,1,83.5,2|2,0:0|0:0,0:0:0:0:
179,135,391411,1,8,0:0:0:0:
0,107,391572,1,0,0:0:0:0:
61,300,391732,6,0,P|113:306|149:283,1,83.5,2|2,0:0|0:0,0:0:0:0:
286,186,392053,1,8,0:0:0:0:
95,234,392213,1,2,0:0:0:0:
276,348,392374,2,0,L|283:253,1,83.5,0|2,0:0|0:0,0:0:0:0:
286,186,392615,1,8,0:0:0:0:
286,186,392695,2,0,L|292:125,1,41.75,8|8,0:0|0:0,0:0:0:0:
363,272,392855,2,0,L|367:313,1,41.75,8|8,0:0|0:0,0:0:0:0:
357,104,393016,6,0,P|308:67|214:122,1,167,6|8,0:0|0:0,0:0:0:0:
386,190,393497,1,0,0:0:0:0:
220,106,393657,1,2,0:0:0:0:
406,199,393818,1,2,0:0:0:0:
212,189,393978,2,0,L|220:101,1,83.5,8|0,0:0|0:0,0:0:0:0:
467,52,394299,6,0,L|482:218,1,167,2|8,0:0|0:0,0:0:0:0:
302,269,394780,1,2,0:0:0:0:
394,88,394941,2,0,L|405:194,1,83.5,0|2,0:0|0:0,0:0:0:0:
293,352,395262,2,0,L|301:268,1,83.5,8|0,0:0|0:0,0:0:0:0:
224,69,395582,6,0,B|190:54|145:74|145:74|89:102|37:69,1,167,2|8,0:0|0:0,0:0:0:0:
193,153,396064,1,0,0:0:0:0:
40,64,396224,2,0,L|49:161,1,83.5,2|2,0:0|0:0,0:0:0:0:
250,82,396545,1,8,0:0:0:0:
47,147,396705,1,6,0:0:0:0:
205,319,396866,6,0,L|191:136,1,167,2|8,0:0|0:0,0:0:0:0:
103,310,397347,1,8,0:0:0:0:
103,310,397427,1,8,0:0:0:0:
103,310,397508,1,2,0:0:0:0:
298,186,397668,1,8,0:0:0:0:
97,226,397828,1,8,0:0:0:0:
99,247,397909,1,8,0:0:0:0:
100,268,397989,1,0,0:0:0:0:
101,288,398069,1,8,0:0:0:0:
103,310,398149,6,0,P|176:347|258:278,1,167,2|8,0:0|0:0,0:0:0:0:
302,152,398631,1,0,0:0:0:0:
92,142,398791,2,0,L|96:225,1,83.5,2|2,0:0|0:0,0:0:0:0:
243,308,399112,2,0,L|247:224,1,83.5,8|0,0:0|0:0,0:0:0:0:
33,69,399433,6,0,P|76:108|171:76,1,167,2|8,0:0|0:0,0:0:0:0:
302,152,399914,1,2,0:0:0:0:
165,160,400074,2,0,L|171:60,1,83.5,0|2,0:0|0:0,0:0:0:0:
327,235,400395,2,0,L|332:318,1,83.5,8|0,0:0|0:0,0:0:0:0:
469,117,400716,6,0,P|393:91|321:130,1,167,6|8,0:0|0:0,0:0:0:0:
414,305,401197,1,8,0:0:0:0:
412,273,401278,1,8,0:0:0:0:
410,242,401358,1,2,0:0:0:0:
407,211,401438,1,8,0:0:0:0:
403,180,401518,1,8,0:0:0:0:
200,261,401679,1,8,0:0:0:0:
200,261,401759,1,8,0:0:0:0:
200,261,401839,1,2,0:0:0:0:
200,261,402641,5,2,0:0:0:0:
299,95,402802,1,8,0:0:0:0:
299,95,402882,1,8,0:0:0:0:
299,95,402962,2,0,L|304:142,1,41.75,2|8,0:0|0:0,0:0:0:0:
203,236,403123,2,0,L|207:194,1,41.75,8|8,0:0|0:0,0:0:0:0:
314,342,403283,5,6,0:0:0:0:
52,214,414217,6,0,L|59:173,3,41.75,8|0|8|8,0:0|0:0|0:0|0:0,0:0:0:0:
95,95,414532,1,8,0:0:0:0:
127,69,414611,1,8,0:0:0:0:
167,59,414690,1,8,0:0:0:0:
208,67,414769,1,8,0:0:0:0:
241,92,414848,6,0,L|222:267,1,167,6|8,0:0|0:0,0:0:0:0:
332,118,415322,1,0,0:0:0:0:
222,286,415480,2,0,P|283:302|315:286,1,83.5,2|0,0:0|0:0,0:0:0:0:
410,108,415796,2,0,P|369:101|331:118,1,83.5,8|0,0:0|0:0,0:0:0:0:
466,341,416111,6,0,L|448:174,1,167,2|8,0:0|0:0,0:0:0:0:
381,321,416585,1,2,0:0:0:0:
331,117,416743,2,0,L|340:215,1,83.5,0|2,0:0|0:0,0:0:0:0:
214,369,417059,2,0,L|221:285,1,83.5,8|0,0:0|0:0,0:0:0:0:
292,39,417374,6,0,B|330:21|377:40|377:40|428:55|476:31,1,167,2|8,0:0|0:0,0:0:0:0:
331,117,417848,1,0,0:0:0:0:
143,91,418006,2,0,P|131:51|136:9,1,83.5,2|2,0:0|0:0,0:0:0:0:
344,141,418322,2,0,P|349:182|337:222,1,83.5,8|0,0:0|0:0,0:0:0:0:
93,197,418638,6,0,L|270:175,1,167,2|8,0:0|0:0,0:0:0:0:
142,283,419111,1,2,0:0:0:0:
33,137,419269,2,0,P|64:119|128:123,1,83.5,0|2,0:0|0:0,0:0:0:0:
147,311,419585,1,8,0:0:0:0:
112,118,419743,1,0,0:0:0:0:
350,181,419901,6,0,L|341:361,1,167,2|8,0:0|0:0,0:0:0:0:
258,176,420374,1,0,0:0:0:0:
444,317,420532,2,0,L|448:227,1,83.5,2|2,0:0|0:0,0:0:0:0:
255,68,420848,2,0,L|258:151,1,83.5,8|0,0:0|0:0,0:0:0:0:
201,366,421164,6,0,P|266:319|341:347,1,167,2|8,0:0|0:0,0:0:0:0:
126,277,421638,1,2,0:0:0:0:
170,117,421796,2,0,P|176:179|171:218,1,83.5,0|2,0:0|0:0,0:0:0:0:
36,382,422111,2,0,P|34:340|40:299,1,83.5,8|0,0:0|0:0,0:0:0:0:
162,84,422427,6,0,L|353:69,1,167,2|8,0:0|0:0,0:0:0:0:
104,172,422901,1,0,0:0:0:0:
300,234,423059,1,2,0:0:0:0:
250,30,423217,1,2,0:0:0:0:
90,191,423374,2,0,L|190:180,1,83.5,8|0,0:0|0:0,0:0:0:0:
398,73,423690,5,2,0:0:0:0:
172,181,423848,1,0,0:0:0:0:
456,138,424006,1,12,0:0:0:0:
206,104,424164,1,2,0:0:0:0:
464,218,424322,6,0,L|407:210,3,41.75,4|0|0|0,0:0|0:0|0:0|0:0,0:0:0:0:
453,305,424638,2,0,L|494:299,3,41.75,12|0|0|0,0:0|0:0|0:0|0:0,0:0:0:0:
370,304,424953,6,0,P|309:246|227:281,1,167,2|12,0:0|0:0,0:0:0:0:
453,305,425427,1,0,0:0:0:0:
230,351,425585,2,0,L|238:257,1,83.5,2|2,0:0|0:0,0:0:0:0:
415,126,425901,2,0,L|422:209,1,83.5,8|0,0:0|0:0,0:0:0:0:
147,302,426217,6,0,L|134:115,1,167,2|8,0:0|0:0,0:0:0:0:
237,267,426690,1,2,0:0:0:0:
131,101,426848,2,0,P|81:97|44:119,1,83.5,0|2,0:0|0:0,0:0:0:0:
237,267,427164,1,8,0:0:0:0:
217,77,427322,1,0,0:0:0:0:
28,198,427480,6,0,P|101:218|193:160,1,167,2|8,0:0|0:0,0:0:0:0:
37,296,427953,1,0,0:0:0:0:
13,82,428111,2,0,L|23:179,1,83.5,2|2,0:0|0:0,0:0:0:0:
138,384,428427,2,0,L|146:300,1,83.5,8|0,0:0|0:0,0:0:0:0:
216,42,428743,6,0,B|249:66|298:46|298:46|345:28|385:49,1,167,2|8,0:0|0:0,0:0:0:0:
200,130,429217,1,2,0:0:0:0:
401,65,429374,2,0,L|414:161,1,83.5,0|2,0:0|0:0,0:0:0:0:
254,278,429690,2,0,L|265:195,1,83.5,12|0,0:0|0:0,0:0:0:0:
464,322,430006,6,0,P|396:365|321:336,1,167,2|8,0:0|0:0,0:0:0:0:
280,107,430480,1,0,0:0:0:0:
166,320,430638,2,0,P|223:322|254:303,1,83.5,2|2,0:0|0:0,0:0:0:0:
285,80,430953,1,8,0:0:0:0:
104,255,431111,1,0,0:0:0:0:
307,261,431269,6,0,L|297:170,1,83.5,2|0,0:0|0:0,0:0:0:0:
127,92,431585,2,0,L|117:175,1,83.5,12|2,0:0|0:0,0:0:0:0:
312,288,431901,1,0,0:0:0:0:
104,255,432059,1,2,0:0:0:0:
293,128,432217,2,0,L|302:211,1,83.5,8|0,0:0|0:0,0:0:0:0:
67,331,432532,6,0,P|113:292|203:311,1,125.25,6|0,0:0|0:0,0:0:0:0:
198,303,432848,1,8,0:0:0:0:
351,357,433006,2,0,P|281:360|244:335,1,83.5,8|2,0:0|0:0,0:0:0:0:
478,260,433322,2,0,P|435:315|392:327,1,83.5,8|2,0:0|0:0,0:0:0:0:
482,94,433638,2,0,P|497:162|478:203,1,83.5,8|2,0:0|0:0,0:0:0:0:
410,47,433953,5,8,0:0:0:0:
256,98,434111,2,0,L|251:65,6,20.875,8|0|0|0|2|0|2,0:0|0:0|0:0|0:0|0:0|0:0|0:0,0:0:0:0:
260,178,434427,1,2,0:0:0:0:
239,208,434506,1,0,0:0:0:0:
209,228,434585,1,0,0:0:0:0:
174,237,434664,1,0,0:0:0:0:
138,233,434743,1,2,0:0:0:0:
106,217,434822,1,0,0:0:0:0:
82,190,434901,1,0,0:0:0:0:
68,156,434980,1,0,0:0:0:0:
68,119,435059,6,0,L|157:109,1,83.5,4|0,0:0|0:0,0:0:0:0:
342,187,435374,2,0,L|259:177,1,83.5,2|8,0:0|0:0,0:0:0:0:
402,96,435690,1,8,0:0:0:0:
398,276,435848,1,0,0:0:0:0:
238,86,436006,2,0,P|285:86|327:112,1,83.5,0|8,0:0|0:0,0:0:0:0:
148,150,436322,6,0,L|136:252,1,83.5,6|8,0:0|0:0,0:0:0:0:
309,356,436638,2,0,L|299:273,1,83.5
153,119,436953,1,8,0:0:0:0:
381,85,437111,1,0,0:0:0:0:
304,313,437269,2,0,P|244:325|215:307,1,83.5,8|8,0:0|0:0,0:0:0:0:
168,268,437506,1,8,0:0:0:0:
168,268,437585,5,4,0:0:0:0:
410,236,437743,1,0,0:0:0:0:
168,268,437901,1,8,0:0:0:0:
353,101,438059,2,0,L|343:203,1,83.5,8|2,0:0|0:0,0:0:0:0:
176,351,438374,2,0,L|167:267,1,83.5,8|2,0:0|0:0,0:0:0:0:
260,69,438690,5,8,0:0:0:0:
264,251,438848,1,2,0:0:0:0:
98,160,439006,1,8,0:0:0:0:
98,160,439085,1,8,0:0:0:0:
98,160,439164,1,8,0:0:0:0:
353,101,439322,1,2,0:0:0:0:
167,267,439480,2,0,L|175:167,1,83.5,8|2,0:0|0:0,0:0:0:0:
178,107,439717,1,2,0:0:0:0:
178,107,439796,1,8,0:0:0:0:
160,346,439953,1,8,0:0:0:0:
410,236,440111,5,4,0:0:0:0:
268,220,450125,6,0,P|291:227|340:244,1,62.6250023889543,8|0,0:0|0:0,0:0:0:0:
156,180,450433,2,0,P|132:172|84:156,1,62.6250023889543,8|0,0:0|0:0,0:0:0:0:
300,136,450740,5,8,0:0:0:0:
124,68,450894,2,0,L|172:56,1,35.4875006768704,4|0,0:3|0:0,0:0:0:0:
240,16,451048,1,0,0:0:0:0:
263,24,451125,1,0,0:0:0:0:
286,45,451202,5,2,0:0:0:0:
315,56,451279,1,2,0:0:0:0:
346,51,451356,1,8,0:0:0:0:
374,35,451433,1,0,0:3:0:0:
403,11,451510,6,0,P|457:23|491:32,1,83.5,4|0,0:0|0:0,0:0:0:0:
400,160,451817,2,0,P|359:149|318:140,1,83.5,8|0,0:0|0:0,0:0:0:0:
159,59,452125,2,0,B|206:143|134:143|170:220,1,167,2|8,0:0|0:0,0:0:0:0:
96,112,452587,1,0,0:0:0:0:
240,180,452740,5,2,0:0:0:0:
92,248,452894,2,0,P|23:231|-8:224,2,83.5,2|8|0,0:3|0:0|0:0,0:0:0:0:
220,360,453356,2,0,P|208:312|224:276,1,83.5,2|0,0:3|0:0,0:0:0:0:
400,156,453663,2,0,P|412:204|396:240,1,83.5,8|0,0:0|0:0,0:0:0:0:
168,163,453971,6,0,P|268:183|344:199,1,167,2|8,0:0|0:0,0:0:0:0:
480,276,454433,1,0,0:0:0:0:
364,336,454587,2,0,P|323:326|282:317,1,83.5,2|0,0:0|0:0,0:0:0:0:
184,188,454894,1,8,0:0:0:0:
16,272,455048,6,0,L|120:248,1,83.5,2|2,0:3|0:0,0:0:0:0:
272,148,455356,1,0,0:0:0:0:
60,72,455510,2,0,L|139:96,1,83.5,8|0,0:0|0:0,0:0:0:0:
164,108,455740,1,8,0:0:0:0:
164,108,455817,1,2,0:0:0:0:
236,28,455971,1,0,0:0:0:0:
348,68,456125,1,8,0:0:0:0:
356,224,456279,1,8,0:0:0:0:
356,224,456356,1,8,0:0:0:0:
356,224,456433,6,0,B|296:212|296:212|252:228|252:228|192:216,1,167,4|8,0:0|0:0,0:0:0:0:
248,140,456894,1,0,0:0:0:0:
308,300,457048,2,0,L|400:320,1,83.5,2|0,0:0|0:0,0:0:0:0:
248,140,457356,2,0,L|156:120,1,83.5,8|0,0:0|0:0,0:0:0:0:
336,92,457663,5,2,0:0:0:0:
194,216,457817,2,0,P|204:270|210:312,2,83.5,2|8|0,0:3|0:0|0:0,0:0:0:0:
336,92,458279,2,0,P|327:132|321:174,1,83.5,2|0,0:0|0:0,0:0:0:0:
264,352,458587,1,8,0:0:0:0:
164,200,458740,1,0,0:0:0:0:
360,280,458894,5,6,0:0:0:0:
180,336,459048,1,0,0:0:0:0:
384,272,459202,1,8,0:0:0:0:
116,220,459356,6,0,L|200:244,1,83.5,4|2,1:2|0:0,0:0:0:0:
456,136,459663,2,0,L|388:152,1,41.75,4|2,1:2|0:0,0:0:0:0:
332,168,459817,1,8,0:0:0:0:
158,72,459971,6,0,B|140:135|130:176|130:176|158:232,1,167,4|2,0:0|0:0,0:0:0:0:
240,112,460433,1,8,0:0:0:0:
116,304,460587,1,2,0:0:0:0:
116,304,460663,1,2,0:0:0:0:
116,304,460740,1,8,0:0:0:0:
367,255,460894,5,2,0:0:0:0:
367,255,460971,1,2,0:0:0:0:
367,255,461048,2,0,P|331:242|307:239,1,41.75,8|8,3:0|3:0,0:0:0:0:
355,129,461202,2,0,P|375:134|395:139,1,41.75,4|4,3:0|3:0,0:0:0:0:
450,215,461356,6,0,P|388:228|327:241,1,125.25,4|0,0:0|0:0,0:0:0:0:
296,248,461663,1,8,0:0:0:0:
395,139,461817,1,0,0:0:0:0:
172,92,461971,6,0,L|256:111,1,83.5,2|0,0:3|0:0,0:0:0:0:
284,120,462202,1,2,0:0:0:0:
284,120,462279,1,8,0:0:0:0:
192,188,462433,1,0,0:0:0:0:
356,60,462587,5,2,0:0:0:0:
444,216,462740,2,0,P|436:260|424:308,2,83.5,2|8|0,0:3|0:0|0:0,0:0:0:0:
356,60,463202,2,0,P|364:104|376:152,1,83.5,2|0,0:0|0:0,0:0:0:0:
272,336,463510,2,0,P|281:295|289:254,1,83.5,8|0,0:0|0:0,0:0:0:0:
64,160,463817,6,0,P|152:204|216:180,1,167,2|8,0:0|0:0,0:0:0:0:
144,100,464279,1,0,0:0:0:0:
52,252,464433,2,0,L|-48:284,1,83.5,2|0,0:3|0:0,0:0:0:0:
68,144,464740,1,10,0:3:0:0:
190,318,464894,1,2,0:3:0:0:
190,318,464971,1,2,0:3:0:0:
190,318,465048,6,0,P|241:328|282:338,1,83.5,2|2,0:0|0:3,0:0:0:0:
456,236,465356,1,8,0:0:0:0:
313,190,465510,1,0,0:0:0:0:
313,190,465587,1,8,0:0:0:0:
313,190,465663,1,2,0:0:0:0:
360,280,465817,1,0,0:0:0:0:
304,92,465971,1,8,0:0:0:0:
154,213,466125,1,8,0:0:0:0:
154,213,466202,1,8,0:0:0:0:
154,213,466279,6,0,B|234:172|246:237|313:191,2,167,2|8|2,0:0|0:0|0:0,0:0:0:0:
56,316,467048,1,0,0:0:0:0:
0,160,467202,2,0,L|128:184,1,125.25,12|0,0:0|0:0,0:0:0:0:
154,213,467510,5,8,0:0:0:0:
328,172,467663,1,8,0:0:0:0:
188,112,467817,1,2,0:0:0:0:
96,280,467971,1,8,0:0:0:0:
280,324,468125,6,0,L|336:340,1,41.75,2|2,0:3|0:3,0:0:0:0:
424,376,468279,1,10,0:0:0:0:
405,343,468356,1,10,0:0:0:0:
400,305,468433,1,2,0:0:0:0:
416,271,468510,1,0,3:0:0:0:
428,235,468587,1,8,3:0:0:0:
418,199,468663,1,4,3:0:0:0:
387,177,468740,6,0,P|335:189|298:198,1,83.5,4|8,0:0|0:0,0:0:0:0:
160,248,469048,1,2,0:0:0:0:
280,324,469202,5,2,1:2:0:0:
80,276,469356,1,0,1:2:0:0:
356,292,469663,5,4,1:2:0:0:
160,248,469817,1,2,1:2:0:0:
425,120,470125,5,2,1:2:0:0:
225,168,470279,1,0,1:2:0:0:
501,152,470587,5,4,1:2:0:0:
305,196,470740,1,2,1:2:0:0:
305,196,471048,5,8,3:0:0:0:
173,104,471202,2,0,L|133:236,1,125.25,0|0,1:2|0:0,0:0:0:0:
109,244,471510,5,4,1:2:0:0:
316,304,471663,1,2,1:2:0:0:
184,336,471817,5,2,0:0:0:0:
409,248,471971,1,8,3:2:0:0:
409,248,472048,1,8,3:2:0:0:
409,248,472125,2,0,L|393:300,1,41.75,8|8,0:0|0:0,0:0:0:0:
373,368,472279,5,4,1:2:0:0:
409,248,472587,1,4,1:2:0:0:
448,129,472894,1,4,1:2:0:0:
373,368,473202,5,4,1:2:0:0:
448,129,473510,1,4,0:1:0:0:
236,312,489378,6,0,B|314:290|294:341|380:312,1,133.6,4|2,0:0|0:0,0:0:0:0:
279,158,489819,2,0,P|247:169|216:180,1,66.8,2|0,0:3|0:0,0:0:0:0:
337,247,490114,2,0,P|391:228|409:223,1,66.8,0|2,0:0|0:0,0:0:0:0:
436,72,490408,1,4,0:3:0:0:
381,136,490555,6,0,L|449:156,1,66.8,2|0,0:3|0:0,0:0:0:0:
400,225,490849,1,2,0:0:0:0:
495,347,490996,2,0,P|422:330|358:315,1,133.6,2|0,0:3|0:0,0:0:0:0:
250,278,491437,2,0,P|210:285|184:292,1,66.8,2|0,0:0|0:0,0:0:0:0:
28,356,491731,6,0,B|38:309|38:309|24:276|24:276|35:227,1,133.6,2|2,0:3|0:0,0:0:0:0:
136,156,492172,2,0,P|175:166|220:180,1,66.8,2|0,0:3|0:0,0:0:0:0:
64,88,492467,2,0,P|31:96|0:105,2,66.8,0|2|0,0:0|0:0|0:0,0:0:0:0:
152,28,492908,6,0,L|220:44,1,66.8,2|0,0:3|0:0,0:0:0:0:
312,152,493202,1,2,0:0:0:0:
427,128,493349,6,0,P|355:116|307:160,1,133.6,2|0,0:3|0:0,0:0:0:0:
256,248,493790,1,2,0:0:0:0:
256,248,493937,1,0,0:0:0:0:
356,320,494084,6,0,B|296:292|280:352|220:316,1,133.6,2|2,0:3|0:0,0:0:0:0:
368,240,494525,2,0,L|448:264,1,66.8,2|0,0:3|0:0,0:0:0:0:
288,172,494819,2,0,P|280:140|289:107,1,66.8,0|2,0:0|0:0,0:0:0:0:
375,30,495114,1,0,0:0:0:0:
245,30,495261,6,0,B|306:6|306:58|374:30,1,133.6,2|2,0:3|0:0,0:0:0:0:
512,132,495702,2,0,P|471:123|420:116,1,66.8,2|0,0:3|0:0,0:0:0:0:
206,200,495996,5,2,0:1:0:0:
222,184,496143,2,0,P|262:175|314:168,1,66.8,2|0,0:0|0:0,0:0:0:0:
444,344,496437,6,0,B|419:345|419:345|388:330,1,44.5333333333333,10|0,0:0|0:0,0:0:0:0:
428,180,496633,2,0,B|453:179|453:179|484:194,1,44.5333333333333,10|0,0:0|0:0,0:0:0:0:
436,264,496829,2,0,L|364:248,1,44.5333333333333,10|0,0:0|0:0,0:0:0:0:
206,200,497025,6,0,B|231:201|231:201|262:186,1,44.5333333333333,10|0,0:0|0:0,0:0:0:0:
216,36,497221,2,0,B|191:35|191:35|160:50,1,44.5333333333333,10|0,0:0|0:0,0:0:0:0:
214,120,497417,2,0,L|286:104,1,44.5333333333333,10|0,0:0|0:0,0:0:0:0:
472,60,497614,6,0,P|444:108|480:72,1,146.125,12|0,0:0|0:0,0:0:0:0:
480,88,498202,2,0,B|408:56|408:128|336:92,1,146.125
340,94,498790,6,0,P|376:150|360:206,1,125.25,4|0,0:0|0:0,0:0:0:0:
348,228,499084,1,8,0:0:0:0:
160,180,499231,6,0,L|244:168,1,83.5,0|2,0:0|0:0,0:0:0:0:
440,312,499525,1,2,0:0:0:0:
361,203,499672,1,8,0:0:0:0:
224,348,499819,6,0,B|160:332|160:332|124:352|124:352|64:340,1,167,4|2,0:0|0:0,0:0:0:0:
212,260,500261,1,8,0:0:0:0:
65,340,500408,2,0,P|33:266|70:195,1,167,4|2,0:0|0:3,0:0:0:0:
236,80,500849,2,0,P|196:100|152:96,1,83.5,8|2,0:0|0:0,0:0:0:0:
162,102,501069,1,2,0:0:0:0:
162,102,501143,6,0,B|250:62|232:152|332:104,1,167,4|8,0:0|0:0,0:0:0:0:
436,40,501584,1,0,0:0:0:0:
272,224,501731,5,2,0:0:0:0:
468,168,501878,1,2,0:0:0:0:
304,80,502025,1,8,0:0:0:0:
192,296,502172,6,0,P|256:248|336:268,1,167,2|4,0:3|0:3,0:0:0:0:
384,144,502614,1,8,0:0:0:0:
275,336,502761,6,0,P|176:318|96:304,1,167,4|4,0:0|0:3,0:0:0:0:
0,208,503202,1,8,0:0:0:0:
180,116,503349,1,2,0:3:0:0:
0,100,503496,6,0,B|80:132|80:60|160:92,1,167,4|8,0:0|0:0,0:0:0:0:
110,306,503937,2,0,P|94:266|108:224,1,83.5,2|2,0:3|0:0,0:0:0:0:
292,80,504231,2,0,P|302:119|286:157,1,83.5,2|8,0:3|0:0,0:0:0:0:
24,340,504525,6,0,B|84:332|84:332|124:356|124:356|192:348,1,167,4|2,0:0|0:0,0:0:0:0:
320,264,504967,1,8,0:0:0:0:
392,356,505114,2,0,P|315:298|239:314,1,167,4|2,0:3|0:0,0:0:0:0:
136,144,505555,1,8,0:0:0:0:
48,240,505702,1,0,0:0:0:0:
48,240,505775,1,0,3:0:0:0:
48,240,505849,6,0,B|152:264|152:264|208:224,1,167,4|8,0:0|0:0,0:0:0:0:
276,164,506290,1,2,0:3:0:0:
160,108,506437,5,4,0:0:0:0:
356,212,506584,1,2,0:0:0:0:
152,304,506731,1,8,0:0:0:0:
336,372,506878,6,0,L|168:328,1,167,4|2,0:0|3:3,0:0:0:0:
16,212,507319,2,0,L|104:236,1,83.5,8|2,0:0|3:0,0:0:0:0:
276,164,507614,6,0,P|217:178|185:188,1,83.5,2|2,0:3|0:0,0:0:0:0:
60,364,507908,2,0,P|100:352|140:343,1,83.5,8|2,0:0|0:3,0:0:0:0:
400,268,508202,6,0,P|336:284|288:248,1,125.25,6|0,0:0|0:0,0:0:0:0:
290,252,508496,6,0,P|301:308|310:356,1,104.375,12|0,0:0|0:0,0:0:0:0:
400,268,508790,1,2,0:0:0:0:
195,184,508937,1,2,0:0:0:0:
352,116,509084,1,8,0:0:0:0:
236,72,509231,6,0,P|320:92|380:40,1,167,4|2,0:3|0:0,0:0:0:0:
188,144,509672,1,8,0:0:0:0:
304,216,509819,2,0,B|376:184|384:268|464:220,1,167,4|4,0:0|0:3,0:0:0:0:
292,312,510261,2,0,L|192:292,1,83.5,8|0,0:0|0:0,0:0:0:0:
40,176,510555,6,0,B|32:232|12:288|12:288|52:332,1,167,4|8,0:0|0:0,0:0:0:0:
176,272,510996,1,2,0:3:0:0:
46,326,511143,5,2,0:0:0:0:
140,192,511290,1,2,0:0:0:0:
236,372,511437,1,8,0:0:0:0:
376,272,511584,6,0,P|266:253|208:244,1,167,4|2,0:0|0:0,0:0:0:0:
40,176,512025,1,8,0:0:0:0:
224,136,512172,6,0,B|163:146|163:146|123:130|123:130|62:142,1,167,4|2,0:0|0:0,0:0:0:0:
116,240,512614,1,8,0:0:0:0:
184,48,512761,1,2,0:3:0:0:
304,156,512908,6,0,P|364:176|460:132,1,167,4|8,0:0|0:0,0:0:0:0:
356,0,513349,2,0,P|368:72|372:100,1,83.5,0|2,0:0|0:0,0:0:0:0:
400,248,513643,1,4,0:3:0:0:
472,112,513790,1,8,0:0:0:0:
257,280,513937,6,0,P|320:230|399:247,1,167,4|2,0:0|0:0,0:0:0:0:
344,324,514378,1,8,0:0:0:0:
191,227,514525,2,0,P|130:238|91:247,1,83.5,4|2,0:3|0:3,0:0:0:0:
136,148,514819,1,8,0:0:0:0:
168,340,514967,1,10,0:0:0:0:
5,221,515114,6,0,P|53:285|109:233,1,167,4|0,0:0|0:0,0:0:0:0:
176,56,515555,1,10,0:0:0:0:
64,168,515702,1,8,0:0:0:0:
64,168,515775,1,8,0:0:0:0:
64,168,515849,1,2,0:0:0:0:
257,280,515996,1,4,3:0:0:0:
160,156,516143,1,8,0:0:0:0:
52,304,516290,6,0,P|64:344|80:388,1,83.5,2|0,0:3|0:3,0:0:0:0:
257,280,516584,2,0,P|245:320|229:364,1,83.5,2|8,0:3|0:0,0:0:0:0:
151,278,516878,1,2,0:3:0:0:
332,352,517025,2,0,L|416:336,1,83.5,0|2,0:0|0:3,0:0:0:0:
233,263,517319,2,0,L|150:278,1,83.5,8|0,0:0|0:0,0:0:0:0:
368,160,517614,5,4,0:0:0:0:
204,100,517761,1,8,0:0:0:0:
240,240,517908,1,2,0:0:0:0:
356,88,518055,1,8,0:0:0:0:
316,280,518202,1,2,0:0:0:0:
276,164,518349,1,8,0:0:0:0:
336,360,518496,1,2,0:0:0:0:
73,271,518643,6,0,P|110:287|151:278,1,83.5,8|4,0:0|0:3,0:0:0:0:
288,184,518937,2,0,P|325:167|366:176,1,83.5,8|2,0:0|0:0,0:0:0:0:
512,336,519231,6,0,P|424:288|360:308,1,167,8|8,0:0|0:0,0:0:0:0:
448,216,519672,1,2,0:0:0:0:
300,368,519819,1,8,0:0:0:0:
268,200,519967,5,4,0:0:0:0:
364,305,520114,1,8,0:0:0:0:
260,108,520261,1,2,0:0:0:0:
144,248,520408,6,0,P|172:240|232:224,1,83.5,8|2,0:0|0:0,0:0:0:0:
388,128,520702,2,0,P|360:120|300:104,1,83.5,8|4,0:0|0:3,0:0:0:0:
108,24,520996,6,0,P|116:52|132:112,1,83.5,8|2,0:0|0:0,0:0:0:0:
202,306,521290,2,0,P|212:265|224:225,1,83.5,8|2,0:0|0:0,0:0:0:0:
392,104,521584,5,8,0:0:0:0:
184,160,521731,1,4,0:3:0:0:
368,236,521878,1,8,0:0:0:0:
272,44,522025,1,2,0:0:0:0:
100,192,522172,1,8,0:0:0:0:
308,136,522319,5,4,0:0:0:0:
120,64,522467,1,8,0:0:0:0:
223,225,522614,1,4,0:3:0:0:
32,172,522761,6,0,P|48:216|60:256,1,83.5,8|2,0:0|0:0,0:0:0:0:
183,384,523055,2,0,P|195:344|209:304,1,83.5,8|2,0:0|0:0,0:0:0:0:
424,216,523349,6,0,P|340:244|276:204,1,167,8|8,0:0|0:0,0:0:0:0:
180,80,523790,1,2,0:0:0:0:
352,160,523937,5,8,0:0:0:0:
188,284,524084,1,2,0:0:0:0:
264,128,524231,1,8,0:0:0:0:
356,284,524378,2,0,L|376:352,1,41.75,8|8,0:0|0:0,0:0:0:0:
440,364,524525,6,0,B|336:308|296:400|196:332,1,250.5,4|8,0:0|3:0,0:0:0:0:
112,240,525114,2,0,P|50:254|24:264,1,83.5,2|0,3:0|3:0,0:0:0:0:
118,355,525408,2,0,P|179:340|206:331,1,83.5,2|0,3:0|3:0,0:0:0:0:
224,216,525702,1,2,3:0:0:0:
224,216,525996,5,2,1:2:0:0:
96,160,526143,1,8,0:2:0:0:
244,112,526290,1,0,3:0:0:0:
104,252,526437,1,4,3:0:0:0:
276,328,526584,1,8,0:0:0:0:
168,136,526731,1,2,0:1:0:0:
36,352,526878,1,2,0:1:0:0:
110,232,527025,6,0,L|102:256,1,20.875,12|0,0:0|2:0,0:0:0:0:
256,188,528055,6,0,L|248:212,1,20.875,12|0,0:0|2:0,0:0:0:0:
408,148,529378,6,0,L|396:198,1,50.1,12|0,0:0|2:0,0:0:0:0:
