osu file format v14

[General]
AudioFilename: audio.mp3
AudioLeadIn: 0
PreviewTime: 126052
Countdown: 1
SampleSet: Soft
StackLeniency: 0.5
Mode: 0
LetterboxInBreaks: 0
WidescreenStoryboard: 1

[Editor]
Bookmarks: 149681,160004,163875
DistanceSpacing: 1
BeatDivisor: 2
GridSize: 4
TimelineZoom: 0.9

[Metadata]
Title:Senaka Awase no Kuukyo (with Kakichoco)
TitleUnicode:背中合わせの空虚 (with 柿チョコ)
Artist:*namirin
ArtistUnicode:*なみりん
Creator:jonathanlfj
Version:handsome's Normal
Source:
Tags:柿チョコ Kakichoco 5colors featured artist handsome Delis
BeatmapID:1514697
BeatmapSetID:716249

[Difficulty]
HPDrainRate:4
CircleSize:3.5
OverallDifficulty:4
ApproachRate:5
SliderMultiplier:0.999999999999999
SliderTickRate:1

[Events]
//Background and Video events
0,0,"collab.png",0,0
//Break Periods
//Storyboard Layer 0 (Background)
//Storyboard Layer 1 (Fail)
//Storyboard Layer 2 (Pass)
//Storyboard Layer 3 (Foreground)
//Storyboard Sound Samples

[TimingPoints]
1940,322.58064516129,4,2,1,50,1,0
1940,-125,4,2,1,50,0,0
9359,-125,4,2,1,60,0,0
9681,-100,4,2,1,70,0,0
17423,-100,4,2,1,60,0,0
19359,-100,4,2,1,70,0,0
20004,-100,4,2,1,60,0,0
38069,-100,4,1,1,60,0,0
38714,-100,4,2,1,60,0,0
38875,-100,4,1,1,60,0,0
39359,-100,4,2,1,70,0,0
40165,-100,4,2,1,70,0,0
40649,-100,4,2,1,65,0,0
43230,-100,4,2,1,65,0,0
48391,-100,4,2,1,55,0,0
49036,-100,4,2,1,60,0,0
49681,-100,4,2,1,65,0,0
50972,-100,4,2,1,65,0,0
53552,-100,4,2,1,55,0,0
54117,-100,4,2,1,5,0,0
54198,-100,4,2,1,60,0,0
54762,-100,4,2,1,5,0,0
54843,-100,4,2,1,65,0,0
55407,-100,4,2,1,5,0,0
55488,-100,4,2,1,65,0,0
56133,-100,4,2,1,65,0,0
60004,-100,4,2,1,70,0,0
60488,-100,4,2,1,75,0,0
61294,-100,4,2,1,75,0,1
66375,-100,4,2,1,75,0,0
66456,-100,4,2,1,75,0,1
71536,-100,4,2,1,75,0,0
71617,-100,4,2,1,75,0,1
82262,-100,4,2,1,60,0,1
82585,-100,4,2,1,65,0,1
82907,-100,4,2,1,70,0,1
83230,-100,4,2,1,75,0,0
84520,-100,4,2,1,60,0,0
88633,-100,4,2,1,5,0,0
88714,-100,4,2,1,60,0,0
90972,-100,4,2,1,40,0,0
91133,-100,4,2,1,45,0,0
91294,-100,4,2,1,50,0,0
91456,-100,4,2,1,55,0,0
91778,-100,4,2,1,60,0,0
91939,-100,4,2,1,65,0,0
92101,-100,4,2,1,70,0,0
92262,-100,4,2,1,60,0,0
93794,-100,4,2,1,5,0,0
93875,-100,4,2,1,60,0,0
94198,-100,4,2,1,70,0,0
95488,322.58064516129,4,2,1,60,1,0
99278,-100,4,2,1,5,0,0
99358,-100,4,2,1,60,0,0
103229,-100,4,1,1,60,0,0
103794,-100,4,2,1,5,0,0
103875,-100,4,2,1,60,0,0
104036,-100,4,1,1,60,0,0
104439,-100,4,2,1,5,0,0
104520,-100,4,2,1,70,0,0
105246,-100,4,2,1,5,0,0
105326,-100,4,2,1,70,0,0
105810,-100,4,2,1,65,0,0
108310,-100,4,2,1,5,0,0
108391,-100,4,2,1,65,0,0
113552,-100,4,2,1,55,0,0
114197,-100,4,2,1,60,0,0
114842,-100,4,2,1,65,0,0
118713,-100,4,2,1,55,0,0
119278,-100,4,2,1,5,0,0
119358,-100,4,2,1,60,0,0
119923,-100,4,2,1,5,0,0
120004,-100,4,2,1,65,0,0
120568,-100,4,2,1,5,0,0
120649,-100,4,2,1,65,0,0
125165,-100,4,2,1,70,0,0
125649,-100,4,2,1,75,0,0
126455,-100,4,2,1,75,0,1
131536,-100,4,2,1,75,0,0
131617,-100,4,2,1,75,0,1
136697,-100,4,2,1,75,0,0
136778,-100,4,2,1,75,0,1
147423,-100,4,2,1,60,0,1
147746,-100,4,2,1,65,0,1
148068,-100,4,2,1,70,0,1
148391,-100,4,2,1,75,0,0
160004,-100,4,2,1,55,0,0
163149,-100,4,2,1,5,0,0
163229,-100,4,2,1,55,0,0
163794,-100,4,2,1,5,0,0
163875,-100,4,2,1,55,0,0
165729,-100,4,2,1,5,0,0
165810,-100,4,2,1,55,0,0
167665,-100,4,2,1,5,0,0
167746,-100,4,2,1,60,0,0
169197,-100,4,2,1,60,0,0
169600,-100,4,2,1,5,0,0
169681,-100,4,2,1,60,0,0
170326,-100,4,2,1,65,0,0
178068,-100,4,2,1,70,0,0
179358,-100,4,2,1,65,0,0
188310,-100,4,2,1,5,0,0
188391,-100,4,2,1,65,0,0
189681,-100,4,2,1,75,0,0
192262,-100,4,2,1,80,0,1
197342,-100,4,2,1,80,0,0
197423,-100,4,2,1,80,0,1
202504,-100,4,2,1,80,0,0
202584,-100,4,2,1,80,0,1
215810,-100,4,2,1,65,0,1
216133,-100,4,2,1,70,0,1
216455,-100,4,2,1,75,0,1
216778,-100,4,2,1,80,0,0
218068,-100,4,2,1,70,0,0
222181,-100,4,2,1,5,0,0
222262,-100,4,2,1,70,0,0
224681,-100,4,2,1,40,0,0
224842,-100,4,2,1,45,0,0
225004,-100,4,2,1,50,0,0
225165,-100,4,2,1,55,0,0
225326,-100,4,2,1,60,0,0
225487,-100,4,2,1,65,0,0
225649,-100,4,2,1,70,0,0
225810,-100,4,2,1,60,0,0
227342,-100,4,2,1,5,0,0
227423,-100,4,2,1,65,0,0
227746,-100,4,2,1,70,0,0
228471,-100,4,2,1,50,0,0
230971,-100,4,2,1,30,0,0

[Colours]
Combo1 : 240,142,206
Combo2 : 113,63,197
Combo3 : 125,129,255
Combo4 : 255,53,139

[HitObjects]
139,114,1940,38,0,P|89:81|30:79,2,120,2|2|0,0:0|0:0|0:0,0:0:0:0:
166,197,3230,2,0,P|215:229|274:231,1,120,2|2,0:0|0:0,0:0:0:0:
305,199,3875,1,0,0:0:0:0:
298,23,4520,2,0,P|352:25|387:47,1,79.9999999999999,2|0,0:0|0:0,0:0:0:0:
417,24,5004,5,2,0:0:0:0:
432,110,5327,1,0,0:0:0:0:
446,196,5649,1,0,0:0:0:0:
426,235,5810,2,0,P|381:251|337:236,1,79.9999999999999,2|0,0:0|0:0,0:0:0:0:
318,214,6294,37,2,0:0:0:0:
230,207,6617,1,0,0:0:0:0:
142,201,6939,1,0,0:0:0:0:
54,196,7262,1,0,0:0:0:0:
21,166,7423,2,0,P|10:124|28:73,1,79.9999999999999,0|0,0:0|0:0,0:0:0:0:
85,31,8069,6,0,L|181:21,1,79.9999999999999,2|2,0:0|0:0,0:0:0:0:
232,79,8714,2,0,L|328:89,1,79.9999999999999,0|0,0:0|0:0,0:0:0:0:
384,38,9359,2,0,L|398:84,1,40,0|0,0:0|0:0,0:0:0:0:
446,96,9681,6,0,P|412:133|403:181,1,99.9999999999999,4|0,1:0|1:0,0:0:0:0:
355,198,10165,2,0,P|357:247|384:288,1,99.9999999999999,8|8,1:3|1:3,0:0:0:0:
373,337,10649,1,8,1:0:0:0:
277,365,10972,2,0,P|204:325|117:327,1,150,2|8,1:2|1:3,0:0:0:0:
39,335,11778,2,0,L|23:404,2,50,8|8|8,1:3|1:0|1:0,0:0:0:0:
30,285,12262,6,0,P|4:239|7:163,1,99.9999999999999,4|2,1:0|1:2,0:0:0:0:
45,172,12746,2,0,P|59:121|115:69,1,99.9999999999999,8|8,1:3|1:3,0:0:0:0:
139,83,13230,1,8,1:0:0:0:
215,18,13552,2,0,L|328:5,1,99.9999999999999,4|2,1:0|1:2,0:0:0:0:
356,97,14198,2,0,L|243:110,1,99.9999999999999,4|8,1:0|1:3,0:0:0:0:
174,165,14843,6,0,P|168:222|208:279,1,99.9999999999999,4|2,1:0|1:2,0:0:0:0:
235,268,15327,1,8,1:3:0:0:
325,310,15649,2,0,L|336:363,2,50,8|8|8,1:0|1:3|1:0,0:0:0:0:
358,272,16133,2,0,P|364:215|324:158,1,99.9999999999999,4|2,1:0|1:2,0:0:0:0:
297,169,16617,1,2,1:2:0:0:
207,127,16939,2,0,L|196:74,2,50,8|8|8,1:0|1:0|1:0,0:0:0:0:
174,165,17423,6,0,L|63:155,1,99.9999999999999,4|0,0:1|0:0,0:0:0:0:
30,246,18069,2,0,L|141:256,1,99.9999999999999,0|0,0:0|0:0,0:0:0:0:
187,336,18714,2,0,P|240:284|313:272,1,150,4|8,1:0|1:3,0:0:0:0:
356,299,19359,1,10,1:0:0:0:
356,299,19520,1,10,1:0:0:0:
439,354,19843,5,0,0:0:0:0:
439,354,20004,2,0,L|446:230,1,99.9999999999999,4|8,1:0|1:0,0:0:0:0:
492,240,20488,2,0,L|485:116,1,99.9999999999999,0|0,0:0|1:0,0:0:0:0:
454,101,20972,1,8,1:0:0:0:
380,32,21294,2,0,P|355:75|312:100,1,99.9999999999999,2|8,1:2|1:0,0:0:0:0:
293,146,21778,2,0,P|245:158|197:145,1,99.9999999999999,0|0,0:0|1:0,0:0:0:0:
150,162,22262,1,8,1:0:0:0:
58,120,22585,6,0,P|46:63|5:5,2,99.9999999999999,2|8|0,1:2|1:0|1:0,0:0:0:0:
15,210,23552,1,8,1:0:0:0:
88,278,23875,2,0,L|191:258,1,99.9999999999999,2|8,1:2|1:0,0:0:0:0:
219,221,24359,1,2,1:2:0:0:
243,124,24681,1,0,1:0:0:0:
270,27,25004,37,0,0:0:0:0:
270,27,25165,2,0,L|391:12,1,99.9999999999999,4|8,1:0|1:0,0:0:0:0:
385,62,25649,2,0,L|506:77,1,99.9999999999999,2|0,0:0|1:0,0:0:0:0:
511,116,26133,1,8,1:0:0:0:
440,186,26456,2,0,P|452:231|428:307,1,99.9999999999999,2|8,1:2|1:0,0:0:0:0:
392,288,26939,2,0,P|368:328|297:365,1,99.9999999999999,2|0,0:0|1:0,0:0:0:0:
277,343,27423,1,8,1:0:0:0:
232,253,27746,6,0,B|128:219|150:312|38:271,1,200,4|0,1:0|0:0,0:0:0:0:
30,72,29036,2,0,L|153:49,1,99.9999999999999,0|0,0:0|0:0,0:0:0:0:
162,17,29520,1,0,1:0:0:0:
162,17,29681,1,0,0:0:0:0:
260,32,30004,1,8,1:0:0:0:
358,48,30327,6,0,L|376:155,1,99.9999999999999,4|8,1:0|1:0,0:0:0:0:
422,161,30810,2,0,P|397:213|398:269,1,99.9999999999999,0|0,0:0|1:0,0:0:0:0:
434,286,31294,1,8,1:0:0:0:
361,355,31617,2,0,P|299:369|258:340,1,99.9999999999999,2|8,1:2|1:0,0:0:0:0:
221,367,32101,2,0,L|229:246,1,99.9999999999999,0|0,0:0|1:0,0:0:0:0:
201,224,32585,1,8,1:0:0:0:
101,235,32907,6,0,P|66:271|8:278,2,99.9999999999999,2|8|0,1:2|1:0|0:0,0:0:0:0:
53,146,33875,1,8,1:0:0:0:
132,84,34198,2,0,L|245:100,1,99.9999999999999,2|8,1:2|1:0,0:0:0:0:
295,174,34843,2,0,P|266:228|274:286,1,99.9999999999999,2|8,1:2|1:0,0:0:0:0:
336,337,35488,38,0,L|458:328,1,99.9999999999999,4|8,1:0|1:0,0:0:0:0:
471,365,35972,2,0,P|511:312|508:248,1,99.9999999999999,2|0,0:0|1:0,0:0:0:0:
498,232,36456,1,8,1:0:0:0:
417,173,36778,2,0,L|433:55,1,99.9999999999999,2|8,1:2|1:0,0:0:0:0:
406,30,37262,1,0,0:0:0:0:
406,30,37423,2,0,P|362:69|301:67,1,99.9999999999999,2|8,0:0|1:0,0:0:0:0:
274,161,38069,6,0,L|165:148,1,99.9999999999999,4|0,1:0|0:0,0:0:0:0:
102,79,38714,1,8,1:0:0:0:
102,78,38875,2,0,P|61:106|40:151,1,99.9999999999999,8|0,1:0|0:0,0:0:0:0:
2,184,39359,6,2,L|26:294,1,99.9999999999999,10|0,1:0|1:0,1:0:0:0:
36,330,39843,1,2,1:0:0:0:
133,348,40165,2,2,P|172:319|221:313,1,99.9999999999999,6|0,1:3|0:0,1:0:0:0:
255,350,40649,6,0,L|279:232,1,99.9999999999999,4|8,1:0|1:0,0:0:0:0:
323,238,41133,2,0,L|299:120,1,99.9999999999999,0|0,0:0|1:0,0:0:0:0:
330,98,41617,1,8,1:0:0:0:
261,25,41939,2,0,P|178:43|142:91,1,99.9999999999999,2|8,1:2|1:0,0:0:0:0:
130,84,42423,1,2,0:0:0:0:
129,83,42585,2,0,P|177:98|212:133,1,99.9999999999999,2|8,1:2|1:0,0:0:0:0:
311,126,43230,38,0,L|294:245,1,99.9999999999999,2|8,1:2|1:0,0:0:0:0:
279,272,43714,2,0,P|338:250|395:261,2,99.9999999999999,2|0|0,0:0|1:0|0:0,0:0:0:0:
234,293,44520,2,0,L|120:278,1,99.9999999999999,2|8,1:2|1:0,0:0:0:0:
95,310,45004,1,2,0:0:0:0:
69,213,45327,1,0,1:0:0:0:
44,116,45649,5,2,0:0:0:0:
44,116,45810,2,0,L|157:96,1,99.9999999999999,0|8,0:0|1:0,0:0:0:0:
179,132,46294,2,0,P|221:95|249:23,1,99.9999999999999,0|0,0:0|1:0,0:0:0:0:
222,10,46778,1,8,1:0:0:0:
321,16,47101,1,2,1:2:0:0:
400,77,47423,1,8,1:0:0:0:
426,173,47746,1,2,1:2:0:0:
409,271,48069,1,10,1:0:0:0:
321,319,48391,38,2,B|242:306|242:306|205:319|205:319|106:303,2,200,6|6|6,1:0|1:0|1:0,1:0:0:0:
403,136,50327,2,0,L|304:144,1,99.9999999999999,2|12,1:2|1:0,0:0:0:0:
290,44,50972,22,0,P|227:45|178:92,1,99.9999999999999,4|8,1:0|1:0,0:0:0:0:
151,42,51456,2,0,L|36:31,1,99.9999999999999,0|0,0:0|1:0,0:0:0:0:
10,60,51939,1,8,1:0:0:0:
79,132,52262,2,0,L|57:256,1,99.9999999999999,2|8,1:2|1:0,0:0:0:0:
89,271,52746,1,2,0:0:0:0:
89,271,52907,2,0,P|47:298|-1:301,2,99.9999999999999,0|8|0,1:0|1:0|1:0,0:0:0:0:
171,328,53875,6,0,L|279:308,1,99.9999999999999,14|0,1:0|1:0,0:0:0:0:
326,227,54520,2,0,L|434:207,1,99.9999999999999,14|0,1:0|1:0,0:0:0:0:
384,117,55165,2,0,L|276:137,1,99.9999999999999,14|0,1:0|1:0,0:0:0:0:
229,218,55810,2,0,L|139:234,1,50,10|0,1:0|1:0,0:0:0:0:
149,266,56133,38,0,P|118:205|70:181,1,99.9999999999999,4|8,1:0|1:0,0:0:0:0:
1,147,56778,2,0,L|11:31,1,99.9999999999999,2|8,1:2|1:0,0:0:0:0:
105,17,57423,1,2,1:2:0:0:
189,71,57746,1,8,1:0:0:0:
288,77,58069,1,2,1:2:0:0:
378,35,58391,2,0,L|399:87,1,50,8|0,1:0|0:0,0:0:0:0:
445,93,58714,6,0,P|419:162|433:210,1,99.9999999999999,6|8,1:0|1:0,0:0:0:0:
376,205,59198,2,0,L|405:320,1,99.9999999999999,2|0,1:0|1:0,0:0:0:0:
370,342,59681,2,0,P|319:363|256:329,1,99.9999999999999,10|8,1:0|1:0,0:0:0:0:
240,317,60165,2,0,L|186:331,2,50,8|8|8,1:0|1:0|1:0,0:0:0:0:
285,173,60972,2,0,L|218:165,1,50,8|8,1:0|1:0,0:0:0:0:
193,194,61294,5,4,1:0:0:0:
193,194,61456,1,2,0:0:0:0:
116,258,61778,2,0,P|69:229|50:171,1,99.9999999999999,6|0,2:1|1:0,0:0:0:0:
2,178,62262,2,2,P|-10:124|16:69,1,99.9999999999999,6|0,1:0|0:0,1:0:0:0:
87,27,62907,2,0,L|204:16,1,99.9999999999999,8|0,1:0|1:0,0:0:0:0:
274,65,63552,1,8,1:0:0:0:
364,22,63875,6,0,P|399:59|415:105,1,99.9999999999999,2|8,1:2|1:0,0:0:0:0:
498,162,64520,2,0,P|496:211|475:256,1,99.9999999999999,0|8,0:0|1:0,0:0:0:0:
375,260,65165,2,0,L|400:367,2,99.9999999999999,2|8|8,1:2|1:0|1:0,0:0:0:0:
279,229,66133,2,0,L|285:138,1,50,8|8,1:0|1:0,0:0:0:0:
255,136,66456,37,4,1:0:0:0:
255,136,66617,1,2,0:0:0:0:
290,42,66939,2,0,L|168:25,1,99.9999999999999,6|0,2:1|1:0,0:0:0:0:
158,66,67423,2,2,L|36:83,1,99.9999999999999,6|0,1:0|0:0,1:0:0:0:
9,167,68069,2,0,P|60:200|90:259,1,99.9999999999999,8|0,1:0|1:0,0:0:0:0:
48,326,68714,1,8,1:0:0:0:
137,371,69036,6,2,L|254:352,1,99.9999999999999,2|8,1:0|1:0,1:0:0:0:
257,309,69520,2,0,L|374:328,1,99.9999999999999,0|8,0:0|1:0,0:0:0:0:
397,353,70004,1,0,0:0:0:0:
478,293,70327,2,0,L|504:348,2,50,4|0|8,1:0|0:0|1:0,0:0:0:0:
487,244,70810,2,2,P|508:188|496:130,1,99.9999999999999,2|2,1:0|1:0,1:0:0:0:
464,118,71294,2,0,L|474:65,1,50,8|8,1:0|1:3,0:0:0:0:
454,22,71617,5,4,1:0:0:0:
454,22,71778,1,2,0:0:0:0:
361,59,72101,2,0,L|251:45,1,99.9999999999999,6|0,2:1|1:0,0:0:0:0:
220,17,72585,2,2,P|162:52|150:108,1,99.9999999999999,6|0,1:0|0:0,1:0:0:0:
229,141,73230,2,0,L|245:258,1,99.9999999999999,8|0,1:0|1:0,0:0:0:0:
327,293,73875,1,8,1:0:0:0:
266,373,74198,6,0,P|191:372|153:342,1,99.9999999999999,2|8,1:2|1:0,0:0:0:0:
71,354,74843,2,0,L|86:242,1,99.9999999999999,0|8,1:0|1:0,0:0:0:0:
52,160,75488,2,0,L|-18:177,2,50,2|0|12,1:2|1:0|1:0,0:0:0:0:
96,70,76133,2,0,L|26:53,2,50,0|0|12,1:0|1:0|1:0,0:0:0:0:
135,38,76617,37,0,0:0:0:0:
135,38,76778,2,0,P|190:47|237:90,1,99.9999999999999,4|8,1:0|1:0,0:0:0:0:
270,51,77262,2,0,L|260:164,1,99.9999999999999,0|0,0:0|1:0,0:0:0:0:
300,181,77746,1,8,1:0:0:0:
358,262,78069,2,0,L|425:253,2,50,6|0|8,1:0|0:0|1:0,0:0:0:0:
330,303,78552,2,2,P|273:340|212:321,1,99.9999999999999,6|0,1:0|1:0,1:0:0:0:
206,372,79036,1,8,1:0:0:0:
107,351,79359,22,0,L|113:226,1,99.9999999999999,4|8,1:0|1:0,0:0:0:0:
155,226,79843,2,0,L|149:101,1,99.9999999999999,0|0,0:0|1:0,0:0:0:0:
123,83,80327,1,8,1:0:0:0:
217,50,80649,2,0,L|211:-11,2,50,6|0|8,1:0|0:0|1:0,0:0:0:0:
261,73,81133,2,2,P|313:91|387:58,1,99.9999999999999,6|0,1:0|1:0,1:0:0:0:
384,40,81617,1,8,1:0:0:0:
483,52,81939,6,0,L|497:165,1,99.9999999999999,6|0,1:0|1:0,0:0:0:0:
457,184,82423,1,0,1:0:0:0:
457,184,82585,2,0,P|390:195|346:243,1,99.9999999999999,8|8,1:0|1:0,0:0:0:0:
315,213,83069,2,0,P|305:238|311:292,1,50,10|2,1:0|1:0,0:0:0:0:
20,361,84198,2,0,L|8:295,1,50,8|8,1:0|1:0,0:0:0:0:
35,268,84520,6,0,L|149:279,1,99.9999999999999,4|8,1:0|1:0,0:0:0:0:
155,323,85004,2,0,L|269:312,1,99.9999999999999,2|2,0:0|1:2,0:0:0:0:
304,309,85488,1,8,1:0:0:0:
381,371,85810,2,2,P|419:329|424:278,1,99.9999999999999,2|8,1:0|1:0,1:0:0:0:
460,193,86456,2,0,L|517:184,2,50,0|0|8,1:0|1:0|1:0,0:0:0:0:
410,106,87101,6,2,P|361:111|313:153,1,99.9999999999999,6|8,1:0|1:0,1:0:0:0:
279,113,87585,2,0,P|247:151|243:214,1,99.9999999999999,2|2,0:0|1:2,0:0:0:0:
195,222,88069,1,8,1:0:0:0:
116,159,88391,2,2,L|5:173,1,99.9999999999999,6|10,1:0|1:0,1:0:0:0:
38,73,89036,2,2,L|149:59,1,99.9999999999999,6|10,1:0|1:0,1:0:0:0:
222,112,89681,6,0,L|237:61,2,50,4|0|8,1:0|1:0|1:0,0:0:0:0:
180,140,90165,2,0,P|221:192|232:252,1,99.9999999999999,2|8,1:2|1:0,0:0:0:0:
189,315,90810,1,8,1:0:0:0:
189,315,90972,2,0,L|291:328,1,99.9999999999999,4|2,1:0|1:2,0:0:0:0:
323,291,91456,1,2,1:2:0:0:
323,291,91617,2,0,L|427:273,1,99.9999999999999,0|8,1:0|1:0,0:0:0:0:
465,298,92101,5,8,1:0:0:0:
465,298,92262,2,0,L|478:192,1,99.9999999999999,4|0,0:1|1:0,0:0:0:0:
387,153,92907,2,0,L|399:53,1,99.9999999999999,4|4,1:3|1:3,0:0:0:0:
306,16,93552,2,0,P|249:70|158:82,1,150,4|8,1:0|1:3,0:0:0:0:
133,67,94198,1,10,1:0:0:0:
133,67,94359,1,10,1:0:0:0:
28,293,95165,2,0,L|102:277,1,50,8|8,1:0|1:0,0:0:0:0:
117,312,95488,38,0,P|176:287|205:229,1,99.9999999999999,4|8,1:0|1:0,0:0:0:0:
171,215,95971,2,8,P|195:155|174:94,1,99.9999999999999,0|0,0:0|1:0,0:0:0:0:
144,99,96455,1,8,1:0:0:0:
207,21,96778,2,0,L|328:4,1,99.9999999999999,2|8,1:2|1:0,0:0:0:0:
332,49,97262,2,0,L|453:66,1,99.9999999999999,2|0,0:0|1:0,0:0:0:0:
476,42,97746,1,8,1:0:0:0:
503,137,98068,6,0,P|454:149|416:180,1,99.9999999999999,2|8,1:2|1:0,0:0:0:0:
317,166,98713,2,0,L|299:104,2,50,0|0|8,0:0|1:0|1:0,0:0:0:0:
258,247,99358,2,0,L|248:365,1,99.9999999999999,2|8,1:2|1:0,0:0:0:0:
151,367,100004,2,0,L|161:249,1,99.9999999999999,0|8,1:0|1:0,0:0:0:0:
128,227,100488,1,0,0:0:0:0:
128,227,100649,38,0,P|73:247|25:244,2,99.9999999999999,4|8|0,1:0|1:0|1:0,0:0:0:0:
156,131,101617,1,8,1:0:0:0:
107,43,101939,2,0,L|233:25,1,99.9999999999999,2|8,1:2|1:0,0:0:0:0:
249,54,102423,1,0,0:0:0:0:
249,54,102584,2,0,L|375:72,1,99.9999999999999,2|8,0:0|1:0,0:0:0:0:
435,20,103229,5,4,1:0:0:0:
435,20,103391,2,0,P|473:76|474:131,1,99.9999999999999,8|0,1:0|0:0,0:0:0:0:
450,149,103875,1,8,1:0:0:0:
450,149,104037,2,0,P|437:215|399:255,1,99.9999999999999,8|0,1:0|0:0,0:0:0:0:
371,222,104520,1,10,1:0:0:0:
371,222,104681,1,2,1:0:0:0:
299,291,105004,2,2,L|185:281,1,99.9999999999999,2|6,1:0|1:3,1:0:0:0:
121,344,105649,5,0,0:0:0:0:
121,344,105810,2,0,P|99:298|37:260,1,99.9999999999999,4|8,1:0|1:0,0:0:0:0:
18,293,106294,2,0,L|-5:174,1,99.9999999999999,2|0,0:0|1:0,0:0:0:0:
20,149,106778,1,8,1:0:0:0:
115,177,107100,2,0,L|221:161,1,99.9999999999999,2|8,1:2|1:0,0:0:0:0:
242,121,107584,1,2,0:0:0:0:
242,121,107746,2,0,P|291:168|359:181,1,99.9999999999999,0|8,1:0|1:0,0:0:0:0:
400,238,108391,6,0,L|422:117,1,99.9999999999999,2|8,1:2|1:0,0:0:0:0:
457,109,108875,2,0,P|438:52|396:12,1,99.9999999999999,2|0,0:0|1:0,0:0:0:0:
362,31,109358,1,8,1:0:0:0:
278,86,109681,2,0,L|163:65,1,99.9999999999999,2|8,1:2|1:0,0:0:0:0:
142,102,110165,2,0,P|141:52|128:4,2,99.9999999999999,2|0|2,0:0|1:0|0:0,0:0:0:0:
102,132,110971,37,0,0:0:0:0:
35,207,111294,2,0,L|55:331,1,99.9999999999999,8|0,1:0|1:0,0:0:0:0:
125,372,111939,1,8,1:0:0:0:
145,274,112262,1,2,1:2:0:0:
223,212,112584,1,8,1:0:0:0:
322,200,112907,1,0,1:0:0:0:
408,250,113229,1,10,1:0:0:0:
452,339,113552,6,2,L|467:116,2,200,6|6|6,1:0|1:0|1:0,1:0:0:0:
254,370,115487,2,0,P|243:306|215:263,1,99.9999999999999,2|12,1:2|1:0,0:0:0:0:
131,311,116133,6,0,L|115:185,1,99.9999999999999,4|8,1:0|1:0,0:0:0:0:
72,190,116617,2,0,L|88:64,1,99.9999999999999,0|0,0:0|1:0,0:0:0:0:
96,42,117100,1,8,1:0:0:0:
195,55,117423,2,0,P|246:32|324:43,1,99.9999999999999,2|8,1:2|1:0,0:0:0:0:
316,74,117907,1,2,0:0:0:0:
316,74,118068,2,0,P|368:93|415:156,2,99.9999999999999,0|8|0,1:0|1:0|1:0,0:0:0:0:
305,173,119036,6,0,L|296:281,1,99.9999999999999,14|0,1:0|1:0,0:0:0:0:
202,306,119681,2,0,L|211:198,1,99.9999999999999,14|0,1:0|1:0,0:0:0:0:
122,159,120326,2,0,L|113:267,1,99.9999999999999,14|0,1:0|1:0,0:0:0:0:
18,288,120971,2,0,L|24:216,1,50,10|0,1:0|1:0,0:0:0:0:
0,192,121294,38,0,P|13:149|56:113,1,99.9999999999999,4|8,1:0|1:0,0:0:0:0:
83,18,121939,2,0,P|126:7|179:26,1,99.9999999999999,0|8,1:0|1:0,0:0:0:0:
277,24,122584,1,2,1:2:0:0:
244,118,122907,1,8,1:0:0:0:
270,214,123229,1,2,1:2:0:0:
341,284,123552,2,0,L|397:296,1,50,8|0,1:0|0:0,0:0:0:0:
424,331,123875,6,0,L|453:220,1,99.9999999999999,6|8,1:0|1:0,0:0:0:0:
493,211,124358,2,0,L|435:112,1,99.9999999999999,2|0,1:0|1:0,0:0:0:0:
469,82,124842,2,0,L|357:53,1,99.9999999999999,10|8,1:0|1:0,0:0:0:0:
334,23,125326,2,0,L|261:40,2,50,8|8|8,1:0|1:0|1:0,0:0:0:0:
300,169,126133,2,0,L|373:186,1,50,8|8,1:0|1:0,0:0:0:0:
377,221,126455,5,4,1:0:0:0:
377,221,126617,1,2,0:0:0:0:
301,286,126939,2,0,P|227:303|182:351,1,99.9999999999999,6|0,2:1|1:0,0:0:0:0:
190,363,127423,2,2,L|75:376,1,99.9999999999999,6|0,1:0|0:0,1:0:0:0:
16,307,128068,2,0,L|34:196,1,99.9999999999999,8|0,1:0|1:0,0:0:0:0:
116,154,128713,1,8,1:0:0:0:
56,73,129036,6,0,L|163:47,1,99.9999999999999,2|8,1:2|1:0,0:0:0:0:
243,6,129681,2,0,P|304:42|332:102,1,99.9999999999999,0|8,0:0|1:0,0:0:0:0:
370,151,130326,2,0,L|489:162,2,99.9999999999999,2|8|8,1:2|1:0|1:0,0:0:0:0:
275,185,131294,2,0,L|288:240,1,50,8|8,1:0|1:0,0:0:0:0:
257,274,131617,37,4,1:0:0:0:
257,274,131778,1,2,0:0:0:0:
324,347,132100,2,0,L|437:320,1,99.9999999999999,6|0,2:1|1:0,0:0:0:0:
465,346,132584,2,2,P|503:301|509:239,1,99.9999999999999,6|0,1:0|0:0,1:0:0:0:
445,186,133229,2,0,L|461:68,1,99.9999999999999,8|0,1:0|1:0,0:0:0:0:
387,16,133875,1,8,1:0:0:0:
313,83,134197,6,2,P|255:68|184:85,1,99.9999999999999,2|8,1:0|1:0,1:0:0:0:
174,43,134681,1,6,1:0:0:0:
101,112,135004,2,0,L|35:99,2,50,0|8|0,1:0|1:0|0:0,0:0:0:0:
129,153,135487,2,0,L|157:271,1,99.9999999999999,4|8,1:0|1:0,0:0:0:0:
125,293,135971,2,2,P|176:308|224:360,1,99.9999999999999,2|2,1:0|1:0,1:0:0:0:
245,374,136455,2,0,L|306:353,1,50,8|8,1:0|1:3,0:0:0:0:
342,363,136778,5,4,1:0:0:0:
342,363,136939,1,2,0:0:0:0:
439,383,137262,2,0,L|451:272,1,99.9999999999999,6|0,2:1|1:0,0:0:0:0:
404,261,137746,2,2,L|392:150,1,99.9999999999999,6|0,1:0|0:0,1:0:0:0:
468,95,138391,2,0,P|435:55|371:36,1,99.9999999999999,8|0,1:0|1:0,0:0:0:0:
310,96,139036,1,8,1:0:0:0:
237,26,139358,6,0,L|113:11,1,99.9999999999999,2|8,1:2|1:0,0:0:0:0:
89,102,140004,2,0,L|213:117,1,99.9999999999999,0|8,1:0|1:0,0:0:0:0:
246,195,140649,2,0,L|307:184,2,50,2|0|12,1:2|1:0|1:0,0:0:0:0:
267,292,141294,2,0,L|328:303,2,50,0|0|12,1:0|1:0|1:0,0:0:0:0:
229,325,141778,37,0,0:0:0:0:
229,325,141939,2,0,P|157:343|96:319,1,99.9999999999999,4|8,1:0|1:0,0:0:0:0:
122,289,142423,2,0,P|58:250|32:190,1,99.9999999999999,0|0,0:0|1:0,0:0:0:0:
62,183,142907,1,8,1:0:0:0:
62,83,143229,2,0,L|8:73,2,50,6|0|8,1:0|0:0|1:0,0:0:0:0:
102,53,143713,2,2,L|214:32,1,99.9999999999999,6|0,1:0|1:0,1:0:0:0:
242,61,144197,1,8,1:0:0:0:
334,23,144520,22,0,L|354:144,1,99.9999999999999,4|8,1:0|1:0,0:0:0:0:
391,150,145004,2,0,P|355:187|350:273,1,99.9999999999999,0|0,0:0|1:0,0:0:0:0:
358,279,145487,1,8,1:0:0:0:
274,334,145810,2,0,L|286:390,2,50,6|0|8,1:0|0:0|1:0,0:0:0:0:
225,320,146294,2,2,L|120:310,1,99.9999999999999,6|0,1:0|1:0,1:0:0:0:
83,338,146778,1,8,1:0:0:0:
40,247,147100,38,0,L|60:139,1,99.9999999999999,6|0,1:0|1:0,0:0:0:0:
22,113,147584,1,0,1:0:0:0:
22,113,147746,2,0,P|94:98|143:59,1,99.9999999999999,8|8,1:0|1:0,0:0:0:0:
132,37,148229,2,0,P|160:36|192:58,1,50,10|2,1:0|1:0,0:0:0:0:
479,32,149358,2,0,L|474:113,1,50,8|8,1:0|1:0,0:0:0:0:
435,111,149681,6,0,P|474:143|501:185,2,99.9999999999999,4|0|0,1:0|0:0|0:0,0:0:0:0:
336,124,150649,1,0,0:0:0:0:
290,212,150971,2,0,L|168:194,1,99.9999999999999,2|0,1:2|0:0,0:0:0:0:
146,221,151455,1,2,0:0:0:0:
61,167,151778,2,0,P|50:113|82:51,1,99.9999999999999,2|0,0:0|1:0,0:0:0:0:
52,22,152262,6,0,L|161:9,1,99.9999999999999,2|0,1:2|0:0,0:0:0:0:
222,80,152907,2,0,L|331:93,1,99.9999999999999,0|0,0:0|0:0,0:0:0:0:
407,40,153552,2,0,P|434:100|482:134,1,99.9999999999999,2|0,1:2|0:0,0:0:0:0:
508,115,154036,1,2,0:0:0:0:
487,212,154358,1,2,0:0:0:0:
487,212,154520,2,0,L|470:321,1,99.9999999999999,8|2,0:0|1:2,0:0:0:0:
379,350,155165,37,0,0:0:0:0:
379,350,155326,2,0,P|321:308|217:303,1,150,0|0,0:0|0:0,0:0:0:0:
156,345,156133,2,0,L|138:236,1,99.9999999999999,2|0,1:2|0:0,0:0:0:0:
98,217,156617,1,2,0:0:0:0:
136,124,156939,2,0,L|193:105,2,50,2|0|0,0:0|0:0|1:0,0:0:0:0:
100,88,157423,5,2,1:2:0:0:
292,32,158068,1,0,0:0:0:0:
348,224,158713,1,2,1:2:0:0:
156,280,159358,1,2,0:0:0:0:
243,329,159681,2,0,L|335:306,1,50,8|0,0:0|0:0,0:0:0:0:
326,280,160004,6,0,P|346:324|386:354,2,99.9999999999999,4|8|0,1:0|0:0|0:0,0:0:0:0:
381,197,160971,1,10,0:0:0:0:
310,125,161294,2,0,L|197:133,1,99.9999999999999,0|10,1:0|0:0,0:0:0:0:
187,176,161778,1,2,0:0:0:0:
167,273,162100,2,0,P|121:253|96:211,1,99.9999999999999,2|0,0:0|1:0,0:0:0:0:
45,210,162584,6,0,L|57:89,1,99.9999999999999,2|8,1:2|0:0,0:0:0:0:
132,47,163229,2,0,L|231:37,1,99.9999999999999,0|10,1:0|0:0,0:0:0:0:
319,85,163875,2,0,P|329:145|381:202,1,99.9999999999999,2|10,1:2|0:0,0:0:0:0:
340,226,164358,1,2,0:0:0:0:
244,196,164681,1,2,0:0:0:0:
244,196,164842,2,0,L|135:177,1,99.9999999999999,8|2,1:0|1:2,0:0:0:0:
67,115,165487,5,10,0:0:0:0:
67,115,165649,2,0,P|101:56|206:29,1,150,0|8,0:0|0:0,0:0:0:0:
250,90,166455,1,2,1:2:0:0:
341,48,166778,2,0,L|349:-1,2,50,0|0|2,0:0|0:0|0:0,0:0:0:0:
409,120,167423,1,4,1:3:0:0:
375,214,167746,6,0,L|250:227,1,99.9999999999999,6|8,1:0|1:0,0:0:0:0:
241,260,168229,2,0,P|191:212|126:201,1,99.9999999999999,10|0,1:3|1:0,0:0:0:0:
118,226,168713,1,8,1:3:0:0:
118,226,168875,1,8,1:0:0:0:
44,158,169197,2,2,L|55:47,1,99.9999999999999,6|0,1:0|0:0,1:0:0:0:
96,31,169681,2,0,L|161:17,1,50,10|0,1:0|1:0,0:0:0:0:
182,53,170004,2,0,L|247:67,1,50,14|0,1:0|1:0,0:0:0:0:
269,31,170326,6,0,P|301:84|361:112,1,99.9999999999999,4|8,1:0|1:0,0:0:0:0:
317,151,170810,2,0,P|377:165|439:143,1,99.9999999999999,2|0,0:0|1:0,0:0:0:0:
441,199,171294,1,8,1:0:0:0:
483,289,171617,2,0,L|378:308,1,99.9999999999999,2|8,1:2|1:0,0:0:0:0:
349,341,172100,2,0,L|244:322,1,99.9999999999999,2|0,0:0|1:0,0:0:0:0:
201,314,172584,1,8,1:0:0:0:
120,374,172907,6,0,P|86:331|80:284,1,99.9999999999999,2|8,1:2|1:0,0:0:0:0:
30,276,173391,2,8,P|36:221|64:184,1,99.9999999999999,2|0,0:0|1:0,0:0:0:0:
37,142,173875,2,8,P|80:107|126:102,1,99.9999999999999,8|2,1:0|1:2,0:0:0:0:
207,46,174520,1,8,1:0:0:0:
207,46,174681,2,0,L|320:70,1,99.9999999999999,2|0,0:0|0:0,0:0:0:0:
352,81,175165,1,8,1:0:0:0:
395,170,175487,38,0,P|447:229|464:310,2,150,4|2|8,1:0|0:0|1:0,0:0:0:0:
302,209,176778,2,0,P|250:150|233:69,2,150,2|2|8,1:2|0:0|1:0,0:0:0:0:
302,309,178068,5,6,1:0:0:0:
440,250,178552,1,6,1:0:0:0:
426,100,179036,1,6,1:0:0:0:
279,66,179520,1,4,1:0:0:0:
204,196,180004,2,0,P|140:194|85:147,1,99.9999999999999,8|8,1:0|1:0,0:0:0:0:
81,80,180649,6,0,L|202:61,1,99.9999999999999,4|8,1:0|1:0,0:0:0:0:
201,19,181133,2,0,P|253:70|311:79,1,99.9999999999999,2|0,0:0|1:0,0:0:0:0:
323,58,181617,1,8,1:0:0:0:
415,94,181939,2,0,P|448:152|449:207,1,99.9999999999999,2|8,1:2|1:0,0:0:0:0:
480,225,182423,2,0,L|368:246,1,99.9999999999999,2|0,0:0|1:0,0:0:0:0:
357,287,182907,1,8,1:0:0:0:
279,349,183229,6,0,P|248:293|195:270,1,99.9999999999999,2|8,1:2|1:0,0:0:0:0:
174,299,183713,2,0,L|144:182,1,99.9999999999999,2|0,0:0|1:0,0:0:0:0:
106,175,184197,2,0,P|168:139|190:86,1,99.9999999999999,8|2,1:0|1:2,0:0:0:0:
209,20,184842,1,8,1:0:0:0:
209,20,185004,2,0,L|89:12,1,99.9999999999999,2|0,0:0|1:0,0:0:0:0:
64,36,185487,2,0,L|85:98,1,50,8|0,1:0|0:0,0:0:0:0:
45,120,185810,38,0,P|7:177|6:222,1,99.9999999999999,4|8,1:0|1:0,0:0:0:0:
69,283,186455,2,0,L|182:261,1,99.9999999999999,0|8,1:0|1:0,0:0:0:0:
252,212,187100,2,0,P|214:155|213:110,1,99.9999999999999,2|8,1:2|1:0,0:0:0:0:
276,49,187745,2,2,L|389:71,1,99.9999999999999,2|8,1:0|1:0,1:0:0:0:
436,147,188391,6,0,P|469:94|513:74,2,99.9999999999999,4|8|0,1:0|1:0|1:0,0:0:0:0:
481,235,189358,1,12,1:0:0:0:
417,312,189681,2,0,L|346:297,1,50,2|10,1:0|1:0,0:0:0:0:
335,339,190004,2,0,L|264:354,1,50,8|10,1:0|1:0,0:0:0:0:
96,284,190810,37,0,1:0:0:0:
96,284,190971,2,0,L|85:197,1,50,4|0,1:0|1:0,0:0:0:0:
50,202,191294,1,4,1:0:0:0:
147,177,191617,1,4,1:0:0:0:
243,152,191939,2,0,L|249:87,1,50,8|8,1:0|1:0,0:0:0:0:
221,59,192262,21,6,1:0:0:0:
221,59,192423,1,2,0:0:0:0:
311,16,192746,2,0,P|363:33|417:92,1,99.9999999999999,6|0,2:1|1:0,0:0:0:0:
445,48,193229,2,2,P|469:96|466:176,1,99.9999999999999,6|0,1:0|0:0,1:0:0:0:
434,233,193875,2,0,L|312:244,1,99.9999999999999,8|0,1:0|1:0,0:0:0:0:
263,312,194520,1,8,1:0:0:0:
194,239,194842,6,0,P|189:183|138:129,1,99.9999999999999,2|8,1:2|1:0,0:0:0:0:
72,186,195487,2,0,P|77:242|128:296,1,99.9999999999999,0|8,1:0|1:0,0:0:0:0:
139,370,196133,1,2,1:2:0:0:
232,335,196455,2,0,L|348:312,1,99.9999999999999,8|2,1:0|1:2,0:0:0:0:
421,356,197100,2,0,L|430:291,1,50,8|8,1:0|1:0,0:0:0:0:
462,269,197423,37,6,1:0:0:0:
462,269,197584,1,2,0:0:0:0:
456,169,197907,2,0,P|407:144|345:147,1,99.9999999999999,6|0,2:1|1:0,0:0:0:0:
342,96,198391,2,2,P|289:112|247:158,1,99.9999999999999,6|0,1:0|0:0,1:0:0:0:
192,67,199036,2,0,L|75:62,1,99.9999999999999,8|0,1:0|1:0,0:0:0:0:
10,120,199681,1,8,1:0:0:0:
51,209,200004,6,2,P|81:249|127:268,1,99.9999999999999,2|8,1:0|1:0,1:0:0:0:
152,311,200487,2,0,P|200:318|246:299,1,99.9999999999999,6|0,1:0|1:0,0:0:0:0:
289,324,200971,1,8,1:0:0:0:
388,336,201294,2,0,L|407:395,2,50,4|0|8,1:0|0:0|1:0,0:0:0:0:
425,302,201778,2,2,P|467:248|465:196,1,99.9999999999999,2|2,1:0|1:0,1:0:0:0:
429,188,202262,2,0,L|418:122,1,50,8|8,1:0|1:3,0:0:0:0:
376,115,202584,5,6,1:0:0:0:
376,115,202746,1,2,0:0:0:0:
421,26,203068,2,0,P|362:18|303:52,1,99.9999999999999,6|0,2:1|1:0,0:0:0:0:
290,68,203552,2,2,L|185:55,1,99.9999999999999,6|0,1:0|0:0,1:0:0:0:
99,13,204197,2,0,L|76:123,1,99.9999999999999,8|0,1:0|1:0,0:0:0:0:
33,200,204842,1,8,1:0:0:0:
121,246,205165,6,0,P|189:233|226:198,1,99.9999999999999,2|8,1:2|1:0,0:0:0:0:
311,229,205810,2,0,L|324:114,1,99.9999999999999,0|8,1:0|1:0,0:0:0:0:
410,81,206455,2,0,L|459:68,2,50,2|0|12,1:2|1:0|1:0,0:0:0:0:
464,165,207100,2,0,L|513:178,2,50,0|0|12,1:0|1:0|1:0,0:0:0:0:
439,208,207584,37,0,0:0:0:0:
439,208,207746,2,0,P|458:285|432:334,1,99.9999999999999,4|8,1:0|1:0,0:0:0:0:
476,346,208229,2,0,L|362:333,1,99.9999999999999,0|0,0:0|1:0,0:0:0:0:
326,327,208713,1,8,1:0:0:0:
242,272,209036,2,0,L|228:211,2,50,6|0|8,1:0|0:0|1:0,0:0:0:0:
210,310,209520,2,2,P|146:338|91:322,1,99.9999999999999,6|0,1:0|1:0,1:0:0:0:
79,366,210004,1,8,1:0:0:0:
60,267,210326,22,0,L|44:154,1,99.9999999999999,4|8,1:0|1:0,0:0:0:0:
6,137,210810,2,0,P|47:98|114:89,1,99.9999999999999,0|0,0:0|1:0,0:0:0:0:
116,45,211294,1,8,1:0:0:0:
211,76,211617,2,0,L|282:54,2,50,6|0|8,1:0|0:0|1:0,0:0:0:0:
198,124,212100,2,2,P|191:191|218:242,1,99.9999999999999,6|0,1:0|1:0,1:0:0:0:
248,238,212584,1,8,1:0:0:0:
328,178,212907,22,0,L|435:185,1,99.9999999999999,4|8,1:0|1:0,0:0:0:0:
471,274,213552,2,0,L|364:267,1,99.9999999999999,0|8,1:0|0:0,0:0:0:0:
302,340,214197,2,2,P|244:313|215:248,1,99.9999999999999,6|8,1:0|1:0,1:0:0:0:
174,293,214681,2,2,P|152:232|177:166,1,99.9999999999999,6|0,1:0|0:0,1:0:0:0:
127,159,215165,1,8,1:0:0:0:
195,86,215487,38,0,L|302:69,1,99.9999999999999,6|0,1:0|1:0,0:0:0:0:
329,34,215971,1,0,1:0:0:0:
329,34,216133,2,0,P|368:110|360:157,1,99.9999999999999,8|8,1:0|1:0,0:0:0:0:
410,148,216617,2,0,L|387:219,1,50,10|2,1:0|1:0,0:0:0:0:
114,302,217746,2,0,L|102:209,1,50,8|8,1:0|1:0,0:0:0:0:
66,223,218068,6,0,P|130:181|146:125,1,99.9999999999999,4|8,1:0|1:0,0:0:0:0:
188,172,218552,2,0,P|203:97|175:46,1,99.9999999999999,2|2,0:0|1:2,0:0:0:0:
233,41,219036,1,8,1:0:0:0:
327,74,219358,2,2,L|443:60,1,99.9999999999999,2|8,1:0|1:0,1:0:0:0:
476,149,220004,2,0,L|359:162,1,99.9999999999999,0|8,1:0|1:0,0:0:0:0:
338,252,220649,6,2,P|296:222|217:231,1,99.9999999999999,6|8,1:0|1:0,1:0:0:0:
213,183,221133,2,0,L|196:296,1,99.9999999999999,2|2,0:0|1:2,0:0:0:0:
187,330,221617,1,8,1:0:0:0:
100,380,221939,2,2,P|58:337|52:276,1,99.9999999999999,6|10,1:0|1:0,1:0:0:0:
0,213,222584,2,2,P|16:155|66:119,1,99.9999999999999,6|10,1:0|1:0,1:0:0:0:
101,46,223229,6,0,L|77:-16,2,50,4|0|8,1:0|1:0|1:0,0:0:0:0:
149,59,223713,2,0,L|262:64,1,99.9999999999999,2|8,1:2|1:0,0:0:0:0:
284,98,224197,1,8,1:3:0:0:
349,173,224520,2,0,L|373:111,2,50,4|0|2,1:0|1:0|1:2,0:0:0:0:
301,186,225004,2,0,L|188:191,1,99.9999999999999,2|8,1:2|1:0,0:0:0:0:
166,225,225488,1,8,1:0:0:0:
193,320,225810,6,0,P|271:313|326:345,1,99.9999999999999,4|0,0:1|1:0,0:0:0:0:
371,261,226455,2,0,P|431:311|447:372,1,99.9999999999999,4|4,1:3|1:3,0:0:0:0:
508,257,227100,2,0,P|514:185|470:98,1,150,4|8,1:0|1:3,0:0:0:0:
435,100,227746,1,10,1:0:0:0:
435,100,227907,2,0,L|275:86,1,150,10|4,1:0|1:0,0:0:0:0:
256,192,228713,12,2,230971,0:0:0:0:
