osu file format v14

[General]
AudioFilename: audio.mp3
AudioLeadIn: 0
PreviewTime: 126052
Countdown: 1
SampleSet: Soft
StackLeniency: 0.5
Mode: 0
LetterboxInBreaks: 0
WidescreenStoryboard: 1

[Editor]
Bookmarks: 149681,160004,163875
DistanceSpacing: 1.1
BeatDivisor: 2
GridSize: 4
TimelineZoom: 0.9

[Metadata]
Title:Senaka Awase no Kuukyo (with Kakichoco)
TitleUnicode:背中合わせの空虚 (with 柿チョコ)
Artist:*namirin
ArtistUnicode:*なみりん
Creator:jonathanlfj
Version:Easy
Source:
Tags:柿チョコ Kakichoco 5colors featured artist handsome Delis
BeatmapID:1513314
BeatmapSetID:716249

[Difficulty]
HPDrainRate:2
CircleSize:3
OverallDifficulty:2
ApproachRate:3
SliderMultiplier:0.799999999999999
SliderTickRate:1

[Events]
//Background and Video events
0,0,"collab.png",0,0
//Break Periods
2,149681,158564
//Storyboard Layer 0 (Background)
//Storyboard Layer 1 (Fail)
//Storyboard Layer 2 (Pass)
//Storyboard Layer 3 (Foreground)
//Storyboard Sound Samples

[TimingPoints]
1940,322.58064516129,4,2,1,50,1,0
1940,-125,4,2,1,50,0,0
9359,-125,4,2,1,60,0,0
9681,-111.111111111111,4,2,1,70,0,0
9923,-111.111111111111,4,2,1,5,0,0
10004,-111.111111111111,4,2,1,70,0,0
14117,-111.111111111111,4,2,1,5,0,0
14198,-111.111111111111,4,2,1,70,0,0
16294,-111.111111111111,4,2,1,40,0,0
16456,-111.111111111111,4,2,1,45,0,0
16617,-111.111111111111,4,2,1,50,0,0
16778,-111.111111111111,4,2,1,55,0,0
16939,-111.111111111111,4,2,1,60,0,0
17101,-111.111111111111,4,2,1,65,0,0
17262,-111.111111111111,4,2,1,70,0,0
17423,-111.111111111111,4,2,1,60,0,0
18956,-111.111111111111,4,2,1,5,0,0
19036,-111.111111111111,4,2,1,60,0,0
19359,-111.111111111111,4,2,1,70,0,0
20004,-111.111111111111,4,2,1,60,0,0
23794,-111.111111111111,4,2,1,5,0,0
23875,-111.111111111111,4,2,1,60,0,0
27746,-111.111111111111,4,2,1,60,0,0
30246,-111.111111111111,4,2,1,5,0,0
30327,-111.111111111111,4,2,1,60,0,0
38069,-111.111111111111,4,1,1,60,0,0
38633,-111.111111111111,4,2,1,5,0,0
38714,-111.111111111111,4,2,1,60,0,0
38875,-111.111111111111,4,1,1,60,0,0
39278,-111.111111111111,4,2,1,5,0,0
39359,-111.111111111111,4,2,1,70,0,0
40085,-111.111111111111,4,2,1,5,0,0
40165,-111.111111111111,4,2,1,70,0,0
40649,-111.111111111111,4,2,1,65,0,0
43149,-111.111111111111,4,2,1,5,0,0
43230,-111.111111111111,4,2,1,65,0,0
48391,-111.111111111111,4,2,1,55,0,0
49036,-111.111111111111,4,2,1,60,0,0
49681,-111.111111111111,4,2,1,65,0,0
50972,-111.111111111111,4,2,1,65,0,0
53552,-111.111111111111,4,2,1,55,0,0
54117,-111.111111111111,4,2,1,5,0,0
54198,-111.111111111111,4,2,1,60,0,0
54762,-111.111111111111,4,2,1,5,0,0
54843,-111.111111111111,4,2,1,65,0,0
55407,-111.111111111111,4,2,1,5,0,0
55488,-111.111111111111,4,2,1,65,0,0
56133,-111.111111111111,4,2,1,65,0,0
60004,-111.111111111111,4,2,1,70,0,0
60488,-111.111111111111,4,2,1,75,0,0
61294,-100,4,2,1,75,0,1
62262,-100,4,2,1,75,0,1
62907,-100,4,2,1,75,0,1
66375,-100,4,2,1,75,0,0
66456,-100,4,2,1,75,0,1
67423,-100,4,2,1,75,0,1
68069,-100,4,2,1,75,0,1
68956,-100,4,2,1,5,0,1
69036,-100,4,2,1,75,0,1
71052,-100,4,2,1,5,0,1
71133,-100,4,2,1,75,0,1
71536,-100,4,2,1,75,0,0
71617,-100,4,2,1,75,0,1
72585,-100,4,2,1,75,0,1
73230,-100,4,2,1,75,0,1
76052,-100,4,2,1,5,0,1
76133,-100,4,2,1,75,0,1
82181,-100,4,2,1,5,0,1
82262,-100,4,2,1,60,0,1
82585,-100,4,2,1,65,0,1
82907,-100,4,2,1,70,0,1
83230,-100,4,2,1,75,0,0
84520,-111.111111111111,4,2,1,60,0,0
88633,-111.111111111111,4,2,1,5,0,0
88714,-111.111111111111,4,2,1,60,0,0
90972,-111.111111111111,4,2,1,40,0,0
91133,-111.111111111111,4,2,1,45,0,0
91294,-111.111111111111,4,2,1,50,0,0
91456,-111.111111111111,4,2,1,55,0,0
91617,-111.111111111111,4,2,1,55,0,0
91778,-111.111111111111,4,2,1,60,0,0
91939,-111.111111111111,4,2,1,65,0,0
92101,-111.111111111111,4,2,1,70,0,0
92262,-111.111111111111,4,2,1,60,0,0
93794,-111.111111111111,4,2,1,5,0,0
93875,-111.111111111111,4,2,1,60,0,0
94198,-111.111111111111,4,2,1,70,0,0
95488,322.58064516129,4,2,1,60,1,0
95488,-111.111111111111,4,2,1,60,0,0
99278,-111.111111111111,4,2,1,5,0,0
99358,-111.111111111111,4,2,1,60,0,0
103229,-111.111111111111,4,1,1,60,0,0
103794,-111.111111111111,4,2,1,5,0,0
103875,-111.111111111111,4,2,1,60,0,0
104036,-111.111111111111,4,1,1,60,0,0
104439,-111.111111111111,4,2,1,5,0,0
104520,-111.111111111111,4,2,1,70,0,0
105246,-111.111111111111,4,2,1,5,0,0
105326,-111.111111111111,4,2,1,70,0,0
105810,-111.111111111111,4,2,1,65,0,0
108310,-111.111111111111,4,2,1,5,0,0
108391,-111.111111111111,4,2,1,65,0,0
113552,-111.111111111111,4,2,1,55,0,0
114197,-111.111111111111,4,2,1,60,0,0
114842,-111.111111111111,4,2,1,65,0,0
116133,-111.111111111111,4,2,1,65,0,0
118713,-111.111111111111,4,2,1,55,0,0
119278,-111.111111111111,4,2,1,5,0,0
119358,-111.111111111111,4,2,1,60,0,0
119923,-111.111111111111,4,2,1,5,0,0
120004,-111.111111111111,4,2,1,65,0,0
120568,-111.111111111111,4,2,1,5,0,0
120649,-111.111111111111,4,2,1,65,0,0
121294,-111.111111111111,4,2,1,65,0,0
125165,-111.111111111111,4,2,1,70,0,0
125649,-100,4,2,1,75,0,0
126455,-100,4,2,1,75,0,1
127423,-100,4,2,1,75,0,1
128068,-100,4,2,1,75,0,1
128955,-100,4,2,1,5,0,1
129036,-100,4,2,1,75,0,1
131536,-100,4,2,1,75,0,0
131617,-100,4,2,1,75,0,1
132584,-100,4,2,1,75,0,1
133229,-100,4,2,1,75,0,1
134117,-100,4,2,1,5,0,1
134197,-100,4,2,1,75,0,1
136213,-100,4,2,1,5,0,1
136294,-100,4,2,1,75,0,1
136697,-100,4,2,1,75,0,0
136778,-100,4,2,1,75,0,1
137746,-100,4,2,1,75,0,1
138391,-100,4,2,1,75,0,1
141213,-100,4,2,1,5,0,1
141294,-100,4,2,1,75,0,1
147342,-100,4,2,1,5,0,1
147423,-100,4,2,1,60,0,1
147746,-100,4,2,1,65,0,1
148068,-100,4,2,1,70,0,1
148391,-100,4,2,1,75,0,0
149681,-125,4,2,1,75,0,0
160004,-125,4,2,1,55,0,0
163149,-125,4,2,1,5,0,0
163229,-125,4,2,1,55,0,0
163794,-125,4,2,1,5,0,0
163875,-125,4,2,1,55,0,0
165729,-125,4,2,1,5,0,0
165810,-125,4,2,1,55,0,0
167665,-125,4,2,1,5,0,0
167746,-111.111111111111,4,2,1,60,0,0
169197,-111.111111111111,4,2,1,60,0,0
169600,-111.111111111111,4,2,1,5,0,0
169681,-111.111111111111,4,2,1,60,0,0
170326,-111.111111111111,4,2,1,65,0,0
178068,-111.111111111111,4,2,1,70,0,0
179036,-111.111111111111,4,2,1,70,0,0
179358,-111.111111111111,4,2,1,65,0,0
188310,-111.111111111111,4,2,1,5,0,0
188391,-111.111111111111,4,2,1,65,0,0
189681,-100,4,2,1,75,0,0
192262,-100,4,2,1,80,0,1
193229,-100,4,2,1,80,0,1
193875,-100,4,2,1,80,0,1
196697,-100,4,2,1,5,0,1
196778,-100,4,2,1,80,0,1
197342,-100,4,2,1,80,0,0
197423,-100,4,2,1,80,0,1
198391,-100,4,2,1,80,0,1
199036,-100,4,2,1,80,0,1
199923,-100,4,2,1,5,0,1
200004,-100,4,2,1,80,0,1
202020,-100,4,2,1,5,0,1
202100,-100,4,2,1,80,0,1
202504,-100,4,2,1,80,0,0
202584,-100,4,2,1,80,0,1
203552,-100,4,2,1,80,0,1
204197,-100,4,2,1,80,0,1
207020,-100,4,2,1,5,0,1
207100,-100,4,2,1,80,0,1
213471,-100,4,2,1,5,0,1
213552,-100,4,2,1,80,0,1
215729,-100,4,2,1,5,0,1
215810,-100,4,2,1,65,0,1
216133,-100,4,2,1,70,0,1
216455,-100,4,2,1,75,0,1
216778,-111.111111111111,4,2,1,80,0,0
218068,-111.111111111111,4,2,1,70,0,0
222181,-111.111111111111,4,2,1,5,0,0
222262,-111.111111111111,4,2,1,70,0,0
224681,-111.111111111111,4,2,1,40,0,0
224842,-111.111111111111,4,2,1,45,0,0
225004,-111.111111111111,4,2,1,50,0,0
225165,-111.111111111111,4,2,1,55,0,0
225326,-111.111111111111,4,2,1,60,0,0
225487,-111.111111111111,4,2,1,65,0,0
225649,-111.111111111111,4,2,1,70,0,0
225810,-111.111111111111,4,2,1,60,0,0
227342,-111.111111111111,4,2,1,5,0,0
227423,-111.111111111111,4,2,1,65,0,0
227746,-111.111111111111,4,2,1,70,0,0
228471,-111.111111111111,4,2,1,50,0,0
230971,-111.111111111111,4,2,1,30,0,0

[Colours]
Combo1 : 240,142,206
Combo2 : 113,63,197
Combo3 : 125,129,255
Combo4 : 255,53,139

[HitObjects]
120,110,1940,38,0,P|89:152|160:269,1,192,2|0,0:0|0:0,0:0:0:0:
220,268,3230,1,2,0:0:0:0:
275,124,3875,1,0,0:0:0:0:
410,196,4520,6,0,P|441:238|370:355,1,192,2|0,0:0|0:0,0:0:0:0:
314,325,5810,2,0,P|265:312|202:324,1,95.9999999999999,2|0,0:0|0:0,0:0:0:0:
99,139,7101,38,0,P|151:149|200:136,2,95.9999999999999,2|2|0,0:0|0:0|0:0,0:0:0:0:
45,84,8391,1,2,0:0:0:0:
113,283,9359,1,0,0:0:0:0:
184,249,9681,6,0,B|238:236|291:255|291:255|347:276|396:261,1,215.999993408203,4|8,1:0|1:0,0:0:0:0:
450,203,10972,2,0,L|459:87,2,107.999996704102,2|8|8,1:2|1:3|1:0,0:0:0:0:
396,261,12262,6,0,P|331:266|275:246,2,107.999996704102,4|8|8,1:0|1:3|1:0,0:0:0:0:
473,278,13552,1,4,1:0:0:0:
335,356,14198,1,4,1:0:0:0:
211,257,14843,6,0,P|191:196|307:136,1,215.999993408203,4|8,1:0|1:3,0:0:0:0:
271,206,16133,1,4,1:0:0:0:
127,139,16778,1,0,1:0:0:0:
256,48,17423,5,4,0:1:0:0:
256,48,18714,2,0,L|260:128,1,71.9999978027344,4|8,1:0|1:0,0:0:0:0:
265,198,19359,1,10,1:0:0:0:
121,267,20004,22,0,B|89:203|89:203|108:126|179:98,1,215.999993408203,4|8,1:0|1:0,0:0:0:0:
254,127,21294,2,0,P|312:130|376:117,2,107.999996704102,2|0|8,1:2|0:0|1:0,0:0:0:0:
180,98,22585,5,2,1:2:0:0:
347,265,23552,1,8,1:0:0:0:
284,314,23875,2,0,L|155:321,2,107.999996704102,2|2|8,1:2|1:2|1:0,0:0:0:0:
347,265,25165,38,0,B|403:221|403:221|416:147|367:86,1,215.999993408203,4|8,1:0|1:0,0:0:0:0:
303,134,26456,2,0,P|246:148|181:144,2,107.999996704102,2|2|8,1:2|0:0|1:0,0:0:0:0:
367,86,27746,5,4,1:0:0:0:
196,352,29036,1,0,0:0:0:0:
345,300,29681,1,0,0:0:0:0:
190,263,30327,6,0,B|152:263|120:289|109:324|109:324|67:322|38:297|32:259,1,215.999993408203,4|8,1:0|1:0,0:0:0:0:
65,188,31617,2,0,P|65:125|54:77,2,107.999996704102,2|0|8,1:2|0:0|1:0,0:0:0:0:
32,260,32907,5,2,1:2:0:0:
255,179,33875,1,8,1:0:0:0:
187,136,34198,2,0,P|178:201|245:258,1,143.999995605469,2|2,1:2|1:2,0:0:0:0:
381,211,35488,38,0,P|439:211|487:237,2,107.999996704102,4|2|8,1:0|0:0|1:0,0:0:0:0:
307,241,36778,2,0,P|321:191|288:96,1,143.999995605469,2|2,1:2|0:0,0:0:0:0:
151,39,38069,5,4,1:0:0:0:
211,185,38714,1,8,1:0:0:0:
52,185,39359,2,2,P|60:129|91:83,1,107.999996704102,10|2,1:0|1:0,1:0:0:0:
151,39,40165,1,6,1:3:0:0:
245,111,40649,6,0,P|316:118|388:89,1,143.999995605469,4|0,1:0|0:0,0:0:0:0:
436,152,41617,1,8,1:0:0:0:
486,213,41939,2,0,L|473:363,1,143.999995605469,2|2,1:2|1:2,0:0:0:0:
324,303,43230,6,0,P|268:307|225:347,2,107.999996704102,2|2|8,1:2|0:0|1:0,0:0:0:0:
398,331,44520,2,0,L|410:205,1,107.999996704102,2|2,1:2|0:0,0:0:0:0:
259,92,45810,38,0,B|203:100|153:75|153:75|103:106|101:166,1,215.999993408203,2|8,1:2|1:0,0:0:0:0:
135,236,47101,1,2,1:2:0:0:
274,311,47746,2,0,P|288:276|294:233,1,71.9999978027344,2|10,1:2|1:0,0:0:0:0:
254,173,48391,6,2,B|288:183|324:173|324:173|363:164|398:174,2,143.999995605469,6|6|6,1:0|1:0|1:0,1:0:0:0:
150,52,50327,6,0,P|97:51|57:58,1,71.9999978027344,2|12,1:2|1:0,0:0:0:0:
27,115,50972,2,0,P|41:182|44:344,1,215.999993408203,4|8,1:0|1:0,0:0:0:0:
124,322,52262,2,0,P|195:328|278:352,2,143.999995605469,2|0|0,1:2|1:0|1:0,0:0:0:0:
46,330,53875,5,14,1:0:0:0:
95,179,54520,1,14,1:0:0:0:
187,308,55165,1,14,1:0:0:0:
236,157,55810,1,10,1:0:0:0:
298,205,56133,38,0,P|369:180|353:59,1,215.999993408203,4|8,1:0|1:0,0:0:0:0:
311,126,57423,2,0,B|256:118|210:145|210:145|151:142|104:111,1,215.999993408203,2|8,1:2|1:0,0:0:0:0:
41,158,58714,6,0,P|28:206|36:273,2,107.999996704102,6|2|10,1:0|1:0|1:0,0:0:0:0:
309,52,60972,5,8,1:0:0:0:
362,111,61294,2,0,L|349:240,2,120,4|6|6,1:0|2:1|1:0,0:0:0:0:
209,159,62907,2,0,P|206:234|293:256,1,160,8|8,1:0|1:0,0:0:0:0:
349,230,63875,5,2,1:2:0:0:
266,367,64520,1,0,0:0:0:0:
191,338,64843,2,0,P|105:326|14:351,2,160,8|8|8,1:0|1:0|1:0,0:0:0:0:
253,288,66456,38,0,P|260:232|241:157,2,120,4|6|6,1:0|2:1|1:0,0:0:0:0:
411,266,68069,2,0,P|410:180|383:88,1,160,8|8,1:0|1:0,0:0:0:0:
329,58,69036,6,0,P|282:98|213:88,2,120,2|6|8,1:0|1:0|1:0,0:0:0:0:
257,20,70327,2,0,P|199:19|150:67,1,120,4|2,1:0|1:0,0:0:0:0:
157,137,71133,1,2,1:0:0:0:
250,211,71617,6,0,L|371:203,2,120,4|6|6,1:0|2:1|1:0,0:0:0:0:
125,311,73230,2,0,B|89:277|89:277|81:147,1,160,8|8,1:0|1:0,0:0:0:0:
77,86,74198,5,2,1:2:0:0:
212,170,74843,1,0,1:0:0:0:
271,117,75165,2,0,B|325:114|325:114|369:136|369:136|425:131,2,160,8|12|12,1:0|1:0|1:0,0:0:0:0:
212,170,76778,38,0,P|199:228|238:282,2,120,4|0|8,1:0|0:0|1:0,0:0:0:0:
279,214,78069,2,2,P|309:263|297:321,1,120,6|6,1:0|1:0,1:0:0:0:
400,150,79359,22,0,L|408:21,2,120,4|0|8,1:0|0:0|1:0,0:0:0:0:
452,210,80649,2,2,L|466:341,1,120,6|6,1:0|1:0,1:0:0:0:
399,375,81456,1,0,1:0:0:0:
306,299,81939,6,0,P|268:290|201:292,1,79.9999999999999,6|0,1:0|1:0,0:0:0:0:
167,235,82585,2,0,P|115:251|79:274,1,79.9999999999999,8|8,1:0|1:0,0:0:0:0:
62,337,83230,5,2,1:0:0:0:
62,337,84520,6,0,P|84:284|84:168,1,143.999995605469,4|0,1:0|1:0,0:0:0:0:
56,128,85488,1,8,1:0:0:0:
102,63,85810,2,0,P|163:61|203:94,2,107.999996704102,2|2|8,1:0|0:0|1:0,0:0:0:0:
135,135,87101,6,0,B|190:120|241:141|241:141|303:136|329:85,1,215.999993408203,6|8,1:0|1:0,0:0:0:0:
348,9,88391,1,6,1:0:0:0:
370,165,89036,1,6,1:0:0:0:
253,57,89681,6,0,P|162:48|41:94,1,215.999993408203,4|8,1:0|1:3,0:0:0:0:
2,156,90972,1,4,1:0:0:0:
152,206,91617,1,0,1:0:0:0:
10,276,92262,5,4,0:1:0:0:
10,276,93552,2,0,P|56:268|112:273,1,71.9999978027344,4|8,1:0|1:0,0:0:0:0:
158,288,94198,1,10,1:0:0:0:
475,331,95488,22,0,B|432:294|375:309|375:309|318:326|271:294,1,215.999993408203,4|8,1:0|1:0,0:0:0:0:
221,233,96778,2,0,L|210:117,2,107.999996704102,2|2|8,1:2|0:0|1:0,0:0:0:0:
271,294,98068,5,2,1:2:0:0:
476,174,99036,1,8,1:0:0:0:
442,102,99358,2,0,P|379:76|305:109,1,143.999995605469,2|0,1:2|1:0,0:0:0:0:
221,233,100649,38,0,P|155:259|102:239,2,107.999996704102,4|0|8,1:0|0:0|1:0,0:0:0:0:
160,181,101939,2,0,P|56:205|41:252,1,143.999995605469,2|2,1:2|0:0,0:0:0:0:
158,339,103229,5,4,1:0:0:0:
237,201,103875,1,8,1:0:0:0:
238,359,104520,2,2,P|309:340|351:309,1,107.999996704102,10|2,1:0|1:0,1:0:0:0:
386,259,105326,1,6,1:3:0:0:
310,167,105810,6,0,L|325:15,1,143.999995605469,4|0,1:0|0:0,0:0:0:0:
245,32,106778,1,8,1:0:0:0:
181,79,107100,2,0,L|195:222,1,143.999995605469,2|0,1:2|1:0,0:0:0:0:
68,318,108391,6,0,B|41:292|41:292|29:204,2,107.999996704102,2|2|8,1:2|0:0|1:0,0:0:0:0:
144,341,109681,2,0,L|259:324,1,107.999996704102,2|2,1:2|0:0,0:0:0:0:
439,266,110971,38,0,B|415:218|415:218|336:186|263:248,1,215.999993408203,2|8,1:2|1:0,0:0:0:0:
250,325,112262,1,2,1:2:0:0:
138,213,112907,2,0,P|129:173|127:123,1,71.9999978027344,0|10,1:0|1:0,0:0:0:0:
175,79,113552,6,2,B|140:87|102:80|102:80|65:72|32:84,2,143.999995605469,6|6|6,1:0|1:0|1:0,1:0:0:0:
322,20,115487,6,0,P|330:55|333:90,1,71.9999978027344,2|12,1:2|1:0,0:0:0:0:
303,164,116133,2,0,P|400:143|419:257,1,215.999993408203,4|8,1:0|1:0,0:0:0:0:
367,282,117423,2,0,P|298:268|208:289,2,143.999995605469,2|0|0,1:2|1:0|1:0,0:0:0:0:
438,316,119036,5,14,1:0:0:0:
351,183,119681,1,14,1:0:0:0:
226,280,120326,1,14,1:0:0:0:
145,143,120971,1,10,1:0:0:0:
207,93,121294,38,0,P|223:153|95:207,1,215.999993408203,4|8,1:0|1:0,0:0:0:0:
66,147,122584,2,0,L|80:369,1,215.999993408203,2|8,1:2|1:0,0:0:0:0:
156,343,123875,6,2,B|191:334|191:334|274:349,2,107.999996704102,6|2|10,1:0|1:0|1:0,1:0:0:0:
44,42,126133,5,8,1:0:0:0:
120,65,126455,2,0,B|158:74|158:74|243:59,2,120,4|6|6,1:0|2:1|1:0,0:0:0:0:
40,204,128068,2,0,P|56:280|128:293,1,160,8|8,1:0|1:0,0:0:0:0:
193,247,129036,5,2,1:2:0:0:
308,357,129681,1,0,0:0:0:0:
378,318,130004,2,0,P|396:248|370:154,2,160,8|8|8,1:0|1:0|1:0,0:0:0:0:
308,357,131617,38,0,B|267:351|267:351|179:366,2,120,4|6|6,1:0|2:1|1:0,0:0:0:0:
464,324,133230,2,0,P|478:237|457:153,1,160,8|8,1:0|1:0,0:0:0:0:
404,114,134197,6,0,P|429:43|471:12,2,120,2|6|8,1:0|1:0|1:0,0:0:0:0:
346,169,135488,2,0,P|297:173|222:142,1,120,4|2,1:0|1:0,0:0:0:0:
189,81,136294,1,2,1:0:0:0:
99,160,136778,6,0,B|87:217|87:217|109:286,2,120,4|6|6,1:0|2:1|1:0,0:0:0:0:
251,208,138391,2,0,B|424:199,1,160,8|8,1:0|1:0,0:0:0:0:
457,134,139359,5,2,1:2:0:0:
339,25,140004,1,0,1:0:0:0:
266,59,140326,2,0,B|212:62|212:62|168:40|168:40|112:45,2,160,8|12|12,1:0|1:0|1:0,0:0:0:0:
332,104,141939,38,0,P|345:162|306:216,2,120,4|0|8,1:0|0:0|1:0,0:0:0:0:
265,148,143230,2,2,P|235:197|247:255,1,120,6|6,1:0|1:0,1:0:0:0:
85,137,144520,22,0,L|72:2,2,120,4|0|8,1:0|0:0|1:0,0:0:0:0:
44,206,145810,2,2,L|30:337,1,120,6|6,1:0|1:0,1:0:0:0:
95,373,146617,1,0,1:0:0:0:
192,303,147100,6,0,L|181:212,1,79.9999999999999,6|0,1:0|1:0,0:0:0:0:
251,182,147746,2,0,L|267:85,1,79.9999999999999,8|8,1:0|1:0,0:0:0:0:
219,36,148391,5,2,1:0:0:0:
158,276,160004,5,4,1:0:0:0:
256,192,160649,1,0,0:0:0:0:
343,100,161294,2,0,P|409:91|480:111,2,128,0|0|2,1:0|0:0|1:2,0:0:0:0:
256,192,163229,37,0,1:0:0:0:
158,276,163875,2,0,P|92:285|21:265,2,128,2|0|2,1:2|1:0|1:2,0:0:0:0:
343,100,166455,21,2,1:2:0:0:
205,168,167100,1,2,0:0:0:0:
361,180,167746,2,0,P|406:151|424:96,2,107.999996704102,6|10|8,1:0|1:3|1:3,0:0:0:0:
262,112,169197,6,2,P|206:88|158:102,1,107.999996704102,6|10,1:0|1:0,1:0:0:0:
125,169,170004,1,14,1:0:0:0:
162,238,170326,6,0,P|228:270|317:268,1,143.999995605469,4|0,1:0|0:0,0:0:0:0:
366,233,171294,2,0,P|416:225|454:229,1,71.9999978027344,8|2,1:0|1:2,0:0:0:0:
333,346,172262,1,0,0:0:0:0:
199,260,172907,6,0,P|184:183|187:104,1,143.999995605469,2|0,1:2|0:0,0:0:0:0:
226,50,173875,2,0,L|313:46,1,71.9999978027344,8|2,1:0|1:2,0:0:0:0:
435,125,174842,1,0,0:0:0:0:
343,254,175487,38,0,B|289:272|234:255|234:255|181:237|129:258,1,215.999993408203,4|8,1:0|1:0,0:0:0:0:
74,312,176778,1,2,1:2:0:0:
28,202,177262,2,0,P|21:149|30:88,1,107.999996704102,2|8,0:0|1:0,0:0:0:0:
87,42,178068,6,2,P|143:48|205:45,2,107.999996704102,6|6|6,1:0|1:0|1:0,1:0:0:0:
143,146,179520,2,0,P|204:138|252:139,1,107.999996704102,4|8,1:0|1:0,0:0:0:0:
324,168,180326,1,8,1:0:0:0:
399,145,180649,6,0,P|423:104|396:14,1,143.999995605469,4|0,1:0|0:0,0:0:0:0:
321,37,181617,2,0,P|268:49|244:52,1,71.9999978027344,8|2,1:0|1:2,0:0:0:0:
129,153,182584,1,0,0:0:0:0:
279,202,183229,6,0,P|308:248|319:340,1,143.999995605469,2|0,1:2|0:0,0:0:0:0:
396,353,184197,2,0,P|399:303|396:268,1,71.9999978027344,8|2,1:0|1:2,0:0:0:0:
354,170,185004,2,0,P|355:113|368:56,1,107.999996704102,2|8,0:0|1:0,0:0:0:0:
430,18,185810,37,4,1:0:0:0:
491,163,186455,1,0,1:0:0:0:
372,268,187100,1,2,1:2:0:0:
236,186,187746,1,2,1:0:0:0:
271,32,188391,6,0,P|328:56|368:104,2,107.999996704102,4|4|12,1:0|1:0|1:0,0:0:0:0:
193,53,189681,2,2,B|155:61|155:61|113:50|113:50|74:59,1,120,2|10,1:0|1:0,1:0:0:0:
52,257,190971,2,0,L|41:354,2,79.9999999999999,4|4|4,1:0|1:0|1:0,0:0:0:0:
119,214,191939,5,8,1:0:0:0:
184,260,192262,2,0,P|245:266|313:240,2,120,6|6|6,1:0|2:1|1:0,0:0:0:0:
75,142,193874,2,0,P|145:107|231:106,1,160,8|8,1:0|1:0,0:0:0:0:
290,150,194842,5,2,1:2:0:0:
252,305,195487,1,0,1:0:0:0:
322,342,195810,2,0,B|358:361|358:361|478:350,2,160,8|8|8,1:0|1:0|1:0,0:0:0:0:
252,305,197423,38,0,P|259:249|240:174,2,120,6|6|6,1:0|2:1|1:0,0:0:0:0:
102,247,199036,2,0,P|93:167|131:80,1,160,8|8,1:0|1:0,0:0:0:0:
188,51,200003,6,0,L|319:54,2,120,2|6|8,1:0|1:0|1:0,0:0:0:0:
192,131,201294,2,0,L|314:134,1,120,4|2,1:0|1:0,0:0:0:0:
379,90,202100,1,2,1:0:0:0:
349,206,202584,6,0,P|361:268|404:307,2,120,6|6|6,1:0|2:1|1:0,0:0:0:0:
232,316,204197,2,0,P|160:331|71:302,1,160,8|8,1:0|1:0,0:0:0:0:
45,234,205165,5,2,1:2:0:0:
165,128,205810,1,0,1:0:0:0:
235,165,206132,2,0,B|277:175|314:158|314:158|347:143|391:156,2,160,8|12|12,1:0|1:0|1:0,0:0:0:0:
165,128,207745,38,0,P|152:70|193:13,2,120,4|0|8,1:0|0:0|1:0,0:0:0:0:
232,84,209036,2,2,P|305:91|368:66,1,120,6|6,1:0|1:0,1:0:0:0:
497,210,210326,22,0,L|505:339,2,120,4|0|8,1:0|0:0|1:0,0:0:0:0:
429,166,211616,2,0,B|370:159|370:159|310:180,2,120,6|6|8,1:0|1:0|1:0,0:0:0:0:
440,86,212907,6,0,B|361:76|361:76|274:105,1,160,4|0,1:0|1:0,0:0:0:0:
172,214,214197,2,0,B|22:198,2,120,6|6|8,1:0|1:0|1:0,0:0:0:0:
233,265,215487,6,0,B|273:267|273:267|318:254,1,79.9999999999999,6|0,1:0|1:0,0:0:0:0:
358,190,216133,2,0,B|400:187|400:187|443:198,1,79.9999999999999,8|8,1:0|1:0,0:0:0:0:
474,265,216778,5,2,1:0:0:0:
474,265,218068,6,0,P|412:295|319:281,1,143.999995605469,4|0,1:0|1:0,0:0:0:0:
274,243,219036,1,8,1:0:0:0:
197,261,219358,2,0,P|174:307|171:368,2,107.999996704102,2|2|8,1:0|0:0|1:0,0:0:0:0:
274,243,220649,6,0,B|267:208|236:181|197:180|197:180|221:148|222:108|200:77,1,215.999993408203,6|8,1:0|1:0,0:0:0:0:
137,126,221939,1,6,1:0:0:0:
295,135,222584,1,6,1:0:0:0:
197,261,223229,6,0,P|89:270|8:203,1,215.999993408203,4|8,1:0|1:3,0:0:0:0:
13,126,224520,1,4,1:0:0:0:
155,57,225165,1,0,1:0:0:0:
238,191,225810,5,4,0:1:0:0:
238,191,227100,2,0,L|317:168,1,71.9999978027344,4|8,1:0|1:0,0:0:0:0:
383,147,227746,1,10,1:0:0:0:
256,52,228391,5,4,1:0:0:0:
256,192,228471,12,2,230971,0:0:0:0:
