osu file format v14

[General]
AudioFilename: audio.mp3
AudioLeadIn: 0
PreviewTime: 126052
Countdown: 1
SampleSet: Soft
StackLeniency: 0.7
Mode: 0
LetterboxInBreaks: 0
WidescreenStoryboard: 1

[Editor]
Bookmarks: 149681,160004
DistanceSpacing: 0.6
BeatDivisor: 4
GridSize: 4
TimelineZoom: 1.6

[Metadata]
Title:Senaka Awase no Kuukyo (with Kakichoco)
TitleUnicode:背中合わせの空虚 (with 柿チョコ)
Artist:*namirin
ArtistUnicode:*なみりん
Creator:jonathanlfj
Version:Delis' Insane
Source:
Tags:柿チョコ Kakichoco 5colors featured artist handsome Delis
BeatmapID:1514696
BeatmapSetID:716249

[Difficulty]
HPDrainRate:6
CircleSize:4
OverallDifficulty:8
ApproachRate:9
SliderMultiplier:1.8
SliderTickRate:1

[Events]
//Background and Video events
0,0,"collab.png",0,0
//Break Periods
2,149881,159404
//Storyboard Layer 0 (Background)
//Storyboard Layer 1 (Fail)
//Storyboard Layer 2 (Pass)
//Storyboard Layer 3 (Foreground)
//Storyboard Sound Samples

[TimingPoints]
1940,322.58064516129,4,2,1,50,1,0
1940,-200,4,2,1,50,0,0
9359,-100,4,2,1,60,0,0
9681,-100,4,2,1,70,0,0
16294,-100,4,2,1,40,0,0
16375,-100,4,2,1,10,0,0
16456,-90.9090909090909,4,2,1,45,0,0
16536,-100,4,2,1,10,0,0
16617,-90.9090909090909,4,2,1,50,0,0
16698,-100,4,2,1,10,0,0
16778,-83.3333333333333,4,2,1,55,0,0
16859,-100,4,2,1,10,0,0
16939,-83.3333333333333,4,2,1,60,0,0
17020,-100,4,2,1,10,0,0
17101,-83.3333333333333,4,2,1,65,0,0
17181,-100,4,2,1,10,0,0
17262,-76.9230769230769,4,2,1,70,0,0
17343,-100,4,2,1,10,0,0
17423,-333.333333333333,4,2,1,60,0,0
17585,-100,4,2,1,60,0,0
19359,-100,4,2,1,70,0,0
20004,-100,4,2,1,60,0,0
21536,-100,4,2,1,5,0,0
21617,-100,4,2,1,60,0,0
23794,-100,4,2,1,5,0,0
23875,-100,4,2,1,60,0,0
31536,-100,4,2,1,5,0,0
31617,-100,4,2,1,60,0,0
37746,-125,4,2,1,60,0,0
37988,-100,4,2,1,5,0,0
38069,-100,4,1,1,60,0,0
38714,-100,4,2,1,60,0,0
38875,-100,4,1,1,60,0,0
39359,-100,4,2,1,70,0,0
40649,-100,4,2,1,65,0,0
40891,-100,4,2,1,5,0,0
40972,-100,4,2,1,65,0,0
43149,-100,4,2,1,5,0,0
43230,-100,4,2,1,65,0,0
46375,-100,4,2,1,5,0,0
46456,-100,4,2,1,65,0,0
48391,-100,4,2,1,55,0,0
49036,-100,4,2,1,60,0,0
49681,-100,4,2,1,65,0,0
53552,-100,4,2,1,55,0,0
54117,-100,4,2,1,5,0,0
54198,-100,4,2,1,60,0,0
54762,-100,4,2,1,5,0,0
54843,-100,4,2,1,65,0,0
55407,-100,4,2,1,5,0,0
55488,-100,4,2,1,65,0,0
60004,-100,4,2,1,70,0,0
60488,-100,4,2,1,75,0,0
62262,-166.666666666667,4,2,1,75,0,0
62423,-100,4,2,1,75,0,0
63794,-100,4,2,1,5,0,0
63875,-100,4,2,1,75,0,0
67423,-166.666666666667,4,2,1,75,0,0
67504,-100,4,2,1,75,0,0
68956,-100,4,2,1,5,0,0
69036,-100,4,2,1,75,0,0
71052,-100,4,2,1,5,0,0
71133,-100,4,2,1,75,0,0
72585,-166.666666666667,4,2,1,75,0,0
72988,-100,4,2,1,75,0,0
76052,-100,4,2,1,5,0,0
76133,-100,4,2,1,75,0,0
82181,-100,4,2,1,5,0,0
82262,-100,4,2,1,60,0,0
82585,-100,4,2,1,65,0,0
82907,-100,4,2,1,70,0,0
83230,-100,4,2,1,75,0,0
84520,-100,4,2,1,60,0,0
88633,-100,4,2,1,5,0,0
88714,-100,4,2,1,60,0,0
89036,-90.9090909090909,4,2,1,60,0,0
89359,-83.3333333333333,4,2,1,60,0,0
89681,-100,4,2,1,60,0,0
90972,-100,4,2,1,40,0,0
91133,-100,4,2,1,45,0,0
91294,-100,4,2,1,50,0,0
91456,-100,4,2,1,55,0,0
91778,-100,4,2,1,60,0,0
91939,-100,4,2,1,65,0,0
92101,-100,4,2,1,70,0,0
92262,-125,4,2,1,60,0,0
94198,-125,4,2,1,70,0,0
95488,322.58064516129,4,2,1,60,1,0
99600,-100,4,2,1,5,0,0
99681,-100,4,2,1,60,0,0
103229,-100,4,1,1,60,0,0
103794,-100,4,2,1,5,0,0
103875,-100,4,2,1,60,0,0
104036,-100,4,1,1,60,0,0
104439,-100,4,2,1,5,0,0
104520,-100,4,2,1,70,0,0
105246,-100,4,2,1,5,0,0
105326,-100,4,2,1,70,0,0
105810,-100,4,2,1,65,0,0
113552,-100,4,2,1,55,0,0
114197,-100,4,2,1,60,0,0
114842,-100,4,2,1,65,0,0
118713,-100,4,2,1,55,0,0
119278,-100,4,2,1,5,0,0
119358,-100,4,2,1,60,0,0
119923,-100,4,2,1,5,0,0
120004,-100,4,2,1,65,0,0
120568,-100,4,2,1,5,0,0
120649,-100,4,2,1,65,0,0
125165,-100,4,2,1,70,0,0
125649,-100,4,2,1,75,0,0
127423,-166.666666666667,4,2,1,75,0,0
127987,-100,4,2,1,75,0,0
128955,-100,4,2,1,5,0,0
129036,-100,4,2,1,75,0,0
132584,-166.666666666667,4,2,1,75,0,0
132746,-100,4,2,1,75,0,0
134117,-100,4,2,1,5,0,0
134197,-100,4,2,1,75,0,0
136213,-100,4,2,1,5,0,0
136294,-100,4,2,1,75,0,0
137746,-166.666666666667,4,2,1,75,0,0
138068,-100,4,2,1,75,0,0
147423,-100,4,2,1,60,0,0
147746,-100,4,2,1,65,0,0
148068,-100,4,2,1,70,0,0
148391,-100,4,2,1,75,0,0
160004,-125,4,2,1,55,0,0
166455,-100,4,2,1,55,0,0
167746,-100,4,2,1,60,0,0
167987,-100,4,2,1,5,0,0
168068,-100,4,2,1,60,0,0
169681,-100,4,2,1,60,0,0
170326,-100,4,2,1,65,0,0
178068,-100,4,2,1,70,0,0
179358,-100,4,2,1,65,0,0
186052,-100,4,2,1,5,0,0
186133,-100,4,2,1,65,0,0
188310,-100,4,2,1,5,0,0
188391,-100,4,2,1,65,0,0
189681,-100,4,2,1,75,0,0
192262,-100,4,2,1,80,0,0
193229,-125,4,2,1,80,0,0
193552,-100,4,2,1,80,0,0
196697,-100,4,2,1,5,0,0
196778,-100,4,2,1,80,0,0
198391,-125,4,2,1,80,0,0
198633,-100,4,2,1,80,0,0
203552,-125,4,2,1,80,0,0
203713,-100,4,2,1,80,0,0
207020,-100,4,2,1,5,0,0
207100,-100,4,2,1,80,0,0
216133,-100,4,2,1,70,0,0
216455,-100,4,2,1,75,0,0
216778,-100,4,2,1,80,0,0
218068,-100,4,2,1,70,0,0
222584,-90.9090909090909,4,2,1,70,0,0
222907,-83.3333333333333,4,2,1,70,0,0
223229,-100,4,2,1,70,0,0
224681,-100,4,2,1,40,0,0
224842,-100,4,2,1,45,0,0
225004,-100,4,2,1,50,0,0
225165,-100,4,2,1,55,0,0
225326,-100,4,2,1,60,0,0
225487,-100,4,2,1,65,0,0
225649,-100,4,2,1,70,0,0
225810,-100,4,2,1,60,0,0
227342,-100,4,2,1,5,0,0
227423,-100,4,2,1,65,0,0
227746,-100,4,2,1,70,0,0
228471,-100,4,2,1,50,0,0
230971,-100,4,2,1,30,0,0

[Colours]
Combo1 : 240,142,206
Combo2 : 113,63,197
Combo3 : 125,129,255
Combo4 : 255,53,139

[HitObjects]
432,96,1940,37,2,0:0:0:0:
356,100,2101,1,0,0:0:0:0:
280,104,2262,1,0,0:0:0:0:
204,108,2423,2,0,L|96:112,2,90,2|0|0,0:0|0:0|0:0,0:0:0:0:
280,104,3230,2,0,B|304:148|304:200|288:240,1,135,2|2,0:0|0:0,0:0:0:0:
236,296,3875,1,0,0:0:0:0:
164,344,4520,5,2,0:0:0:0:
240,348,4681,1,0,0:0:0:0:
316,352,4842,1,0,0:0:0:0:
392,356,5003,2,0,L|500:360,2,90,2|0|0,0:0|0:0|0:0,0:0:0:0:
352,288,5810,2,0,B|280:268|220:308,1,135,2|2,0:0|0:0,0:0:0:0:
340,208,6617,2,0,B|372:172|356:112,1,90
344,48,7101,37,2,0:0:0:0:
280,88,7262,1,0,0:0:0:0:
204,96,7423,1,0,0:0:0:0:
140,60,7585,2,0,B|88:44|40:72|32:124,1,135,2|2,0:0|0:0,0:0:0:0:
33,115,8391,1,2,0:0:0:0:
296,348,8714,1,0,0:0:0:0:
212,348,9036,1,0,0:0:0:0:
468,156,9359,5,0,0:0:0:0:
468,236,9520,1,0,0:0:0:0:
328,200,9681,6,0,L|312:96,1,90,4|0,1:0|0:0,0:0:0:0:
314,111,10165,2,0,P|252:172|140:156,1,180,8|8,1:3|1:3,0:0:0:0:
16,72,10649,1,8,1:0:0:0:
16,72,10972,6,0,B|84:68|120:164|68:216,1,180,2|0,1:2|1:0,0:0:0:0:
232,356,11456,2,0,B|164:360|128:264|180:212,1,180,8|8,1:3|1:3,0:0:0:0:
320,120,11939,1,8,1:0:0:0:
256,188,12101,1,8,1:0:0:0:
256,188,12181,1,8,1:0:0:0:
256,188,12262,1,4,1:0:0:0:
396,232,12585,5,2,1:2:0:0:
232,280,12746,2,0,P|288:296|344:284,1,90,8|0,1:3|0:0,0:0:0:0:
352,56,13069,5,8,1:3:0:0:
352,140,13230,1,8,1:0:0:0:
432,100,13391,1,2,1:2:0:0:
196,88,13552,6,0,P|192:136|192:188,1,90,4|0,1:0|0:0,0:0:0:0:
108,164,13875,2,0,P|60:168|8:168,1,90,2|0,1:2|0:0,0:0:0:0:
300,260,14198,2,0,P|292:208|296:152,1,90,4|0,1:0|0:0,0:0:0:0:
376,176,14520,2,0,L|468:164,1,90,8|8,1:3|1:0,0:0:0:0:
465,164,14762,1,8,1:0:0:0:
465,164,14843,1,4,1:0:0:0:
468,256,15004,5,0,1:0:0:0:
468,256,15085,1,0,0:0:0:0:
468,256,15165,1,2,1:2:0:0:
412,88,15327,1,8,1:3:0:0:
412,88,15649,5,8,1:0:0:0:
256,152,15810,1,8,1:3:0:0:
372,268,15972,1,8,1:0:0:0:
356,168,16133,6,0,L|300:208,1,45,4|0,1:0|0:0,0:0:0:0:
260,308,16294,2,0,L|272:244,1,45,0|0,1:0|0:0,0:0:0:0:
176,160,16456,6,0,L|168:80,1,49.5000015106202,2|0,1:2|0:0,0:0:0:0:
144,256,16617,2,0,L|96:300,1,49.5000015106202,2|0,1:2|0:0,0:0:0:0:
260,140,16778,6,0,L|252:64,1,53.9999983520508,0|0,1:0|0:0,0:0:0:0:
232,280,16939,2,0,L|224:204,1,53.9999983520508,8|0,1:0|0:0,0:0:0:0:
340,104,17101,6,0,L|332:12,1,53.9999983520508,8|0,1:0|0:0,0:0:0:0:
316,260,17262,2,0,L|308:168,1,58.4999973220826,8|0,1:0|0:0,0:0:0:0:
416,80,17423,6,0,P|432:156|408:240,1,161.999995056153,4|0,0:1|0:0,0:0:0:0:
338,336,18714,37,4,1:0:0:0:
315,320,18794,1,0,0:0:0:0:
295,300,18875,1,0,0:0:0:0:
285,274,18956,1,0,0:0:0:0:
283,247,19036,1,8,1:0:0:0:
287,220,19117,1,0,1:0:0:0:
296,194,19198,1,8,1:3:0:0:
310,171,19278,1,0,0:0:0:0:
329,151,19359,1,10,1:0:0:0:
202,245,19520,1,10,1:0:0:0:
197,76,19843,37,0,0:0:0:0:
253,142,20004,2,0,P|161:153|110:68,1,180,4|8,1:0|1:0,0:0:0:0:
40,39,20488,2,0,P|36:84|32:144,1,90,0|0,0:0|0:0,0:0:0:0:
167,264,20810,2,0,P|171:219|175:159,1,90,0|8,1:0|1:0,0:0:0:0:
175,175,21133,1,0,0:0:0:0:
72,208,21294,38,0,P|64:292|60:364,1,135,2|0,1:2|0:0,0:0:0:0:
60,342,21617,1,8,1:0:0:0:
268,304,21778,1,0,0:0:0:0:
184,356,21939,1,0,0:0:0:0:
160,188,22101,1,0,1:0:0:0:
160,188,22262,2,0,P|220:204|276:188,1,90,8|0,1:0|0:0,0:0:0:0:
392,336,22585,6,0,P|316:296|216:308,1,180,2|8,1:2|1:0,0:0:0:0:
292,112,23069,2,0,P|368:152|468:140,1,180,2|0,0:0|1:0,0:0:0:0:
180,88,23552,2,0,L|200:224,1,135,8|0,1:0|0:0,0:0:0:0:
199,221,23875,38,0,P|136:200|92:192,1,90,2|0,1:2|0:0,0:0:0:0:
300,192,24198,1,8,1:0:0:0:
388,180,24359,2,0,P|468:172|500:168,1,90,2|0,1:2|0:0,0:0:0:0:
260,112,24681,1,0,1:0:0:0:
344,268,24843,1,8,1:0:0:0:
199,221,25004,1,0,0:0:0:0:
368,48,25165,6,0,P|356:96|364:152,1,90,4|0,1:0|0:0,0:0:0:0:
296,340,25488,2,0,P|320:260|272:168,1,180,8|0,1:0|0:0,0:0:0:0:
204,312,25972,1,0,1:0:0:0:
132,260,26133,38,0,P|80:272|36:304,1,90,8|0,1:0|0:0,0:0:0:0:
208,184,26456,2,0,P|132:176|64:88,1,180,2|8,1:2|1:0,0:0:0:0:
284,136,26939,1,2,0:0:0:0:
284,136,27262,1,0,1:0:0:0:
228,256,27424,1,8,1:0:0:0:
188,72,27585,1,0,0:0:0:0:
356,196,27746,5,4,1:0:0:0:
428,184,28069,1,0,0:0:0:0:
500,172,28391,1,0,0:0:0:0:
400,324,28714,1,0,0:0:0:0:
252,200,29036,37,0,0:0:0:0:
256,116,29198,1,0,0:0:0:0:
256,116,29278,1,0,0:0:0:0:
256,116,29359,1,0,0:0:0:0:
176,244,29520,1,0,1:0:0:0:
336,172,29681,1,0,0:0:0:0:
288,356,29843,5,0,1:0:0:0:
252,288,30004,2,0,P|253:242|251:193,1,90,8|0,1:0|0:0,0:0:0:0:
184,64,30327,6,0,B|84:28|8:100,1,180,4|8,1:0|1:0,0:0:0:0:
112,136,30810,2,0,B|212:172|288:100,1,180,0|0,0:0|1:0,0:0:0:0:
436,152,31294,2,0,B|404:120|336:144|328:192,1,135,8|0,1:0|0:0,0:0:0:0:
320,208,31617,6,0,P|240:240|196:252,1,90,2|0,1:2|0:0,0:0:0:0:
312,300,31939,1,8,1:0:0:0:
152,288,32101,2,0,B|160:240|160:180,1,90,0|0,0:0|0:0,0:0:0:0:
272,56,32423,1,0,1:0:0:0:
216,144,32585,1,8,1:0:0:0:
160,56,32746,1,0,0:0:0:0:
328,136,32907,38,0,B|392:136|432:128,1,90,2|0,1:2|0:0,0:0:0:0:
488,276,33230,2,0,B|440:276|384:284,1,90,8|2,1:0|0:0,0:0:0:0:
436,200,33552,1,0,0:0:0:0:
376,352,33714,1,0,1:0:0:0:
336,232,33875,5,8,1:0:0:0:
398,282,34036,1,0,0:0:0:0:
372,104,34198,2,0,B|408:128|464:136,1,90,2|0,1:2|0:0,0:0:0:0:
252,320,34520,2,0,B|208:296|160:288,1,90,8|0,1:0|0:0,0:0:0:0:
292,32,34843,2,0,B|288:80|284:136,1,90,2|0,1:2|1:0,0:0:0:0:
204,176,35165,2,0,B|244:200|308:232,1,90,8|0,1:0|0:0,0:0:0:0:
285,121,35488,38,0,B|261:61|165:49|125:109,2,180,4|8|0,1:0|1:0|0:0,0:0:0:0:
232,192,36294,1,0,1:0:0:0:
345,185,36456,2,0,B|301:213|305:273,1,90,8|0,1:0|0:0,0:0:0:0:
92,312,36778,2,0,B|155:299|187:215|128:164,1,180,2|8,1:2|1:0,0:0:0:0:
276,296,37262,1,0,0:0:0:0:
304,208,37423,5,2,0:0:0:0:
400,284,37585,1,0,1:0:0:0:
424,156,37746,2,0,L|412:44,1,108,8|0,1:0|0:0,0:0:0:0:
408,28,38069,37,4,1:0:0:0:
488,92,38230,1,8,1:0:0:0:
236,92,38714,5,8,1:0:0:0:
304,244,38875,1,8,1:0:0:0:
128,64,39359,37,10,1:0:0:0:
112,232,39520,1,2,1:0:0:0:
172,156,39681,1,0,1:0:0:0:
28,192,39843,1,2,1:0:0:0:
324,268,40165,5,6,1:3:0:0:
244,312,40327,1,8,1:0:0:0:
240,224,40488,1,0,0:0:0:0:
440,156,40649,6,0,P|424:228|444:300,1,135,4|0,1:0|0:0,0:0:0:0:
452,304,40972,1,8,1:0:0:0:
336,240,41133,2,0,P|348:292|344:336,1,90,0|0,0:0|0:0,0:0:0:0:
248,188,41456,5,0,1:0:0:0:
248,272,41617,1,8,1:0:0:0:
188,328,41778,1,0,0:0:0:0:
104,328,41939,2,0,P|40:316|0:312,1,90,2|2,1:2|0:0,0:0:0:0:
248,272,42262,2,0,P|312:284|352:288,1,90,8|2,1:0|0:0,0:0:0:0:
88,216,42585,37,2,1:2:0:0:
168,204,42746,1,0,1:0:0:0:
248,188,42907,2,0,P|240:128|236:48,1,135,8|0,1:0|0:0,0:0:0:0:
240,32,43230,6,0,P|168:72|56:56,1,180,2|8,1:2|1:0,0:0:0:0:
324,144,43714,2,0,P|396:104|508:120,1,180,2|0,0:0|1:0,0:0:0:0:
376,32,44198,1,8,1:0:0:0:
244,132,44359,37,0,0:0:0:0:
244,132,44520,2,0,P|176:152|128:156,1,90,2|2,1:2|0:0,0:0:0:0:
228,224,44843,1,8,1:0:0:0:
336,308,45004,2,0,P|320:220|380:132,2,180,2|0|2,0:0|1:0|0:0,0:0:0:0:
240,348,45810,6,0,P|232:300|220:244,1,90,0|0,0:0|0:0,0:0:0:0:
112,196,46133,2,0,P|132:264|120:344,1,135,8|0,1:0|0:0,0:0:0:0:
112,348,46456,1,0,1:0:0:0:
40,304,46617,1,0,1:0:0:0:
152,116,46778,38,0,P|188:164|200:200,1,90,8|0,1:0|0:0,0:0:0:0:
276,256,47101,2,0,P|288:204|284:152,1,90,2|2,1:2|0:0,0:0:0:0:
432,88,47423,2,0,P|420:140|424:192,1,90,8|0,1:0|0:0,0:0:0:0:
388,324,47746,1,2,1:2:0:0:
376,244,47907,1,0,1:0:0:0:
224,312,48069,1,10,1:0:0:0:
240,168,48230,1,0,0:0:0:0:
316,348,48391,6,0,P|308:304|304:244,1,90,6|0,1:0|0:0,0:0:0:0:
140,288,48714,2,0,P|148:332|152:392,1,90,8|0,1:0|0:0,0:0:0:0:
124,200,49036,2,0,P|80:208|20:212,1,90,6|0,1:0|0:0,0:0:0:0:
288,180,49359,2,0,P|332:172|392:168,1,90,8|0,1:0|0:0,0:0:0:0:
316,336,49681,2,2,P|240:292|148:316,1,180,6|8,1:0|1:0,1:0:0:0:
154,311,50165,5,0,0:0:0:0:
256,200,50327,1,2,1:2:0:0:
144,200,50488,1,0,0:0:0:0:
280,112,50649,1,12,1:0:0:0:
324,276,50810,1,0,0:0:0:0:
352,176,50972,6,0,B|416:144|480:200|472:264,1,180,4|8,1:0|1:0,0:0:0:0:
260,220,51456,2,0,B|216:224|164:224,1,90,0|0,0:0|1:0,0:0:0:0:
170,223,51778,1,0,1:0:0:0:
352,176,51939,2,0,B|400:176|444:172,1,90,8|0,1:0|0:0,0:0:0:0:
464,308,52262,2,0,B|376:316|280:316,1,180,2|8,1:2|1:0,0:0:0:0:
200,312,52746,1,2,0:0:0:0:
116,344,52907,2,0,B|100:296|116:244,1,90,0|0,1:0|1:0,0:0:0:0:
200,168,53230,37,8,1:0:0:0:
200,168,53310,1,0,1:0:0:0:
200,168,53391,1,8,1:3:0:0:
200,168,53472,1,0,0:0:0:0:
200,168,53552,2,0,B|140:172|80:168,1,90,0|0,1:0|1:0,0:0:0:0:
312,256,53875,2,2,B|244:248|176:256,1,135,14|0,1:0|1:0,1:0:0:0:
104,260,54198,6,0,B|104:320|100:356,1,90,0|0,1:0|1:0,0:0:0:0:
28,168,54520,2,2,B|32:240|20:324,1,135,14|0,1:0|1:0,1:0:0:0:
8,344,54843,37,0,1:0:0:0:
184,312,55004,1,0,1:0:0:0:
256,352,55165,2,2,L|412:336,1,135,14|0,1:0|1:0,1:0:0:0:
416,332,55488,5,0,1:0:0:0:
380,176,55649,1,0,1:0:0:0:
512,200,55810,1,10,1:0:0:0:
488,112,55972,37,0,1:0:0:0:
488,112,56052,1,8,1:0:0:0:
488,112,56133,2,0,B|444:92|384:100,1,90,4|0,1:0|0:0,0:0:0:0:
399,98,56456,1,8,1:0:0:0:
192,72,56617,2,0,B|240:116|328:92|344:20,1,180,0|0,1:0|0:0,0:0:0:0:
200,176,57101,6,0,B|160:212|176:276,1,90,8|0,1:0|0:0,0:0:0:0:
36,132,57423,2,0,B|88:148|136:104,1,90,2|0,1:2|0:0,0:0:0:0:
72,288,57746,2,0,B|60:236|0:216,1,90,8|0,1:0|1:0,0:0:0:0:
212,96,58069,1,2,1:2:0:0:
216,224,58230,1,0,1:0:0:0:
328,144,58391,2,0,B|324:100|328:52,1,90,8|0,1:0|1:0,1:0:0:0:
340,232,58714,37,6,1:0:0:0:
256,300,58875,1,0,1:0:0:0:
232,196,59036,1,8,1:0:0:0:
400,184,59198,5,2,1:0:0:0:
420,296,59359,1,0,1:0:0:0:
312,260,59520,1,0,1:0:0:0:
476,152,59681,37,10,1:0:0:0:
384,256,59843,1,2,1:2:0:0:
328,120,60004,1,8,1:0:0:0:
472,268,60165,5,0,0:0:0:0:
300,348,60327,1,8,1:0:0:0:
288,228,60972,5,8,1:0:0:0:
280,224,61052,1,8,1:0:0:0:
272,220,61133,1,8,1:0:0:0:
264,216,61214,1,8,1:0:0:0:
256,212,61294,1,4,1:0:0:0:
192,168,61456,1,2,0:0:0:0:
360,208,61778,5,6,2:1:0:0:
156,244,61939,1,0,1:0:0:0:
448,140,62262,38,2,P|476:216|448:304,1,161.999995056153,6|0,1:0|0:0,1:0:0:0:
372,260,62907,5,8,1:0:0:0:
372,260,63230,2,0,P|321:261|276:264,1,90,0|0,1:0|1:0,0:0:0:0:
128,96,63552,38,0,P|192:92|268:92,1,135,8|0,1:0|0:0,0:0:0:0:
288,72,63875,2,0,P|284:120|288:172,1,90,2|0,1:2|0:0,0:0:0:0:
368,200,64198,2,0,P|372:152|368:100,1,90,8|0,1:0|0:0,0:0:0:0:
208,308,64520,2,0,P|253:310|300:308,1,90,0|0,0:0|1:0,0:0:0:0:
160,224,64843,2,0,P|213:227|276:224,1,90,8|0,1:0|0:0,0:0:0:0:
420,360,65165,6,0,P|476:284|440:196,1,180,2|8,1:2|1:0,0:0:0:0:
360,208,65649,1,8,1:3:0:0:
348,76,65810,1,8,1:0:0:0:
440,128,65972,1,8,1:3:0:0:
280,188,66133,37,8,1:0:0:0:
284,196,66214,1,8,1:0:0:0:
288,204,66294,1,8,1:0:0:0:
292,212,66375,1,8,1:0:0:0:
296,220,66456,1,4,1:0:0:0:
232,292,66617,1,2,0:0:0:0:
308,124,66939,5,6,2:1:0:0:
272,320,67101,1,0,1:0:0:0:
220,160,67423,38,2,P|160:212|68:196,1,161.999995056153,6|0,1:0|0:0,1:0:0:0:
28,144,68069,5,8,1:0:0:0:
28,144,68391,2,0,P|80:132|116:116,1,90,0|0,1:0|1:0,0:0:0:0:
152,28,68714,2,0,P|100:40|64:56,1,90,8|0,1:0|0:0,0:0:0:0:
176,192,69036,38,2,P|284:212|344:144,1,180,2|8,1:0|1:0,1:0:0:0:
408,108,69520,2,2,P|308:84|240:152,1,180,6|0,1:0|1:0,1:0:0:0:
400,300,70004,2,0,B|428:260|412:200,1,90,8|0,1:0|0:0,0:0:0:0:
328,48,70327,5,4,1:0:0:0:
292,240,70488,1,0,0:0:0:0:
292,240,70569,1,0,0:0:0:0:
292,240,70649,1,8,1:0:0:0:
164,92,70810,37,2,1:0:0:0:
240,120,71133,1,2,1:0:0:0:
188,268,71294,21,8,1:0:0:0:
192,276,71375,1,0,1:0:0:0:
196,284,71456,1,8,1:3:0:0:
200,292,71536,1,0,1:0:0:0:
204,300,71617,1,4,1:0:0:0:
308,288,71778,1,2,0:0:0:0:
144,212,72101,5,6,2:1:0:0:
224,376,72263,1,0,1:0:0:0:
264,196,72585,38,2,B|312:164|308:84|248:56,1,161.999995056153,6|0,1:0|0:0,1:0:0:0:
368,100,73230,6,0,B|420:100|464:96,1,90,8|0,1:0|0:0,0:0:0:0:
412,24,73552,1,0,1:0:0:0:
424,176,73714,1,0,1:0:0:0:
288,96,73875,2,0,B|292:148|292:192,1,90,8|0,1:0|0:0,0:0:0:0:
296,284,74198,37,2,1:2:0:0:
204,304,74359,1,0,0:0:0:0:
332,248,74520,1,8,1:0:0:0:
360,368,74681,1,0,0:0:0:0:
240,208,74843,6,0,B|232:164|228:112,1,90,0|0,1:0|1:0,0:0:0:0:
300,52,75165,1,8,1:0:0:0:
320,148,75327,1,8,1:0:0:0:
320,148,75407,1,0,1:0:0:0:
320,148,75488,1,2,1:2:0:0:
152,172,75649,37,0,1:0:0:0:
72,140,75810,2,0,B|76:188|80:232,1,90,12|0,1:0|0:0,0:0:0:0:
248,312,76133,1,0,1:0:0:0:
232,228,76294,1,0,1:0:0:0:
320,252,76456,2,0,B|320:208|308:144,1,90,12|0,1:0|0:0,0:0:0:0:
144,192,76778,6,0,B|88:228|104:328|168:336,1,180,4|8,1:0|1:0,0:0:0:0:
256,296,77262,1,0,0:0:0:0:
344,336,77423,1,2,1:2:0:0:
252,216,77585,1,0,1:0:0:0:
163,335,77746,1,8,1:0:0:0:
152,240,77907,1,0,0:0:0:0:
336,240,78069,38,0,B|392:248|456:264,1,90,6|0,1:0|0:0,0:0:0:0:
424,256,78391,1,8,1:0:0:0:
336,240,78552,2,0,B|280:184|324:84,1,135,6|0,1:0|0:0,0:0:0:0:
336,88,78875,1,0,1:0:0:0:
336,240,79036,2,0,B|324:288|272:324,1,90,8|0,1:0|1:0,0:0:0:0:
56,328,79359,38,0,P|92:280|208:272,1,180,4|8,1:0|1:0,0:0:0:0:
204,270,79843,2,0,P|216:328|220:376,1,90,0|2,0:0|1:2,0:0:0:0:
136,336,80165,1,0,1:0:0:0:
292,304,80327,1,8,1:0:0:0:
120,228,80488,1,0,0:0:0:0:
272,188,80649,2,0,P|332:180|380:168,1,90,6|0,1:0|0:0,0:0:0:0:
204,270,80972,37,8,1:0:0:0:
164,76,81133,1,6,1:0:0:0:
164,76,81456,1,0,1:0:0:0:
188,180,81617,1,8,1:0:0:0:
264,112,81778,1,0,1:0:0:0:
104,148,81939,22,0,P|56:160|8:168,1,90,6|0,1:0|0:0,0:0:0:0:
260,220,82262,2,0,P|228:264|184:312,1,90,0|0,1:0|1:0,0:0:0:0:
396,88,82585,37,8,1:0:0:0:
416,220,82746,1,2,1:0:0:0:
324,156,82907,1,8,1:0:0:0:
344,292,83069,1,10,1:0:0:0:
500,204,83230,1,2,1:0:0:0:
204,304,84198,2,0,L|220:244,1,45,8|8,1:0|1:0,0:0:0:0:
244,244,84359,2,0,L|232:184,1,45,8|8,1:0|1:0,0:0:0:0:
216,120,84520,5,4,1:0:0:0:
300,152,84681,2,0,P|344:152|408:148,1,90,2|8,0:0|1:0,0:0:0:0:
212,232,85004,2,0,P|168:232|104:236,1,90,2|0,0:0|1:0,0:0:0:0:
64,176,85327,1,2,1:2:0:0:
140,312,85488,1,8,1:0:0:0:
24,288,85649,1,0,0:0:0:0:
176,200,85810,6,0,P|184:136|176:92,1,90,2|0,1:0|0:0,0:0:0:0:
328,96,86133,2,0,P|320:160|328:204,1,90,8|2,1:0|0:0,0:0:0:0:
288,296,86456,1,0,1:0:0:0:
404,208,86617,1,0,1:0:0:0:
252,144,86778,1,8,1:0:0:0:
252,144,87101,6,0,P|172:200|72:168,1,180,6|8,1:0|1:0,0:0:0:0:
0,188,87585,2,0,P|28:228|44:276,1,90,2|0,0:0|1:0,0:0:0:0:
168,108,87907,1,2,1:2:0:0:
84,116,88069,2,0,P|56:76|40:28,1,90,8|2,1:0|0:0,0:0:0:0:
176,200,88391,6,0,P|160:264|188:360,1,135,6|0,1:0|0:0,0:0:0:0:
172,330,88714,2,0,P|108:352|68:368,1,90,10|0,1:0|1:0,0:0:0:0:
280,272,89036,6,0,P|328:280|388:292,1,99.0000030212403,6|0,1:0|0:0,0:0:0:0:
436,72,89359,22,0,P|426:127|416:188,1,107.999996704102,10|0,1:0|1:0,0:0:0:0:
316,108,89681,37,4,1:0:0:0:
248,240,89843,1,0,1:0:0:0:
248,240,89923,1,0,1:0:0:0:
248,240,90004,1,8,1:0:0:0:
148,128,90165,1,2,1:2:0:0:
148,128,90488,37,8,1:0:0:0:
316,108,90649,1,8,1:3:0:0:
148,128,90810,1,8,1:0:0:0:
316,108,90972,2,0,P|368:116|424:120,1,90,4|0,1:0|1:0,0:0:0:0:
480,160,91294,5,2,1:2:0:0:
488,80,91456,1,2,1:2:0:0:
368,232,91617,5,0,1:0:0:0:
460,248,91778,1,8,1:0:0:0:
252,196,91939,5,8,1:0:0:0:
272,312,92101,1,8,1:0:0:0:
148,276,92262,6,0,P|156:220|108:120,1,144,4|0,0:1|1:0,0:0:0:0:
360,112,92907,2,0,P|352:168|392:264,1,144,4|4,1:3|1:3,0:0:0:0:
272,352,93552,5,4,1:0:0:0:
220,280,93714,1,0,0:0:0:0:
240,268,93794,1,0,0:0:0:0:
260,256,93875,1,8,1:0:0:0:
280,244,93956,1,0,1:0:0:0:
264,232,94036,1,8,1:3:0:0:
248,220,94117,1,0,1:3:0:0:
232,208,94198,1,10,1:0:0:0:
368,248,94359,1,10,1:0:0:0:
368,248,95165,21,8,1:0:0:0:
372,252,95246,1,8,1:0:0:0:
376,256,95327,1,8,1:0:0:0:
380,260,95407,1,8,1:0:0:0:
384,264,95488,2,0,P|436:264|480:260,1,90,4|0,1:0|0:0,0:0:0:0:
512,328,95810,1,8,1:0:0:0:
364,340,95971,2,0,P|304:352|232:248,1,180,0|0,0:0|1:0,0:0:0:0:
144,228,96455,2,0,P|152:288|152:332,1,90,8|0,1:0|0:0,0:0:0:0:
304,248,96778,37,2,1:2:0:0:
292,128,96939,1,0,0:0:0:0:
304,248,97100,1,8,1:0:0:0:
412,176,97262,2,0,P|408:128|408:64,1,90,2|0,0:0|1:0,0:0:0:0:
312,204,97584,1,0,1:0:0:0:
488,192,97746,2,0,P|492:252|492:292,1,90,8|0,1:0|0:0,0:0:0:0:
404,360,98068,2,0,P|312:364|216:364,2,180,2|8|0,1:2|1:0|0:0,0:0:0:0:
404,360,98875,1,0,1:0:0:0:
400,184,99036,6,0,P|392:236|404:280,1,90,8|0,1:0|0:0,0:0:0:0:
296,204,99358,2,0,P|304:140|272:60,1,135,2|0,1:2|0:0,0:0:0:0:
281,74,99681,2,0,L|379:91,1,90,8|0,1:0|1:0,0:0:0:0:
204,140,100004,2,0,P|196:108|176:40,1,90,0|0,1:0|1:0,0:0:0:0:
104,224,100326,2,0,P|88:160|76:124,1,90,8|0,1:0|0:0,0:0:0:0:
79,137,100649,38,0,P|40:152|-12:168,1,90,4|0,1:0|0:0,0:0:0:0:
200,232,100971,2,0,P|239:217|291:201,1,90,8|0,1:0|0:0,0:0:0:0:
340,136,101294,1,0,1:0:0:0:
320,268,101455,1,0,1:0:0:0:
220,136,101617,5,8,1:0:0:0:
368,208,101778,1,0,0:0:0:0:
224,300,101939,2,0,P|120:276|100:208,1,180,2|8,1:2|1:0,0:0:0:0:
99,215,102423,1,0,0:0:0:0:
72,344,102584,2,0,P|120:348|172:344,1,90,2|0,0:0|1:0,0:0:0:0:
408,372,102907,2,0,P|360:368|308:372,1,90,8|0,1:0|0:0,0:0:0:0:
161,345,103229,37,4,1:0:0:0:
318,370,103391,1,8,1:0:0:0:
80,268,103875,5,8,1:0:0:0:
288,240,104036,1,8,1:0:0:0:
36,192,104520,37,10,1:0:0:0:
168,252,104681,1,2,1:0:0:0:
168,252,104762,1,0,0:0:0:0:
168,252,104843,1,0,1:0:0:0:
240,132,105004,1,2,1:0:0:0:
240,132,105326,1,6,1:3:0:0:
184,312,105487,21,8,1:0:0:0:
176,176,105649,1,0,0:0:0:0:
320,216,105810,2,0,B|408:204|508:200,1,180,4|8,1:0|1:0,0:0:0:0:
444,280,106294,2,0,B|432:328|436:388,1,90,2|0,0:0|0:0,0:0:0:0:
380,120,106617,2,0,B|392:72|388:12,1,90,0|8,1:0|1:0,0:0:0:0:
472,88,106939,1,0,0:0:0:0:
316,204,107100,6,0,B|300:144|212:116|164:168,1,180,2|8,1:2|1:0,0:0:0:0:
204,248,107584,1,2,0:0:0:0:
92,224,107746,2,0,B|96:176|92:124,1,90,0|0,1:0|1:0,0:0:0:0:
280,212,108068,2,0,B|276:260|280:312,1,90,8|0,1:0|0:0,0:0:0:0:
116,364,108391,38,0,B|56:356|32:260|96:220,1,180,2|8,1:2|1:0,0:0:0:0:
190,204,108875,2,0,B|238:212|294:212,1,90,2|0,0:0|1:0,0:0:0:0:
392,92,109197,1,0,1:0:0:0:
396,252,109358,1,8,1:0:0:0:
300,132,109520,1,0,0:0:0:0:
228,260,109681,2,0,L|36:252,1,180,2|8,1:2|1:0,0:0:0:0:
44,152,110165,6,0,B|128:180|224:160,2,180,2|0|2,0:0|1:0|0:0,0:0:0:0:
52,340,110971,2,0,B|108:332|152:344,1,90
328,204,111294,2,0,B|324:268|228:296|184:248,1,180,8|0,1:0|1:0,0:0:0:0:
220,144,111778,1,0,1:0:0:0:
220,144,111939,1,8,1:0:0:0:
120,96,112100,1,0,0:0:0:0:
120,240,112262,38,0,B|128:292|128:344,1,90,2|2,1:2|0:0,0:0:0:0:
320,224,112584,2,0,B|312:172|312:120,1,90,8|0,1:0|0:0,0:0:0:0:
256,60,112907,1,0,1:0:0:0:
164,216,113068,1,0,1:0:0:0:
320,224,113229,1,10,1:0:0:0:
244,300,113391,1,0,0:0:0:0:
224,128,113552,6,0,B|176:144|112:144,1,90,6|0,1:0|0:0,0:0:0:0:
244,300,113875,2,0,B|292:284|356:284,1,90,8|0,1:0|0:0,0:0:0:0:
324,104,114197,2,0,B|308:148|300:200,1,90,6|0,1:0|0:0,0:0:0:0:
160,292,114520,2,0,B|176:248|184:196,1,90,8|0,1:0|0:0,0:0:0:0:
404,80,114842,37,6,1:0:0:0:
388,160,115004,1,0,0:0:0:0:
324,104,115165,1,8,1:0:0:0:
352,332,115326,21,0,0:0:0:0:
352,332,115407,1,0,0:0:0:0:
352,332,115487,1,2,1:2:0:0:
372,248,115649,1,0,0:0:0:0:
292,268,115810,1,12,1:0:0:0:
312,188,115971,1,0,0:0:0:0:
236,372,116133,6,0,P|204:284|248:196,1,180,4|8,1:0|1:0,0:0:0:0:
248,32,116617,2,0,P|264:96|256:132,1,90,0|0,0:0|1:0,0:0:0:0:
160,188,116939,1,0,1:0:0:0:
328,200,117100,1,8,1:0:0:0:
184,296,117262,1,0,0:0:0:0:
288,340,117423,2,0,P|344:340|388:336,1,90,2|0,1:2|0:0,0:0:0:0:
452,224,117746,37,8,1:0:0:0:
360,264,117907,1,2,0:0:0:0:
364,152,118068,2,0,P|316:156|263:155,1,90,0|0,1:0|1:0,0:0:0:0:
168,224,118391,1,8,1:0:0:0:
168,224,118471,1,0,1:0:0:0:
168,224,118552,1,8,1:3:0:0:
48,132,118713,5,0,1:0:0:0:
52,136,118875,1,0,1:0:0:0:
56,140,119036,2,0,L|48:240,1,90,14|0,1:0|0:0,0:0:0:0:
248,356,119358,37,0,1:0:0:0:
252,352,119520,1,0,1:0:0:0:
256,348,119681,2,0,L|248:248,1,90,14|0,1:0|0:0,0:0:0:0:
236,52,120004,5,0,1:0:0:0:
232,56,120166,1,0,1:0:0:0:
228,60,120326,2,0,L|236:160,1,90,14|0,1:0|0:0,0:0:0:0:
248,258,120649,37,0,1:0:0:0:
156,176,120810,1,0,1:0:0:0:
312,108,120971,1,10,1:0:0:0:
264,344,121133,5,0,1:0:0:0:
264,344,121213,1,8,1:0:0:0:
264,344,121294,2,0,P|376:348|400:264,1,180,4|8,1:0|1:0,0:0:0:0:
402,299,121939,2,0,P|397:240|397:200,1,90,0|0,1:0|1:0,0:0:0:0:
264,344,122262,37,8,1:0:0:0:
402,299,122423,1,0,0:0:0:0:
292,224,122584,2,0,P|240:224|192:220,1,90,2|0,1:2|0:0,0:0:0:0:
174,341,122907,2,0,P|226:341|278:345,1,90,8|0,1:0|0:0,0:0:0:0:
292,224,123229,1,2,1:2:0:0:
174,341,123391,1,0,1:0:0:0:
116,168,123552,2,0,P|72:172|8:172,1,90,8|0,1:0|0:0,0:0:0:0:
184,88,123875,5,6,1:0:0:0:
260,128,124036,1,0,1:0:0:0:
320,68,124197,1,8,1:0:0:0:
192,168,124358,37,2,1:0:0:0:
280,228,124520,1,0,1:0:0:0:
340,144,124681,1,0,1:0:0:0:
200,248,124842,5,10,1:0:0:0:
304,332,125004,1,2,1:2:0:0:
368,220,125165,1,8,1:0:0:0:
180,328,125326,37,8,1:0:0:0:
240,172,125487,1,8,1:0:0:0:
240,172,126133,21,8,1:0:0:0:
268,172,126213,1,8,1:0:0:0:
292,188,126294,1,8,1:0:0:0:
320,188,126375,1,8,1:0:0:0:
344,200,126455,1,4,1:0:0:0:
424,144,126617,1,2,0:0:0:0:
240,264,126939,5,6,2:1:0:0:
396,280,127100,1,0,1:0:0:0:
136,200,127423,38,2,B|76:228|80:320|140:332,1,161.999995056153,6|0,1:0|0:0,1:0:0:0:
130,329,128068,6,0,B|84:344|28:352,1,90,8|0,1:0|0:0,0:0:0:0:
136,200,128391,2,0,B|180:184|238:177,1,90,0|0,1:0|1:0,0:0:0:0:
52,256,128713,2,0,B|40:216|36:152,1,90,8|0,1:0|0:0,0:0:0:0:
280,244,129036,38,0,B|320:300|272:376|208:372,2,180,2|8|0,1:2|1:0|0:0,0:0:0:0:
216,176,129842,1,0,1:0:0:0:
316,136,130004,2,0,B|376:144|424:140,1,90,8|0,1:0|0:0,0:0:0:0:
228,80,130326,5,2,1:2:0:0:
168,232,130487,1,0,0:0:0:0:
316,212,130649,1,8,1:0:0:0:
224,164,130810,1,0,1:0:0:0:
264,316,130971,2,0,B|320:308|372:292,1,90,8|0,1:0|1:0,0:0:0:0:
444,204,131294,37,8,1:0:0:0:
444,204,131375,1,8,1:0:0:0:
444,204,131455,1,8,1:0:0:0:
444,204,131536,1,8,1:0:0:0:
444,204,131617,1,4,1:0:0:0:
424,72,131778,1,2,0:0:0:0:
232,184,132100,5,6,2:1:0:0:
356,216,132262,1,0,1:0:0:0:
148,300,132584,38,2,B|92:312|44:248|68:192,1,161.999995056153,6|0,1:0|0:0,1:0:0:0:
67,193,133229,6,0,B|68:148|76:84,1,90,8|0,1:0|0:0,0:0:0:0:
248,256,133552,2,0,B|252:308|244:364,1,90,0|0,1:0|1:0,0:0:0:0:
17,290,133875,2,0,B|89:266|153:302,1,135,8|0,1:0|0:0,0:0:0:0:
147,299,134197,2,0,B|140:252|136:192,1,90,2|0,1:0|0:0,0:0:0:0:
316,292,134520,37,8,1:0:0:0:
264,160,134681,2,0,B|256:204|248:260,1,90,6|0,1:0|0:0,0:0:0:0:
388,376,135004,1,0,1:0:0:0:
388,376,135165,2,0,B|396:332|400:276,1,90,8|0,1:0|0:0,0:0:0:0:
368,96,135487,5,4,1:0:0:0:
428,168,135649,1,0,0:0:0:0:
348,220,135810,1,8,1:0:0:0:
284,152,135971,1,2,1:0:0:0:
144,56,136294,21,2,1:0:0:0:
60,100,136455,1,8,1:0:0:0:
112,180,136617,1,8,1:3:0:0:
200,144,136778,1,4,1:0:0:0:
32,252,136939,1,2,0:0:0:0:
212,232,137262,37,6,2:1:0:0:
32,168,137423,1,0,1:0:0:0:
132,296,137746,6,2,B|116:240|116:240|128:188|128:188|112:120,1,161.999995056153,6|0,1:0|0:0,1:0:0:0:
116,138,138391,38,0,P|160:119|212:112,1,90,8|0,1:0|0:0,0:0:0:0:
60,52,138713,2,0,P|44:100|8:148,1,90,0|0,1:0|1:0,0:0:0:0:
104,312,139036,2,0,P|84:272|80:216,1,90,8|0,1:0|0:0,0:0:0:0:
252,216,139358,6,0,P|304:296|276:380,1,180,2|8,1:2|1:0,0:0:0:0:
216,308,139842,1,0,0:0:0:0:
376,264,140004,2,0,P|420:248|464:236,1,90,0|0,1:0|1:0,0:0:0:0:
492,156,140326,1,8,1:0:0:0:
452,336,140487,1,8,1:0:0:0:
452,336,140568,1,0,1:0:0:0:
452,336,140649,1,2,1:2:0:0:
364,168,140810,1,0,1:0:0:0:
288,284,140971,37,12,1:0:0:0:
360,264,141133,1,0,0:0:0:0:
248,96,141294,5,0,1:0:0:0:
213,246,141455,1,0,1:0:0:0:
28,216,141617,37,12,1:0:0:0:
116,228,141778,1,0,0:0:0:0:
72,312,141939,2,0,P|176:304|216:228,1,180,4|8,1:0|1:0,0:0:0:0:
292,292,142423,1,0,0:0:0:0:
292,292,142504,1,0,0:0:0:0:
292,292,142584,1,2,1:2:0:0:
288,200,142746,5,0,1:0:0:0:
152,308,142907,1,8,1:0:0:0:
300,376,143068,1,0,0:0:0:0:
236,296,143229,38,0,P|232:248|232:192,1,90,6|0,1:0|0:0,0:0:0:0:
264,124,143552,1,8,1:0:0:0:
400,172,143713,2,2,P|408:272|408:368,1,180,6|0,1:0|1:0,1:0:0:0:
328,300,144197,2,0,P|324:248|324:200,1,90,8|0,1:0|1:0,0:0:0:0:
336,88,144520,22,0,B|324:152|236:180|184:136,1,180,4|8,1:0|1:0,0:0:0:0:
128,72,145004,1,0,0:0:0:0:
191,141,145165,1,2,1:2:0:0:
100,168,145326,1,0,1:0:0:0:
40,100,145487,5,8,1:0:0:0:
44,248,145649,1,0,0:0:0:0:
188,296,145810,1,6,1:0:0:0:
240,220,145971,1,0,0:0:0:0:
240,220,146052,1,0,0:0:0:0:
240,220,146133,1,8,1:0:0:0:
144,208,146294,2,0,B|96:204|36:208,1,90,6|0,1:0|0:0,0:0:0:0:
108,120,146617,5,0,1:0:0:0:
100,284,146778,1,8,1:0:0:0:
188,296,146939,1,0,1:0:0:0:
200,136,147100,2,0,P|272:144|312:144,1,90,6|0,1:0|0:0,0:0:0:0:
464,108,147423,2,0,P|392:100|352:100,1,90,0|0,1:0|1:0,0:0:0:0:
292,64,147746,5,8,1:0:0:0:
396,188,147907,1,2,1:0:0:0:
276,248,148068,1,8,1:0:0:0:
320,136,148229,5,10,1:0:0:0:
296,328,148391,1,2,1:0:0:0:
96,208,149358,2,0,L|104:276,1,45,8|8,1:0|1:0,0:0:0:0:
136,272,149520,2,0,L|128:336,1,45,8|8,1:0|1:0,0:0:0:0:
56,344,149681,1,4,1:0:0:0:
156,292,160004,21,4,1:0:0:0:
168,204,160326,1,8,0:0:0:0:
176,312,160649,1,0,0:0:0:0:
192,216,160971,1,10,0:0:0:0:
208,32,161294,5,0,1:0:0:0:
136,92,161617,1,10,0:0:0:0:
200,56,161778,1,2,0:0:0:0:
88,160,162100,1,2,0:0:0:0:
208,88,162423,1,0,1:0:0:0:
260,156,162584,5,2,1:2:0:0:
192,192,162907,1,8,0:0:0:0:
228,260,163229,1,0,1:0:0:0:
296,224,163552,1,10,0:0:0:0:
196,112,163875,5,2,1:2:0:0:
144,260,164197,1,10,0:0:0:0:
296,308,164520,1,0,1:0:0:0:
296,308,164842,1,8,1:0:0:0:
344,156,165004,5,0,0:0:0:0:
344,156,165084,1,0,0:0:0:0:
344,156,165165,2,0,P|428:160|512:152,1,144,2|10,1:2|0:0,0:0:0:0:
488,244,165649,2,0,P|404:240|320:248,1,144,0|0,0:0|0:0,0:0:0:0:
268,204,166133,1,8,0:0:0:0:
20,188,166455,22,0,B|36:200|36:200|40:192|40:192|44:196|44:196|48:192|48:192|52:196|52:196|56:192|56:192|60:196|60:196|64:192|64:192|68:196|68:196|72:192|72:192|76:196|76:196|80:192|80:192|84:196|84:196|88:192|88:192|92:196|92:196|96:192|96:192|100:196|100:196|104:192|104:192|108:196|108:196|112:192|112:192|116:196|116:196|120:192|120:192|124:196|124:196|128:192|128:192|132:196|132:196|136:192|136:192|140:196|140:196|160:196|160:196,2,180,2|0|2,1:2|0:0|0:0,0:0:0:0:
20,188,167423,2,0,B|56:184|80:216|76:256,1,90,4|0,1:3|0:0,0:0:0:0:
20,188,167746,6,2,B|64:188|96:120|64:80,1,135,6|0,1:0|0:0,1:0:0:0:
67,84,168068,1,8,1:0:0:0:
264,200,168229,2,0,B|216:208|164:224,1,90,10|0,1:3|0:0,0:0:0:0:
200,120,168552,1,0,1:0:0:0:
364,240,168713,1,8,1:3:0:0:
264,200,168875,38,0,B|264:252|268:296,1,90,8|0,1:0|1:0,0:0:0:0:
436,308,169197,2,2,B|492:292|512:200|448:152,1,180,6|0,1:0|0:0,1:0:0:0:
372,96,169681,1,10,1:0:0:0:
92,260,170004,21,14,1:0:0:0:
92,260,170326,2,0,B|104:176|104:176|80:136|80:60,1,180,4|8,1:0|1:0,0:0:0:0:
184,248,170810,2,0,L|196:144,1,90,2|0,0:0|0:0,0:0:0:0:
280,212,171133,1,0,1:0:0:0:
252,308,171294,2,0,P|212:332|156:336,1,90,8|0,1:0|0:0,0:0:0:0:
38,196,171617,6,0,P|103:261|211:217,1,180,2|8,1:2|1:0,0:0:0:0:
364,116,172100,2,0,P|299:181|191:137,1,180,2|0,0:0|1:0,0:0:0:0:
104,120,172584,2,0,L|84:8,1,90,8|0,1:0|0:0,0:0:0:0:
288,272,172907,38,0,B|236:284|208:328|208:328|168:316|120:332,1,180,2|8,1:2|1:0,0:0:0:0:
24,224,173391,1,2,0:0:0:0:
24,224,173471,1,0,0:0:0:0:
24,224,173552,2,0,P|76:228|120:208,1,90,0|0,0:0|1:0,0:0:0:0:
160,52,173875,2,0,L|188:148,1,90,8|0,1:0|0:0,0:0:0:0:
264,180,174197,5,2,1:2:0:0:
236,264,174358,1,0,0:0:0:0:
320,248,174520,1,8,1:0:0:0:
185,138,174681,1,2,0:0:0:0:
156,288,174842,1,0,0:0:0:0:
304,328,175004,1,0,0:0:0:0:
348,172,175165,2,0,P|300:160|244:156,1,90,8|0,1:0|1:0,0:0:0:0:
64,200,175487,38,0,P|116:128|80:32,1,180,4|8,1:0|1:0,0:0:0:0:
200,216,175971,2,0,P|148:288|184:384,1,180,2|0,0:0|1:0,0:0:0:0:
52,368,176455,2,0,P|56:320|32:264,1,90,8|0,1:0|0:0,0:0:0:0:
248,292,176778,6,0,L|340:272,1,90,2|0,1:2|0:0,0:0:0:0:
335,272,177100,1,8,1:0:0:0:
488,192,177262,2,0,P|400:204|328:112,1,180,2|0,0:0|1:0,0:0:0:0:
192,72,177746,2,0,P|216:132|204:180,1,90,8|0,1:0|0:0,0:0:0:0:
104,284,178068,38,2,L|280:244,1,180,6|8,1:0|1:0,1:0:0:0:
368,308,178552,2,2,L|192:348,1,180,6|0,1:0|1:0,1:0:0:0:
120,136,179036,2,2,P|192:180|304:148,1,180,6|0,1:0|1:0,1:0:0:0:
252,344,179520,2,0,P|180:300|68:332,1,180,4|0,1:0|1:0,0:0:0:0:
16,208,180004,2,0,L|124:232,1,90,8|0,1:0|0:0,0:0:0:0:
264,264,180326,1,8,1:0:0:0:
264,264,180407,1,0,1:0:0:0:
264,264,180487,1,0,1:0:0:0:
192,208,180649,21,4,1:0:0:0:
352,192,180810,2,0,B|396:204|448:204,1,90,0|8,0:0|1:0,0:0:0:0:
272,148,181133,1,2,0:0:0:0:
192,208,181294,2,0,B|148:220|96:220,1,90,0|0,0:0|1:0,0:0:0:0:
272,352,181617,2,0,B|316:340|368:340,1,90,8|0,1:0|0:0,0:0:0:0:
488,232,181939,6,0,B|436:272|352:240|348:164,1,180,2|8,1:2|1:0,0:0:0:0:
204,120,182423,2,0,B|264:144|276:232|215:275,1,180,2|0,0:0|1:0,0:0:0:0:
280,344,182907,2,0,B|316:304|376:320,1,90,8|0,1:0|0:0,0:0:0:0:
128,184,183229,38,0,B|68:224|84:320|160:328,1,180,2|8,1:2|1:0,0:0:0:0:
222,269,183713,1,2,0:0:0:0:
280,344,183875,1,0,0:0:0:0:
332,212,184036,1,0,1:0:0:0:
480,248,184197,2,0,B|440:280|392:276,1,90,8|0,1:0|0:0,0:0:0:0:
264,148,184520,6,0,B|312:104|396:124|416:188,1,180,2|8,1:2|1:0,0:0:0:0:
300,292,185004,2,0,B|256:284|192:276,1,90,2|0,0:0|0:0,0:0:0:0:
210,279,185326,1,0,1:0:0:0:
320,104,185487,2,0,B|364:116|428:120,1,90,8|0,1:0|0:0,0:0:0:0:
344,192,185810,38,0,B|276:172|200:164,1,135,4|0,1:0|0:0,0:0:0:0:
184,172,186133,1,8,1:0:0:0:
236,84,186294,1,0,0:0:0:0:
104,228,186455,2,0,B|96:184|100:128,1,90,0|0,1:0|1:0,0:0:0:0:
0,96,186778,2,0,B|12:140|4:196,1,90,8|0,1:0|0:0,0:0:0:0:
152,332,187100,6,0,B|220:324|244:228|180:184,1,180,2|8,1:2|1:0,0:0:0:0:
190,192,187746,2,0,B|240:188|288:176,1,90,2|0,1:0|1:0,0:0:0:0:
340,240,188068,1,8,1:0:0:0:
256,268,188229,1,0,0:0:0:0:
328,64,188391,38,0,B|396:56|444:136|404:196,1,180,4|8,1:0|1:0,0:0:0:0:
448,348,188875,2,0,B|440:304|448:252,1,90,4|0,1:0|1:0,0:0:0:0:
304,348,189197,1,0,1:0:0:0:
304,232,189358,1,12,1:0:0:0:
192,296,189520,1,0,0:0:0:0:
204,180,189681,5,2,1:0:0:0:
344,316,189842,1,10,1:0:0:0:
132,252,190004,1,8,1:0:0:0:
380,212,190165,1,10,1:0:0:0:
252,288,190810,37,0,1:0:0:0:
252,288,190891,1,0,1:0:0:0:
252,288,190971,1,4,1:0:0:0:
380,176,191133,1,0,1:0:0:0:
156,96,191294,5,4,1:0:0:0:
200,224,191455,1,0,1:0:0:0:
252,132,191617,5,4,1:0:0:0:
164,320,191778,1,0,1:0:0:0:
284,196,191939,5,8,1:0:0:0:
284,196,192020,1,8,1:0:0:0:
284,196,192100,1,8,1:0:0:0:
284,196,192181,1,8,1:0:0:0:
284,196,192262,1,6,1:0:0:0:
460,112,192423,1,2,0:0:0:0:
424,360,192746,1,6,2:1:0:0:
352,304,192907,37,0,1:0:0:0:
324,308,192987,1,0,1:0:0:0:
296,312,193068,1,0,1:0:0:0:
268,316,193149,1,0,1:0:0:0:
240,320,193229,2,2,P|160:296|152:164,1,216,6|0,1:0|0:0,1:0:0:0:
292,160,193875,6,0,P|308:204|320:268,1,90,8|0,1:0|0:0,0:0:0:0:
272,368,194197,1,0,1:0:0:0:
368,272,194358,1,0,1:0:0:0:
232,280,194520,2,0,P|216:236|204:160,1,90,8|0,1:0|0:0,0:0:0:0:
388,48,194842,38,0,P|432:128|416:220,2,180,2|8|0,1:2|1:0|1:0,0:0:0:0:
328,120,195649,1,0,1:0:0:0:
192,68,195810,2,0,P|244:52|288:48,1,90,8|0,1:0|0:0,0:0:0:0:
232,228,196133,2,0,P|136:208|112:128,1,180,2|8,1:2|1:0,0:0:0:0:
272,144,196617,1,0,0:0:0:0:
356,192,196778,2,0,P|356:244|360:296,1,90,2|0,1:2|1:0,0:0:0:0:
280,316,197100,5,8,1:0:0:0:
256,324,197181,1,8,1:0:0:0:
232,332,197262,1,8,1:0:0:0:
208,340,197342,1,8,1:0:0:0:
184,348,197423,1,6,1:0:0:0:
376,356,197584,1,2,0:0:0:0:
184,212,197907,37,6,2:1:0:0:
244,148,198068,1,0,1:0:0:0:
280,232,198229,1,0,1:0:0:0:
120,296,198391,6,2,P|64:212|112:108,1,216,6|0,1:0|0:0,1:0:0:0:
196,160,199036,37,8,1:0:0:0:
268,64,199197,1,0,0:0:0:0:
352,256,199358,1,0,1:0:0:0:
272,272,199520,1,0,1:0:0:0:
332,336,199681,2,0,B|288:348|236:352,1,90,8|0,1:0|0:0,0:0:0:0:
80,220,200004,6,2,P|180:200|268:192,1,180,2|8,1:0|1:0,1:0:0:0:
435,164,200487,2,2,P|335:184|247:192,1,180,6|0,1:0|1:0,1:0:0:0:
296,108,200971,37,8,1:0:0:0:
232,280,201133,1,0,1:0:0:0:
192,128,201294,5,4,1:0:0:0:
257,191,201455,1,0,0:0:0:0:
324,252,201617,1,8,1:0:0:0:
96,200,201778,37,2,1:0:0:0:
420,152,202100,1,2,1:0:0:0:
356,80,202262,21,8,1:0:0:0:
348,108,202342,1,0,1:0:0:0:
340,136,202423,1,8,1:3:0:0:
332,164,202504,1,0,1:0:0:0:
324,188,202584,1,6,1:0:0:0:
256,344,202746,1,2,0:0:0:0:
256,344,203068,1,6,2:1:0:0:
212,256,203229,1,0,1:0:0:0:
380,320,203391,5,0,1:0:0:0:
380,320,203552,2,2,B|456:304|476:196|400:144,1,216,6|0,1:0|0:0,1:0:0:0:
356,84,204197,37,8,1:0:0:0:
328,184,204358,1,0,0:0:0:0:
260,104,204520,1,0,1:0:0:0:
304,276,204681,1,0,1:0:0:0:
220,212,204842,1,8,1:0:0:0:
392,260,205004,1,0,0:0:0:0:
220,212,205165,6,0,B|160:200|136:108|200:60,2,180,2|8|0,1:2|1:0|1:0,0:0:0:0:
308,176,205971,1,0,1:0:0:0:
368,108,206133,2,0,B|328:80|272:92,1,90,8|8,1:0|1:0,0:0:0:0:
264,104,206375,1,0,1:0:0:0:
248,120,206455,1,2,1:2:0:0:
400,212,206617,1,0,1:0:0:0:
252,288,206778,2,0,L|116:264,1,135,12|0,1:0|0:0,0:0:0:0:
88,256,207100,37,0,1:0:0:0:
124,344,207262,1,0,1:0:0:0:
232,200,207423,2,0,B|280:196|344:184,1,90,12|0,1:0|0:0,0:0:0:0:
321,188,207665,1,0,0:0:0:0:
321,188,207746,2,0,B|272:148|292:52|360:40,1,180,4|8,1:0|1:0,0:0:0:0:
392,120,208229,1,0,0:0:0:0:
248,172,208391,5,2,1:2:0:0:
212,92,208552,1,0,1:0:0:0:
176,240,208713,1,8,1:0:0:0:
212,92,208875,1,0,0:0:0:0:
332,188,209036,38,0,B|316:256|312:292,1,90,6|0,1:0|0:0,0:0:0:0:
408,252,209358,1,8,1:0:0:0:
236,216,209520,2,0,B|244:168|260:112,1,90,6|0,1:0|0:0,0:0:0:0:
314,276,209842,1,0,1:0:0:0:
232,340,210004,1,8,1:0:0:0:
144,288,210165,1,0,0:0:0:0:
314,276,210326,22,0,P|364:268|432:264,1,90,4|0,1:0|0:0,0:0:0:0:
484,248,210649,1,8,1:0:0:0:
380,340,210810,1,0,0:0:0:0:
408,188,210971,1,2,1:2:0:0:
316,232,211133,1,0,1:0:0:0:
488,168,211294,1,8,1:0:0:0:
336,80,211455,1,0,0:0:0:0:
360,304,211617,6,0,P|305:309|236:308,1,90,6|0,1:0|0:0,0:0:0:0:
152,168,211939,1,8,1:0:0:0:
36,256,212100,2,0,P|90:250|160:252,1,90,6|0,1:0|1:0,0:0:0:0:
272,192,212423,5,0,1:0:0:0:
364,176,212584,1,8,1:0:0:0:
352,84,212746,1,0,0:0:0:0:
260,100,212907,1,4,1:0:0:0:
328,256,213068,1,0,0:0:0:0:
452,120,213229,2,0,P|448:212|424:236,1,90,8|0,1:0|0:0,0:0:0:0:
336,340,213552,5,0,1:0:0:0:
240,360,213713,2,0,L|112:380,1,90,0|8,1:0|0:0,0:0:0:0:
180,200,214036,1,0,0:0:0:0:
180,200,214117,1,0,0:0:0:0:
180,200,214197,2,2,B|256:232|304:184|304:184|328:203|368:212,1,180,6|8,1:0|1:0,1:0:0:0:
500,164,214681,5,6,1:0:0:0:
500,164,215004,1,0,0:0:0:0:
392,288,215165,1,8,1:0:0:0:
376,136,215326,1,0,1:0:0:0:
484,312,215487,5,6,1:0:0:0:
484,312,215810,1,0,1:0:0:0:
288,228,215971,1,0,1:0:0:0:
448,160,216133,1,8,1:0:0:0:
336,288,216294,1,2,1:0:0:0:
268,128,216455,1,8,1:0:0:0:
284,352,216617,1,10,1:0:0:0:
420,248,216778,1,2,1:0:0:0:
216,176,217746,2,0,L|204:232,1,45,8|8,1:0|1:0,0:0:0:0:
200,244,217907,2,0,L|264:256,1,45,8|8,1:0|1:0,0:0:0:0:
360,212,218068,5,4,1:0:0:0:
360,212,218229,2,0,P|358:166|360:100,1,90,0|8,0:0|1:0,0:0:0:0:
272,68,218552,1,2,0:0:0:0:
272,168,218713,1,0,1:0:0:0:
200,84,218875,1,2,1:2:0:0:
340,120,219036,1,8,1:0:0:0:
240,248,219197,1,0,0:0:0:0:
336,232,219358,6,0,P|386:254|432:264,1,90,2|0,1:0|0:0,0:0:0:0:
500,208,219681,2,0,P|449:185|404:176,1,90,8|2,1:0|0:0,0:0:0:0:
208,280,220004,1,0,1:0:0:0:
276,340,220165,1,0,1:0:0:0:
324,200,220326,1,8,1:0:0:0:
176,176,220487,5,0,0:0:0:0:
176,176,220568,1,0,0:0:0:0:
176,176,220649,2,0,P|124:184|72:204,1,90,6|0,1:0|0:0,0:0:0:0:
112,100,220971,1,8,1:0:0:0:
224,248,221133,1,2,0:0:0:0:
256,120,221294,1,0,1:0:0:0:
144,256,221455,1,2,1:2:0:0:
300,308,221617,1,8,1:0:0:0:
144,256,221778,1,2,0:0:0:0:
344,216,221939,6,0,P|344:172|340:108,1,90,6|0,1:0|0:0,0:0:0:0:
341,126,222262,2,0,P|396:124|444:120,1,90,10|0,1:0|1:0,0:0:0:0:
260,176,222584,6,0,L|152:184,1,99.0000030212403,6|0,1:0|0:0,0:0:0:0:
160,40,222907,22,0,L|44:48,1,107.999996704102,10|0,1:0|1:0,0:0:0:0:
28,184,223229,37,4,1:0:0:0:
16,228,223310,1,0,0:0:0:0:
32,272,223391,1,0,1:0:0:0:
68,296,223471,1,0,1:0:0:0:
112,292,223552,1,8,1:0:0:0:
216,332,223713,2,0,P|268:308|328:312,1,90,2|0,1:2|1:0,0:0:0:0:
408,240,224036,1,8,1:0:0:0:
440,160,224197,1,8,1:3:0:0:
440,344,224358,5,8,1:0:0:0:
440,344,224439,1,8,1:0:0:0:
440,344,224520,1,4,1:0:0:0:
300,316,224681,1,0,1:0:0:0:
332,168,224842,1,2,1:2:0:0:
304,320,225004,1,2,1:2:0:0:
232,248,225165,2,0,P|188:252|112:252,1,90,0|8,1:0|1:0,0:0:0:0:
88,96,225487,2,0,P|132:92|208:92,1,90,8|8,1:0|1:0,0:0:0:0:
324,184,225810,5,4,0:1:0:0:
192,208,226133,1,0,1:0:0:0:
252,132,226455,1,4,1:3:0:0:
272,264,226778,1,4,1:3:0:0:
108,256,227100,2,0,P|96:208|112:160,1,90,4|0,1:0|0:0,0:0:0:0:
160,64,227423,6,0,L|228:76,1,45,8|0,1:0|1:0,0:0:0:0:
344,152,227584,2,0,L|300:108,1,45,8|0,1:3|1:3,0:0:0:0:
288,32,227746,5,10,1:0:0:0:
220,248,227907,1,10,1:0:0:0:
344,152,228391,5,4,1:0:0:0:
256,192,228471,12,2,230971,0:0:0:0:
