osu file format v14

[General]
AudioFilename: audio.mp3
AudioLeadIn: 0
PreviewTime: 126052
Countdown: 1
SampleSet: Soft
StackLeniency: 0.5
Mode: 0
LetterboxInBreaks: 0
WidescreenStoryboard: 0

[Editor]
Bookmarks: 149681,160004
DistanceSpacing: 1
BeatDivisor: 4
GridSize: 4
TimelineZoom: 0.9

[Metadata]
Title:Senaka Awase no Kuukyo (with Kakichoco)
TitleUnicode:背中合わせの空虚 (with 柿チョコ)
Artist:*namirin
ArtistUnicode:*なみりん
Creator:jonathanlfj
Version:Extra
Source:
Tags:柿チョコ Kakichoco 5colors featured artist handsome Delis
BeatmapID:1513315
BeatmapSetID:716249

[Difficulty]
HPDrainRate:7
CircleSize:4
OverallDifficulty:8.5
ApproachRate:9.2
SliderMultiplier:1.8
SliderTickRate:1

[Events]
//Background and Video events
0,0,"collab.png",0,0
//Break Periods
2,149881,159434
//Storyboard Layer 0 (Background)
//Storyboard Layer 1 (Fail)
//Storyboard Layer 2 (Pass)
//Storyboard Layer 3 (Foreground)
//Storyboard Sound Samples

[TimingPoints]
1940,322.58064516129,4,2,1,50,1,0
1940,-166.666666666667,4,2,1,50,0,0
9359,-166.666666666667,4,2,1,60,0,0
9681,-100,4,2,1,70,0,0
9923,-100,4,2,1,5,0,0
10004,-100,4,2,1,70,0,0
14117,-100,4,2,1,5,0,0
14198,-100,4,2,1,70,0,0
16294,-100,4,2,1,40,0,0
16456,-100,4,2,1,45,0,0
16617,-100,4,2,1,50,0,0
16778,-100,4,2,1,55,0,0
16939,-100,4,2,1,60,0,0
17101,-100,4,2,1,65,0,0
17262,-100,4,2,1,70,0,0
17423,-142.857142857143,4,2,1,60,0,0
18956,-142.857142857143,4,2,1,5,0,0
19036,-83.3333333333333,4,2,1,60,0,0
19359,-83.3333333333333,4,2,1,70,0,0
20004,-111.111111111111,4,2,1,60,0,0
23794,-111.111111111111,4,2,1,5,0,0
23875,-111.111111111111,4,2,1,60,0,0
27746,-142.857142857143,4,2,1,60,0,0
30246,-142.857142857143,4,2,1,5,0,0
30327,-111.111111111111,4,2,1,60,0,0
38069,-100,4,1,1,60,0,0
38230,-142.857142857143,4,1,1,60,0,0
38633,-142.857142857143,4,2,1,5,0,0
38714,-100,4,2,1,60,0,0
38875,-142.857142857143,4,1,1,60,0,0
39278,-142.857142857143,4,2,1,5,0,0
39359,-111.111111111111,4,2,1,70,0,0
40085,-111.111111111111,4,2,1,5,0,0
40165,-111.111111111111,4,2,1,70,0,0
40649,-100,4,2,1,65,0,0
43149,-100,4,2,1,5,0,0
43230,-100,4,2,1,65,0,0
48391,-100,4,2,1,55,0,0
49036,-90.9090909090909,4,2,1,60,0,0
49681,-83.3333333333333,4,2,1,65,0,0
50972,-100,4,2,1,65,0,0
53552,-111.111111111111,4,2,1,55,0,0
54117,-111.111111111111,4,2,1,5,0,0
54198,-100,4,2,1,60,0,0
54762,-100,4,2,1,5,0,0
54843,-90.9090909090909,4,2,1,65,0,0
55407,-90.9090909090909,4,2,1,5,0,0
55488,-90.9090909090909,4,2,1,65,0,0
56133,-100,4,2,1,65,0,0
60004,-100,4,2,1,70,0,0
60488,-90.9090909090909,4,2,1,75,0,0
61294,-71.4285714285714,4,2,1,75,0,1
62262,-133.333333333333,4,2,1,75,0,1
62907,-90.9090909090909,4,2,1,75,0,1
66375,-90.9090909090909,4,2,1,75,0,0
66456,-71.4285714285714,4,2,1,75,0,1
67423,-133.333333333333,4,2,1,75,0,1
68069,-90.9090909090909,4,2,1,75,0,1
68956,-90.9090909090909,4,2,1,5,0,1
69036,-90.9090909090909,4,2,1,75,0,1
71052,-90.9090909090909,4,2,1,5,0,1
71133,-90.9090909090909,4,2,1,75,0,1
71536,-90.9090909090909,4,2,1,75,0,0
71617,-71.4285714285714,4,2,1,75,0,1
72585,-133.333333333333,4,2,1,75,0,1
73230,-90.9090909090909,4,2,1,75,0,1
76052,-90.9090909090909,4,2,1,5,0,1
76133,-90.9090909090909,4,2,1,75,0,1
82181,-90.9090909090909,4,2,1,5,0,1
82262,-90.9090909090909,4,2,1,60,0,1
82585,-90.9090909090909,4,2,1,65,0,1
82907,-90.9090909090909,4,2,1,70,0,1
83230,-90.9090909090909,4,2,1,75,0,0
84520,-100,4,2,1,60,0,0
88633,-100,4,2,1,5,0,0
88714,-100,4,2,1,60,0,0
90972,-100,4,2,1,40,0,0
91133,-100,4,2,1,45,0,0
91294,-100,4,2,1,50,0,0
91456,-100,4,2,1,55,0,0
91617,-100,4,2,1,55,0,0
91778,-100,4,2,1,60,0,0
91939,-100,4,2,1,65,0,0
92101,-100,4,2,1,70,0,0
92262,-142.857142857143,4,2,1,60,0,0
93794,-142.857142857143,4,2,1,5,0,0
93875,-83.3333333333333,4,2,1,60,0,0
94198,-100,4,2,1,70,0,0
95488,322.58064516129,4,2,1,60,1,0
95488,-111.111111111111,4,2,1,60,0,0
99278,-111.111111111111,4,2,1,5,0,0
99358,-111.111111111111,4,2,1,60,0,0
103229,-100,4,1,1,60,0,0
103391,-142.857142857143,4,1,1,60,0,0
103794,-142.857142857143,4,2,1,5,0,0
103875,-100,4,2,1,60,0,0
104036,-142.857142857143,4,1,1,60,0,0
104439,-142.857142857143,4,2,1,5,0,0
104520,-111.111111111111,4,2,1,70,0,0
105246,-111.111111111111,4,2,1,5,0,0
105326,-111.111111111111,4,2,1,70,0,0
105810,-100,4,2,1,65,0,0
108310,-100,4,2,1,5,0,0
108391,-100,4,2,1,65,0,0
113552,-100,4,2,1,55,0,0
114197,-90.9090909090909,4,2,1,60,0,0
114842,-83.3333333333333,4,2,1,65,0,0
116133,-100,4,2,1,65,0,0
118713,-100,4,2,1,55,0,0
119278,-100,4,2,1,5,0,0
119358,-90.9090909090909,4,2,1,60,0,0
119923,-90.9090909090909,4,2,1,5,0,0
120004,-83.3333333333333,4,2,1,65,0,0
120568,-83.3333333333333,4,2,1,5,0,0
120649,-83.3333333333333,4,2,1,65,0,0
121294,-100,4,2,1,65,0,0
125165,-100,4,2,1,70,0,0
125649,-90.9090909090909,4,2,1,75,0,0
126455,-71.4285714285714,4,2,1,75,0,1
127423,-133.333333333333,4,2,1,75,0,1
128068,-90.9090909090909,4,2,1,75,0,1
128955,-90.9090909090909,4,2,1,5,0,1
129036,-90.9090909090909,4,2,1,75,0,1
131536,-90.9090909090909,4,2,1,75,0,0
131617,-71.4285714285714,4,2,1,75,0,1
132584,-133.333333333333,4,2,1,75,0,1
133229,-90.9090909090909,4,2,1,75,0,1
134117,-90.9090909090909,4,2,1,5,0,1
134197,-90.9090909090909,4,2,1,75,0,1
136213,-90.9090909090909,4,2,1,5,0,1
136294,-90.9090909090909,4,2,1,75,0,1
136697,-90.9090909090909,4,2,1,75,0,0
136778,-71.4285714285714,4,2,1,75,0,1
137746,-133.333333333333,4,2,1,75,0,1
138391,-90.9090909090909,4,2,1,75,0,1
141213,-90.9090909090909,4,2,1,5,0,1
141294,-90.9090909090909,4,2,1,75,0,1
147342,-90.9090909090909,4,2,1,5,0,1
147423,-90.9090909090909,4,2,1,60,0,1
147746,-90.9090909090909,4,2,1,65,0,1
148068,-90.9090909090909,4,2,1,70,0,1
148391,-90.9090909090909,4,2,1,75,0,0
149681,-133.333333333333,4,2,1,75,0,0
160004,-133.333333333333,4,2,1,55,0,0
163149,-133.333333333333,4,2,1,5,0,0
163229,-133.333333333333,4,2,1,55,0,0
163794,-133.333333333333,4,2,1,5,0,0
163875,-133.333333333333,4,2,1,55,0,0
165729,-133.333333333333,4,2,1,5,0,0
165810,-133.333333333333,4,2,1,55,0,0
167665,-133.333333333333,4,2,1,5,0,0
167746,-111.111111111111,4,2,1,60,0,0
169197,-142.857142857143,4,2,1,60,0,0
169681,-111.111111111111,4,2,1,60,0,0
170326,-100,4,2,1,65,0,0
178068,-83.3333333333333,4,2,1,70,0,0
179036,-133.333333333333,4,2,1,70,0,0
179358,-100,4,2,1,65,0,0
188310,-100,4,2,1,5,0,0
188391,-100,4,2,1,65,0,0
189681,-83.3333333333333,4,2,1,75,0,0
192262,-66.6666666666667,4,2,1,80,0,1
193229,-125,4,2,1,80,0,1
193875,-83.3333333333333,4,2,1,80,0,1
196697,-83.3333333333333,4,2,1,5,0,1
196778,-83.3333333333333,4,2,1,80,0,1
197342,-83.3333333333333,4,2,1,80,0,0
197423,-66.6666666666667,4,2,1,80,0,1
198391,-125,4,2,1,80,0,1
199036,-83.3333333333333,4,2,1,80,0,1
199923,-83.3333333333333,4,2,1,5,0,1
200004,-83.3333333333333,4,2,1,80,0,1
202020,-83.3333333333333,4,2,1,5,0,1
202100,-83.3333333333333,4,2,1,80,0,1
202504,-83.3333333333333,4,2,1,80,0,0
202584,-66.6666666666667,4,2,1,80,0,1
203552,-125,4,2,1,80,0,1
204197,-83.3333333333333,4,2,1,80,0,1
207020,-83.3333333333333,4,2,1,5,0,1
207100,-83.3333333333333,4,2,1,80,0,1
213471,-83.3333333333333,4,2,1,5,0,1
213552,-83.3333333333333,4,2,1,80,0,1
215729,-83.3333333333333,4,2,1,5,0,1
215810,-83.3333333333333,4,2,1,65,0,1
216133,-83.3333333333333,4,2,1,70,0,1
216455,-83.3333333333333,4,2,1,75,0,1
216778,-83.3333333333333,4,2,1,80,0,0
218068,-90.9090909090909,4,2,1,70,0,0
222181,-90.9090909090909,4,2,1,5,0,0
222262,-90.9090909090909,4,2,1,70,0,0
224681,-90.9090909090909,4,2,1,40,0,0
224842,-90.9090909090909,4,2,1,45,0,0
225004,-90.9090909090909,4,2,1,50,0,0
225165,-90.9090909090909,4,2,1,55,0,0
225326,-90.9090909090909,4,2,1,60,0,0
225487,-90.9090909090909,4,2,1,65,0,0
225649,-90.9090909090909,4,2,1,70,0,0
225810,-133.333333333333,4,2,1,60,0,0
227342,-133.333333333333,4,2,1,5,0,0
227423,-80,4,2,1,65,0,0
227746,-80,4,2,1,70,0,0
228471,-80,4,2,1,50,0,0
230971,-100,4,2,1,30,0,0

[Colours]
Combo1 : 240,142,206
Combo2 : 113,63,197
Combo3 : 125,129,255
Combo4 : 255,53,139

[HitObjects]
137,304,1940,37,2,0:0:0:0:
41,220,2101,1,0,0:0:0:0:
45,308,2262,1,0,0:0:0:0:
133,216,2423,2,0,P|149:184|157:104,1,107.999996704102,2|0,0:0|0:0,0:0:0:0:
233,28,2907,2,0,P|245:68|257:96,1,53.9999983520508
385,144,3230,5,2,0:0:0:0:
241,168,3391,1,0,0:0:0:0:
341,64,3552,1,0,0:0:0:0:
321,208,3714,2,0,L|337:324,1,107.999996704102,2|0,0:0|0:0,0:0:0:0:
481,312,4198,2,0,P|445:300|413:296,1,53.9999983520508
282,322,4520,38,0,P|318:318|354:310,1,53.9999983520508,2|0,0:0|0:0,0:0:0:0:
409,252,4843,1,0,0:0:0:0:
321,208,5004,2,0,P|253:204|213:220,2,107.999996704102,2|0|0,0:0|0:0|0:0,0:0:0:0:
405,156,5810,6,0,P|449:164|477:164,1,53.9999983520508,2|0,0:0|0:0,0:0:0:0:
349,80,6133,1,0,0:0:0:0:
321,208,6294,2,0,L|337:324,2,107.999996704102,2|0|0,0:0|0:0|0:0,0:0:0:0:
265,128,7101,37,2,0:0:0:0:
245,268,7262,1,0,0:0:0:0:
321,208,7423,1,0,0:0:0:0:
189,192,7585,2,0,P|133:192|81:212,1,107.999996704102,2|0,0:0|0:0,0:0:0:0:
17,92,8069,2,0,P|45:104|77:128,1,53.9999983520508,2|0,0:0|0:0,0:0:0:0:
149,280,8391,5,2,0:0:0:0:
149,280,9359,1,0,0:0:0:0:
333,188,9520,1,0,0:0:0:0:
247,344,9681,6,0,L|235:200,1,135,4|0,1:0|0:0,0:0:0:0:
233,178,10004,1,0,1:0:0:0:
419,134,10165,2,0,P|433:196|349:287,1,180,8|8,1:3|1:3,0:0:0:0:
149,280,10649,1,8,1:0:0:0:
333,188,10810,1,0,1:0:0:0:
131,93,10972,6,0,L|142:197,1,90,2|0,1:2|0:0,0:0:0:0:
161,372,11294,1,0,1:0:0:0:
36,284,11456,2,0,B|81:272|81:272|221:288,1,180,8|8,1:3|1:3,0:0:0:0:
329,237,11939,1,8,1:0:0:0:
208,197,12101,1,8,1:0:0:0:
208,197,12181,1,8,1:0:0:0:
208,197,12262,6,0,L|214:296,1,90,4|0,1:0|0:0,0:0:0:0:
439,236,12585,1,2,1:2:0:0:
323,146,12746,2,0,L|335:341,1,180,8|8,1:3|1:3,0:0:0:0:
439,236,13230,1,8,1:0:0:0:
318,50,13391,1,2,1:2:0:0:
491,122,13552,5,4,1:0:0:0:
491,122,13714,1,0,0:0:0:0:
323,146,13875,2,0,P|259:129|218:60,1,135,2|0,1:2|0:0,0:0:0:0:
318,50,14198,5,4,1:0:0:0:
318,50,14359,1,0,0:0:0:0:
416,197,14520,2,0,L|410:256,1,45,8|0,1:3|1:0,1:0:0:0:
277,240,14681,2,8,L|330:232,1,45,8|8,1:0|1:0,1:0:0:0:
402,330,14843,6,0,P|356:319|300:322,1,90,4|0,1:0|1:0,0:0:0:0:
222,358,15165,1,2,1:2:0:0:
20,268,15327,2,0,P|83:240|198:284,1,180,8|8,1:3|1:0,0:0:0:0:
329,169,15810,2,0,P|283:221|273:257,1,90,8|8,1:3|1:0,0:0:0:0:
276,239,16052,1,8,1:0:0:0:
276,239,16133,5,4,1:0:0:0:
416,197,16294,1,0,1:0:0:0:
236,153,16456,1,2,1:2:0:0:
398,106,16617,1,2,1:2:0:0:
197,64,16778,5,0,1:0:0:0:
416,197,16939,1,8,1:0:0:0:
175,235,17101,1,8,1:0:0:0:
398,106,17262,1,8,1:0:0:0:
87,154,17423,6,0,L|78:285,1,125.999996154785,4|0,0:1|0:0,0:0:0:0:
88,300,18391,1,0,0:0:0:0:
99,320,18714,6,0,P|155:311|211:317,1,94.499997116089,4|0,1:0|0:0,0:0:0:0:
281,322,19036,2,0,P|272:297|269:269,1,53.9999983520508,8|0,1:0|1:0,1:0:0:0:
356,140,19198,2,0,L|364:200,1,53.9999983520508,8|0,1:3|1:0,0:0:0:0:
389,360,19359,5,10,1:0:0:0:
138,198,19520,1,10,1:0:0:0:
138,198,20004,22,0,P|130:135|133:101,1,80.9999975280763,4|0,1:0|0:0,0:0:0:0:
204,51,20327,1,8,1:0:0:0:
373,123,20488,2,0,P|298:168|218:139,1,161.999995056153,0|0,0:0|1:0,0:0:0:0:
103,281,20972,2,0,P|156:273|205:279,1,80.9999975280763,8|0,1:0|0:0,0:0:0:0:
353,375,21294,6,0,P|329:325|322:280,1,80.9999975280763,2|0,1:2|0:0,0:0:0:0:
336,209,21617,1,8,1:0:0:0:
477,271,21778,2,0,B|447:294|447:294|316:300,1,161.999995056153,0|0,0:0|1:0,0:0:0:0:
420,107,22262,2,0,L|434:210,1,80.9999975280763,8|0,1:0|0:0,0:0:0:0:
255,158,22585,38,0,P|296:123|341:110,1,80.9999975280763,2|0,1:2|0:0,0:0:0:0:
420,107,22907,1,8,1:0:0:0:
231,61,23069,2,0,P|189:55|142:58,1,80.9999975280763,2|0,0:0|1:0,0:0:0:0:
320,113,23391,1,0,1:0:0:0:
180,189,23552,2,0,P|110:186|60:158,1,121.499996292114,8|0,1:0|0:0,0:0:0:0:
32,92,23875,6,0,P|35:145|33:180,1,80.9999975280763,2|0,1:2|0:0,0:0:0:0:
162,321,24198,1,8,1:0:0:0:
75,375,24359,2,0,P|61:320|134:221,1,161.999995056153,2|0,1:2|1:0,0:0:0:0:
242,319,24843,2,0,P|204:317|143:323,1,80.9999975280763,8|0,1:0|0:0,0:0:0:0:
331,268,25165,38,0,P|354:318|375:348,1,80.9999975280763,4|0,1:0|0:0,0:0:0:0:
242,219,25488,1,8,1:0:0:0:
329,170,25649,2,0,P|334:92|272:22,1,161.999995056153,2|0,0:0|1:0,0:0:0:0:
125,10,26133,1,8,1:0:0:0:
237,122,26294,1,0,0:0:0:0:
61,109,26456,6,0,L|160:98,1,80.9999975280763,2|0,1:2|0:0,0:0:0:0:
242,219,26778,1,8,1:0:0:0:
31,203,26939,2,0,L|130:192,1,80.9999975280763,2|0,0:0|1:0,0:0:0:0:
329,170,27262,1,0,1:0:0:0:
164,282,27423,1,8,1:0:0:0:
237,122,27585,1,0,0:0:0:0:
249,350,27746,37,4,1:0:0:0:
317,282,28069,1,0,0:0:0:0:
413,274,28391,1,0,0:0:0:0:
491,331,28714,2,0,P|453:358|429:367,1,62.9999980773926
413,274,29036,5,0,0:0:0:0:
454,187,29198,1,0,0:0:0:0:
472,182,29278,1,0,0:0:0:0:
490,182,29359,1,0,0:0:0:0:
413,274,29520,1,0,1:0:0:0:
317,282,29681,2,0,P|293:245|285:215,1,62.9999980773926,0|0,0:0|1:0,0:0:0:0:
348,70,30004,2,0,P|343:115|314:167,1,94.499997116089,8|0,1:0|0:0,0:0:0:0:
242,162,30327,6,0,P|191:157|146:165,1,80.9999975280763,4|0,1:0|0:0,0:0:0:0:
73,203,30649,1,8,1:0:0:0:
202,73,30810,2,0,P|270:42|348:70,1,161.999995056153,0|0,0:0|1:0,0:0:0:0:
292,219,31294,2,0,P|278:166|276:129,1,80.9999975280763,8|0,1:0|0:0,0:0:0:0:
441,32,31617,6,0,P|437:109|363:170,1,161.999995056153,2|8,1:2|1:0,0:0:0:0:
120,142,32101,2,0,B|154:122|196:121|196:121|230:142|276:140,1,161.999995056153,0|0,0:0|1:0,0:0:0:0:
457,150,32585,2,0,P|395:159|368:169,1,80.9999975280763,8|0,1:0|0:0,0:0:0:0:
229,225,32907,38,0,P|295:237|320:248,1,80.9999975280763,2|0,1:2|0:0,0:0:0:0:
444,307,33230,1,8,1:0:0:0:
353,330,33391,2,0,L|347:149,1,161.999995056153,2|0,0:0|1:0,0:0:0:0:
376,5,33875,1,8,1:0:0:0:
457,150,34036,1,0,0:0:0:0:
295,79,34198,6,0,P|254:79|214:87,1,80.9999975280763,2|0,1:2|0:0,0:0:0:0:
479,49,34520,2,0,P|479:90|469:132,1,80.9999975280763,8|0,1:0|0:0,0:0:0:0:
183,197,34843,2,0,P|230:184|278:181,1,80.9999975280763,2|0,1:2|1:0,0:0:0:0:
432,304,35165,1,8,1:0:0:0:
240,277,35327,1,0,0:0:0:0:
358,139,35488,38,0,B|365:180|365:180|355:227,1,80.9999975280763,4|0,1:0|0:0,0:0:0:0:
270,373,35810,1,8,1:0:0:0:
125,289,35972,2,0,B|169:266|169:266|284:282,1,161.999995056153,2|0,0:0|1:0,0:0:0:0:
432,304,36456,1,8,1:0:0:0:
240,175,36617,1,0,0:0:0:0:
419,59,36778,6,0,P|452:121|409:225,1,161.999995056153,2|8,1:2|1:0,0:0:0:0:
240,175,37262,1,0,0:0:0:0:
338,144,37423,2,0,L|358:138,6,20.2499993820191,2|0|0|0|0|0|0,0:0|0:0|0:0|0:0|1:0|0:0|0:0,0:0:0:0:
318,151,37746,2,0,L|223:144,1,80.9999975280763,8|0,1:0|0:0,0:0:0:0:
108,171,38069,38,0,L|152:174,1,45,4|0,0:0|0:0,0:0:0:0:
415,69,38230,2,0,L|239:56,1,157.499995193482,8|0,1:0|2:0,0:0:0:0:
166,41,38714,6,0,L|171:104,1,45,8|0,1:0|1:0,1:0:0:0:
251,332,38875,2,0,L|238:156,1,157.499995193482,8|0,1:0|2:0,0:0:0:0:
239,174,39359,37,10,1:0:0:0:
127,190,39520,1,2,1:0:0:0:
15,207,39681,1,0,1:0:0:0:
169,85,39843,2,2,L|41:64,1,121.499996292114,2|0,1:0|0:0,1:0:0:0:
18,60,40165,1,6,1:3:0:0:
253,34,40327,2,0,L|336:26,1,80.9999975280763,8|0,1:0|0:0,1:0:0:0:
399,79,40569,1,0,0:0:0:0:
399,79,40649,22,0,P|416:130|410:175,1,90,4|0,1:0|0:0,0:0:0:0:
342,242,40972,1,8,1:0:0:0:
136,167,41133,2,0,B|180:175|223:153|223:153|265:131|310:141,1,180,0|0,0:0|1:0,0:0:0:0:
148,255,41617,2,0,P|144:210|135:166,1,90,8|0,1:0|0:0,0:0:0:0:
168,71,41939,5,2,1:2:0:0:
284,238,42101,2,0,P|272:289|269:341,1,90,2|8,0:0|1:0,0:0:0:0:
357,168,42423,1,2,0:0:0:0:
179,267,42585,2,0,P|124:271|71:262,1,90,2|0,1:2|1:0,0:0:0:0:
168,71,42907,2,0,P|235:65|308:85,1,135,8|0,1:0|0:0,0:0:0:0:
352,143,43230,38,8,P|417:95|357:29,1,180,2|8,1:2|1:0,1:0:0:0:
164,183,43714,2,0,P|214:161|258:153,1,90,2|0,0:0|1:0,0:0:0:0:
471,255,44036,2,0,P|417:237|378:234,1,90,0|8,1:0|1:0,1:0:0:0:
222,344,44359,1,0,0:0:0:0:
408,328,44520,5,2,1:2:0:0:
248,153,44681,2,0,P|236:223|238:259,1,90,2|8,0:0|1:0,0:0:0:0:
430,79,45004,2,0,P|371:99|336:104,1,90,2|0,0:0|1:0,0:0:0:0:
58,150,45327,2,0,P|112:160|160:178,1,90,0|8,1:0|1:0,1:0:0:0:
384,302,45649,38,0,P|319:291|219:347,1,180,2|0,0:0|0:0,0:0:0:0:
79,258,46133,2,0,P|44:198|45:68,1,180,8|0,1:0|1:0,1:0:0:0:
101,7,46617,1,0,1:0:0:0:
234,93,46778,2,0,P|157:100|116:97,1,90,8|0,1:0|0:0,0:0:0:0:
317,28,47101,5,2,1:2:0:0:
255,191,47262,1,2,0:0:0:0:
144,98,47423,2,0,P|188:92|233:92,1,90,8|0,1:0|0:0,0:0:0:0:
357,217,47746,1,2,1:2:0:0:
317,28,47907,1,0,1:0:0:0:
508,128,48069,2,2,P|463:134|418:134,1,90,10|0,1:0|0:0,1:0:0:0:
101,240,48391,38,2,P|149:190|258:193,1,180,6|8,1:0|1:0,1:0:0:0:
329,264,48875,1,0,0:0:0:0:
109,174,49036,6,2,P|195:132|284:170,1,198.000006042481,6|8,1:0|1:0,1:0:0:0:
329,264,49520,1,0,0:0:0:0:
139,116,49681,6,2,P|240:92|318:160,1,215.999993408203,6|8,1:0|1:0,1:0:0:0:
329,264,50165,1,0,0:0:0:0:
109,290,50327,1,2,1:2:0:0:
220,189,50488,1,0,0:0:0:0:
185,371,50649,1,12,1:0:0:0:
34,209,50810,1,0,0:0:0:0:
289,118,50972,6,0,P|316:171|266:275,1,180,4|8,1:0|1:0,0:0:0:0:
401,366,51456,2,0,P|381:303|380:263,1,90,0|0,0:0|1:0,0:0:0:0:
444,140,51778,1,0,1:0:0:0:
489,300,51939,1,8,1:0:0:0:
318,198,52101,1,0,0:0:0:0:
502,34,52262,38,0,L|492:218,1,180,2|8,1:2|1:0,0:0:0:0:
289,118,52746,1,2,0:0:0:0:
396,76,52907,2,0,L|392:174,1,90,0|0,1:0|1:0,1:0:0:0:
192,160,53230,1,8,1:0:0:0:
181,125,53310,1,0,1:0:0:0:
185,89,53391,1,8,1:3:0:0:
289,118,53552,5,0,1:0:0:0:
188,297,53714,1,0,1:0:0:0:
289,118,53875,2,2,P|288:187|260:247,1,121.499996292114,14|0,1:0|0:0,1:0:0:0:
188,297,54198,37,0,1:0:0:0:
48,133,54360,1,0,1:0:0:0:
188,297,54521,2,2,P|120:274|67:218,1,135,14|0,1:0|0:0,1:0:0:0:
48,133,54843,5,0,1:0:0:0:
289,118,55005,1,0,1:0:0:0:
48,133,55166,2,2,P|105:97|195:90,1,148.50000453186,14|0,1:0|0:0,1:0:0:0:
289,118,55488,37,0,1:0:0:0:
75,231,55650,1,0,1:0:0:0:
266,352,55810,1,10,1:0:0:0:
286,312,55891,1,0,1:0:0:0:
286,267,55972,1,0,1:0:0:0:
270,225,56052,1,8,1:0:0:0:
236,196,56133,6,0,B|264:214|300:212|300:212|351:181|410:201,1,180,4|8,1:0|1:0,0:0:0:0:
442,211,56536,1,0,1:0:0:0:
442,211,56617,1,0,1:0:0:0:
376,377,56778,2,0,L|361:271,1,90,2|0,1:2|0:0,0:0:0:0:
428,107,57101,1,8,1:0:0:0:
466,318,57262,1,0,0:0:0:0:
270,225,57423,38,0,P|320:188|355:177,1,90,2|0,1:2|0:0,0:0:0:0:
169,132,57746,2,0,P|120:111|76:108,1,90,8|0,1:0|1:0,1:0:0:0:
294,43,58069,2,0,P|343:28|388:25,1,90,2|0,1:2|1:0,0:0:0:0:
180,15,58391,1,8,1:0:0:0:
358,129,58552,1,0,0:0:0:0:
165,172,58714,5,6,1:0:0:0:
167,152,58794,1,0,1:0:0:0:
169,132,58875,1,0,1:0:0:0:
272,236,59036,37,8,1:0:0:0:
103,284,59198,1,2,1:0:0:0:
101,310,59278,1,0,1:0:0:0:
99,336,59359,1,0,1:0:0:0:
272,236,59520,5,0,1:0:0:0:
65,143,59681,1,10,1:0:0:0:
69,109,59762,1,0,1:0:0:0:
73,75,59843,1,2,1:2:0:0:
272,236,60004,37,8,1:0:0:0:
19,237,60165,1,8,1:0:0:0:
247,17,60327,1,8,1:0:0:0:
343,305,60488,1,8,1:0:0:0:
343,305,60972,22,8,L|381:237,1,49.5000015106202,8|8,1:0|1:0,1:0:0:0:
296,192,61133,2,8,L|272:236,1,49.5000015106202,8|8,1:0|1:0,1:0:0:0:
345,108,61294,5,4,1:0:0:0:
61,213,61456,2,0,L|186:201,1,125.999996154785,2|0,0:0|1:0,0:0:0:0:
468,292,61778,2,2,L|342:304,1,125.999996154785,6|0,2:1|1:0,1:0:0:0:
40,318,62101,2,0,L|119:308,1,62.9999980773926,0|0,1:0|1:0,1:0:0:0:
262,352,62262,38,2,B|253:291|253:291|282:224|282:224|274:150,1,202.500007724762,6|0,1:0|0:0,1:0:0:0:
90,91,62907,6,0,B|134:111|134:111|207:104,1,99.0000030212403,8|0,1:0|0:0,0:0:0:0:
330,70,63230,1,0,1:0:0:0:
152,10,63391,1,0,1:0:0:0:
176,204,63552,2,0,L|184:99,1,99.0000030212403,8|0,1:0|0:0,0:0:0:0:
436,21,63875,38,0,P|440:81|434:119,1,99.0000030212403,2|0,1:2|0:0,0:0:0:0:
275,268,64198,2,0,P|282:192|294:158,1,99.0000030212403,8|0,1:0|0:0,0:0:0:0:
479,242,64520,2,0,P|479:290|495:356,1,99.0000030212403,0|0,0:0|1:0,0:0:0:0:
322,169,64843,2,0,P|334:109|338:57,1,99.0000030212403,8|0,1:0|0:0,0:0:0:0:
150,40,65165,5,2,1:2:0:0:
231,104,65327,1,0,0:0:0:0:
251,5,65488,37,8,1:0:0:0:
131,138,65649,1,8,1:3:0:0:
150,40,65810,5,8,1:0:0:0:
296,180,65971,1,8,1:3:0:0:
69,253,66133,38,8,P|64:228|65:204,1,49.5000015106202,8|8,1:0|1:0,1:0:0:0:
203,304,66294,2,8,P|208:329|207:353,1,49.5000015106202,8|8,1:0|1:0,1:0:0:0:
157,227,66456,5,4,1:0:0:0:
418,189,66617,2,0,P|362:173|283:184,1,125.999996154785,2|0,0:0|1:0,0:0:0:0:
1,330,66939,2,2,P|59:346|123:339,1,125.999996154785,6|0,2:1|1:0,1:0:0:0:
452,320,67262,2,0,P|423:312|387:313,1,62.9999980773926,0|0,1:0|1:0,1:0:0:0:
263,360,67423,38,2,B|245:309|263:263|263:263|283:213|269:161,1,202.500007724762,6|0,1:0|0:0,1:0:0:0:
69,192,68069,6,0,P|119:208|171:211,1,99.0000030212403,8|0,1:0|0:0,0:0:0:0:
327,68,68391,1,0,1:0:0:0:
139,114,68552,1,0,1:0:0:0:
254,267,68714,2,0,L|242:116,1,148.50000453186,8|0,1:0|0:0,0:0:0:0:
194,57,69036,38,2,B|249:89|249:89|395:63,1,198.000006042481,2|8,1:0|1:0,1:0:0:0:
466,234,69520,2,2,P|405:211|267:248,1,198.000006042481,6|0,1:0|1:0,1:0:0:0:
135,357,70004,2,0,P|155:308|163:249,1,99.0000030212403,8|0,1:0|0:0,0:0:0:0:
139,114,70327,5,4,1:0:0:0:
278,238,70488,1,0,0:0:0:0:
51,284,70649,2,0,P|43:258|42:228,1,49.5000015106202,8|0,1:0|1:0,1:0:0:0:
139,114,70810,2,2,B|170:135|201:134|201:134|237:109|282:110,1,148.50000453186,2|0,1:0|0:0,1:0:0:0:
354,130,71133,1,2,1:0:0:0:
363,367,71294,1,8,1:0:0:0:
318,356,71375,1,0,1:0:0:0:
287,324,71456,1,8,1:3:0:0:
270,282,71536,1,0,1:0:0:0:
278,238,71617,5,4,1:0:0:0:
500,260,71778,2,0,B|436:276|436:276|374:271,1,125.999996154785,2|0,0:0|1:0,0:0:0:0:
54,206,72101,2,2,B|114:190|114:190|180:194,1,125.999996154785,6|0,2:1|1:0,1:0:0:0:
463,114,72423,2,0,B|431:120|431:120|395:118,1,62.9999980773926,0|0,1:0|1:0,1:0:0:0:
265,42,72585,6,2,B|257:109|257:109|286:176|286:176|277:237,1,202.500007724762,6|0,1:0|0:0,1:0:0:0:
164,291,73230,38,0,L|177:193,1,99.0000030212403,8|0,1:0|0:0,0:0:0:0:
64,321,73552,1,0,1:0:0:0:
276,237,73714,1,0,1:0:0:0:
133,101,73875,2,0,L|149:204,1,99.0000030212403,8|0,1:0|0:0,0:0:0:0:
256,365,74198,6,0,P|274:313|279:250,1,99.0000030212403,2|0,1:2|0:0,0:0:0:0:
388,97,74520,2,0,P|400:148|396:208,1,99.0000030212403,8|0,1:0|0:0,0:0:0:0:
164,291,74843,1,0,1:0:0:0:
296,157,75004,1,0,1:0:0:0:
134,101,75165,1,8,1:0:0:0:
288,273,75327,1,8,1:0:0:0:
288,273,75407,1,0,1:0:0:0:
288,273,75488,37,2,1:2:0:0:
50,313,75649,1,0,1:0:0:0:
288,273,75810,2,0,P|210:248|130:259,1,148.50000453186,12|0,1:0|0:0,0:0:0:0:
50,313,76133,5,0,1:0:0:0:
134,101,76294,1,0,1:0:0:0:
50,313,76456,2,0,P|110:291|147:249,1,99.0000030212403,12|0,1:0|0:0,0:0:0:0:
64,16,76778,38,0,P|24:92|88:200,1,198.000006042481,4|8,1:0|1:0,0:0:0:0:
232,95,77262,2,0,P|176:95|108:107,1,99.0000030212403,0|2,0:0|1:2,0:0:0:0:
316,176,77585,1,0,1:0:0:0:
134,267,77746,1,8,1:0:0:0:
232,96,77907,1,0,0:0:0:0:
260,280,78069,5,6,1:0:0:0:
316,176,78230,1,0,0:0:0:0:
192,184,78391,1,8,1:0:0:0:
388,272,78552,2,2,B|428:228|428:228|436:80,1,198.000006042481,6|0,1:0|1:0,1:0:0:0:
292,16,79036,1,8,1:0:0:0:
296,42,79117,1,0,1:0:0:0:
300,68,79198,1,0,1:0:0:0:
146,261,79359,6,0,B|116:242|104:217|104:217|98:145|146:92,1,198.000006042481,4|8,1:0|1:0,0:0:0:0:
261,224,79843,2,0,P|272:272|305:325,1,99.0000030212403,0|2,0:0|1:2,0:0:0:0:
374,230,80165,1,0,1:0:0:0:
146,261,80327,1,8,1:0:0:0:
325,126,80488,1,0,0:0:0:0:
139,22,80649,5,6,1:0:0:0:
202,123,80810,1,0,0:0:0:0:
265,23,80972,1,8,1:0:0:0:
78,124,81133,2,2,P|55:185|133:291,1,198.000006042481,6|0,1:0|1:0,1:0:0:0:
328,215,81617,2,0,P|298:220|267:234,1,49.5000015106202,8|0,1:0|1:0,1:0:0:0:
408,264,81778,2,0,P|418:235|422:201,1,49.5000015106202,0|0,1:0|1:0,1:0:0:0:
325,126,81939,6,2,B|290:124|290:124|242:153|178:154,1,148.50000453186,6|0,1:0|0:0,1:0:0:0:
78,124,82262,5,0,1:0:0:0:
241,237,82423,1,0,1:0:0:0:
59,237,82585,5,8,1:0:0:0:
325,126,82746,1,2,1:0:0:0:
62,14,82907,5,8,1:0:0:0:
328,215,83069,1,10,1:0:0:0:
22,343,83230,5,2,1:0:0:0:
22,343,84198,2,8,P|50:334|76:332,1,49.5000015106202,8|8,1:0|1:0,1:0:0:0:
144,270,84359,2,8,P|174:279|208:282,1,49.5000015106202,8|8,1:0|1:0,1:0:0:0:
260,352,84520,5,4,1:0:0:0:
423,285,84681,2,0,P|346:283|313:289,1,90,2|8,0:0|1:0,0:0:0:0:
144,270,85004,2,0,P|182:232|210:188,1,90,2|0,0:0|1:0,0:0:0:0:
313,46,85327,2,0,P|330:102|350:138,1,90,2|8,1:2|1:0,0:0:0:0:
441,182,85649,1,0,0:0:0:0:
228,120,85810,6,2,B|181:113|142:135|142:135|100:157|53:146,1,180,2|8,1:0|1:0,1:0:0:0:
206,225,86294,2,0,P|262:209|303:207,1,90,2|0,0:0|1:0,0:0:0:0:
139,313,86617,1,0,1:0:0:0:
356,330,86778,2,0,P|293:313|254:309,1,90,8|0,1:0|0:0,0:0:0:0:
449,265,87101,6,2,P|475:199|431:97,1,180,6|8,1:0|1:0,1:0:0:0:
249,44,87585,2,0,P|313:54|353:55,1,90,2|0,0:0|1:0,0:0:0:0:
374,192,87907,2,0,P|323:210|280:216,1,90,2|8,1:2|1:0,0:0:0:0:
436,101,88230,1,2,0:0:0:0:
212,94,88391,6,2,P|282:59|364:58,1,135,6|0,1:0|0:0,1:0:0:0:
436,101,88714,1,10,1:0:0:0:
436,101,88875,1,0,1:0:0:0:
361,280,89036,2,2,P|364:224|378:179,1,90,6|0,1:0|0:0,1:0:0:0:
226,265,89359,1,10,1:0:0:0:
237,303,89439,1,0,1:0:0:0:
234,343,89520,1,0,1:0:0:0:
132,212,89681,6,0,P|164:176|220:158,1,90,4|0,1:0|1:0,0:0:0:0:
244,156,89923,1,0,1:0:0:0:
244,156,90004,1,8,1:0:0:0:
492,233,90165,2,0,P|431:247|398:271,1,90,2|0,1:2|1:0,0:0:0:0:
362,357,90488,1,8,1:0:0:0:
308,197,90649,1,8,1:3:0:0:
481,338,90810,1,8,1:0:0:0:
481,338,90891,1,8,1:0:0:0:
481,338,90972,5,4,1:0:0:0:
272,293,91133,1,0,1:0:0:0:
492,233,91295,1,2,1:2:0:0:
347,104,91456,1,2,1:2:0:0:
387,274,91617,5,0,1:0:0:0:
488,35,91778,1,8,1:0:0:0:
247,130,91940,1,8,1:0:0:0:
492,233,92101,1,8,1:0:0:0:
268,29,92262,6,0,B|226:14|226:14|139:30,1,125.999996154785,4|0,0:1|1:0,0:0:0:0:
50,45,92907,1,4,1:3:0:0:
113,116,93230,1,4,1:3:0:0:
20,135,93553,6,0,L|135:111,1,94.499997116089,4|0,1:0|0:0,0:0:0:0:
211,108,93875,2,0,P|207:137|192:176,1,53.9999983520508,8|0,1:0|1:0,1:0:0:0:
72,235,94036,2,0,P|94:219|119:210,1,53.9999983520508,8|0,1:3|1:3,1:3:0:0:
289,269,94198,5,10,1:0:0:0:
50,45,94359,1,10,1:0:0:0:
50,45,95165,5,8,1:0:0:0:
91,63,95246,1,8,1:0:0:0:
136,61,95327,2,8,P|160:55|193:36,1,45,8|8,1:0|1:0,1:0:0:0:
117,152,95488,38,0,P|102:207|102:242,1,80.9999975280763,4|0,1:0|0:0,0:0:0:0:
137,321,95810,1,8,1:0:0:0:
333,266,95971,2,0,P|282:206|204:210,1,161.999995056153,0|0,0:0|1:0,0:0:0:0:
58,336,96455,2,0,P|99:334|137:321,1,80.9999975280763,8|0,1:0|0:0,0:0:0:0:
407,331,96778,6,0,P|351:306|255:338,1,161.999995056153,2|8,1:2|1:0,0:0:0:0:
125,216,97262,2,0,P|177:225|208:242,1,80.9999975280763,2|0,0:0|1:0,0:0:0:0:
361,113,97584,2,0,P|318:134|288:161,1,80.9999975280763,0|8,1:0|1:0,1:0:0:0:
148,16,97907,1,0,0:0:0:0:
135,117,98068,38,0,P|188:107|223:88,1,80.9999975280763,2|0,1:2|0:0,0:0:0:0:
48,57,98391,1,8,1:0:0:0:
125,216,98552,2,0,B|137:260|137:260|108:325|54:342,1,161.999995056153,2|0,0:0|1:0,0:0:0:0:
228,306,99036,2,0,P|315:317|363:315,1,121.499996292114,8|0,1:0|0:0,0:0:0:0:
423,288,99358,6,0,P|364:306|336:326,1,80.9999975280763,2|0,1:2|0:0,0:0:0:0:
510,342,99681,1,8,1:0:0:0:
340,213,99842,1,0,1:0:0:0:
504,164,100004,1,0,1:0:0:0:
504,164,100165,1,0,1:0:0:0:
348,316,100326,1,8,1:0:0:0:
333,109,100488,1,0,0:0:0:0:
382,202,100649,38,0,P|326:213|280:206,1,80.9999975280763,4|0,1:0|0:0,0:0:0:0:
177,110,100971,2,0,B|213:88|251:91|251:91|290:110|333:108,1,161.999995056153,8|0,1:0|1:0,0:0:0:0:
433,76,101455,1,0,1:0:0:0:
302,211,101617,2,0,P|292:257|290:296,1,80.9999975280763,8|0,1:0|0:0,0:0:0:0:
37,228,101939,6,0,P|117:233|196:210,1,161.999995056153,2|8,1:2|1:0,0:0:0:0:
249,118,102423,1,0,0:0:0:0:
229,305,102584,2,0,L|235:339,6,20.2499993820191,2|0|0|0|0|0|0,0:0|0:0|0:0|0:0|1:0|0:0|0:0,0:0:0:0:
249,347,102907,2,0,P|288:353|342:354,1,80.9999975280763,8|0,1:0|0:0,0:0:0:0:
109,310,103229,38,0,P|137:311|173:319,1,45,8|0,1:0|1:0,1:0:0:0:
386,248,103391,2,0,P|312:257|210:235,1,157.499995193482,8|0,1:0|2:0,0:0:0:0:
115,168,103875,6,0,P|143:167|179:159,1,45,8|0,1:0|1:0,1:0:0:0:
394,94,104036,2,0,P|315:79|237:88,1,157.499995193482,8|0,1:0|2:0,0:0:0:0:
243,91,104520,37,10,1:0:0:0:
230,242,104681,1,2,1:0:0:0:
247,96,104842,1,0,1:0:0:0:
163,308,105004,2,2,P|222:332|297:308,1,121.499996292114,2|0,1:0|0:0,1:0:0:0:
334,264,105326,1,6,1:3:0:0:
115,168,105488,2,0,L|106:257,1,80.9999975280763,8|0,1:0|0:0,1:0:0:0:
163,308,105730,1,0,0:0:0:0:
163,308,105810,22,0,P|209:330|260:328,1,90,4|0,1:0|0:0,0:0:0:0:
334,264,106133,1,8,1:0:0:0:
238,86,106294,2,0,P|186:153|232:224,1,180,2|0,0:0|1:0,0:0:0:0:
423,269,106778,2,0,P|378:263|333:264,1,90,8|0,1:0|0:0,0:0:0:0:
163,308,107100,5,2,1:2:0:0:
333,263,107262,2,0,P|383:235|421:202,1,90,2|8,0:0|1:0,0:0:0:0:
232,224,107584,1,2,0:0:0:0:
379,113,107746,2,0,P|431:115|477:129,1,90,0|0,1:0|1:0,1:0:0:0:
503,329,108068,2,0,P|446:329|360:367,1,135,8|0,1:0|0:0,0:0:0:0:
414,288,108391,38,0,P|401:216|304:185,1,180,2|8,1:2|1:0,0:0:0:0:
187,97,108875,2,0,P|241:76|274:55,1,90,2|0,0:0|1:0,0:0:0:0:
478,13,109197,2,0,P|469:61|464:112,1,90,0|8,1:0|1:0,1:0:0:0:
334,264,109520,1,0,0:0:0:0:
496,194,109681,5,2,1:2:0:0:
278,164,109842,2,0,P|334:153|383:157,1,90,2|8,0:0|1:0,0:0:0:0:
203,353,110165,2,0,P|220:303|224:259,1,90,2|0,0:0|1:0,0:0:0:0:
167,60,110487,2,0,P|162:113|150:153,1,90,0|8,1:0|1:0,1:0:0:0:
6,242,110810,38,0,B|56:226|101:243|101:243|142:260|185:248,1,180,2|0,0:0|0:0,0:0:0:0:
316,140,111294,2,0,P|212:115|140:161,1,180,8|0,1:0|1:0,0:0:0:0:
335,242,111778,1,0,1:0:0:0:
411,90,111939,2,0,P|459:82|509:89,1,90,8|0,1:0|0:0,0:0:0:0:
457,181,112262,5,2,1:2:0:0:
339,19,112423,1,2,0:0:0:0:
226,150,112584,2,0,P|271:150|315:139,1,90,8|0,1:0|0:0,0:0:0:0:
411,90,112907,1,0,1:0:0:0:
335,242,113068,1,0,1:0:0:0:
226,128,113229,2,2,P|270:129|315:139,1,90,10|0,1:0|0:0,1:0:0:0:
120,187,113552,38,2,B|105:98|105:98|160:18,1,180,6|8,1:0|1:0,1:0:0:0:
314,138,114036,1,0,0:0:0:0:
120,187,114197,6,2,B|86:94|86:94|157:22,1,198.000006042481,6|8,1:0|1:0,1:0:0:0:
314,138,114681,1,0,0:0:0:0:
120,187,114842,6,2,B|71:91|71:91|158:22,1,215.999993408203,6|8,1:0|1:0,1:0:0:0:
314,138,115326,1,0,0:0:0:0:
170,282,115488,1,2,1:2:0:0:
371,227,115649,1,0,0:0:0:0:
120,187,115810,1,12,1:0:0:0:
330,39,115971,1,0,0:0:0:0:
262,230,116133,6,0,P|222:188|240:61,1,180,4|8,1:0|1:0,0:0:0:0:
442,22,116617,2,0,P|430:78|426:126,1,90,0|0,0:0|1:0,0:0:0:0:
463,313,116939,1,0,1:0:0:0:
314,138,117100,1,8,1:0:0:0:
496,208,117262,1,0,0:0:0:0:
235,204,117423,38,0,P|317:170|431:173,1,180,2|8,1:2|1:0,0:0:0:0:
117,178,117907,1,2,0:0:0:0:
269,314,118068,2,0,P|219:314|170:301,1,90,0|0,1:0|1:0,1:0:0:0:
375,265,118391,1,8,1:0:0:0:
386,300,118471,1,0,1:0:0:0:
382,336,118552,1,8,1:3:0:0:
235,204,118713,5,0,1:0:0:0:
458,155,118875,1,0,1:0:0:0:
235,204,119036,2,2,L|392:171,1,135,14|0,1:0|0:0,1:0:0:0:
458,155,119359,37,0,1:0:0:0:
213,107,119521,1,0,1:0:0:0:
458,155,119682,2,2,L|305:126,1,148.50000453186,14|0,1:0|0:0,1:0:0:0:
213,107,120004,5,0,1:0:0:0:
474,55,120166,1,0,1:0:0:0:
213,107,120327,2,2,L|382:74,1,161.999995056153,14|0,1:0|0:0,1:0:0:0:
474,55,120649,37,0,1:0:0:0:
190,9,120811,1,0,1:0:0:0:
268,195,120971,1,10,1:0:0:0:
300,164,121052,1,0,1:0:0:0:
315,121,121133,1,0,1:0:0:0:
315,77,121213,1,8,1:0:0:0:
292,38,121294,6,0,B|246:19|246:19|186:48|108:40,1,180,4|8,1:0|1:0,0:0:0:0:
83,33,121697,1,0,1:0:0:0:
83,33,121778,1,0,1:0:0:0:
104,217,121939,2,0,P|123:159|126:119,1,90,0|0,1:0|1:0,0:0:0:0:
20,155,122262,1,8,1:0:0:0:
225,204,122423,1,0,0:0:0:0:
34,344,122584,38,0,P|22:299|18:246,1,90,2|0,1:2|0:0,0:0:0:0:
177,54,122907,2,0,P|169:115|155:154,1,90,8|0,1:0|0:0,0:0:0:0:
267,376,123229,2,0,P|257:311|260:273,1,90,2|0,1:2|1:0,1:0:0:0:
315,138,123552,1,8,1:0:0:0:
360,316,123713,1,0,0:0:0:0:
152,252,123875,5,6,1:0:0:0:
132,249,123955,1,0,1:0:0:0:
112,252,124036,1,0,1:0:0:0:
226,160,124197,37,8,1:0:0:0:
308,317,124359,1,2,1:0:0:0:
334,319,124439,1,0,1:0:0:0:
360,316,124520,1,0,1:0:0:0:
226,160,124681,5,0,1:0:0:0:
140,345,124842,1,10,1:0:0:0:
106,350,124923,1,0,1:0:0:0:
72,344,125004,1,2,1:2:0:0:
226,160,125165,37,8,1:0:0:0:
387,305,125326,1,8,1:0:0:0:
50,175,125488,1,8,1:0:0:0:
389,61,125649,1,8,1:0:0:0:
389,61,126133,22,8,B|380:84|380:84|379:121,1,49.5000015106202,8|8,1:0|1:0,1:0:0:0:
475,149,126294,2,8,B|474:124|474:124|465:101,1,49.5000015106202,8|8,1:0|1:0,1:0:0:0:
314,13,126455,5,4,1:0:0:0:
43,153,126617,2,0,B|83:161|83:161|168:141,1,125.999996154785,2|0,0:0|1:0,0:0:0:0:
512,56,126939,2,2,B|476:68|476:68|388:61,1,125.999996154785,6|0,2:1|1:0,1:0:0:0:
56,24,127262,2,0,B|87:17|87:17|139:20,1,62.9999980773926,0|0,1:0|1:0,1:0:0:0:
255,84,127423,38,2,B|273:133|273:133|253:180|253:180|272:231|256:284,1,202.500007724762,6|0,1:0|0:0,1:0:0:0:
66,252,128068,6,0,P|116:237|183:239,1,99.0000030212403,8|0,1:0|0:0,0:0:0:0:
341,330,128391,1,0,1:0:0:0:
131,335,128552,1,0,1:0:0:0:
211,143,128713,2,0,P|252:204|257:277,1,148.50000453186,8|0,1:0|0:0,0:0:0:0:
222,346,129036,38,0,P|293:324|334:325,1,99.0000030212403,2|0,1:2|0:0,0:0:0:0:
506,251,129359,2,0,P|473:251|407:242,1,99.0000030212403,8|0,1:0|0:0,0:0:0:0:
305,114,129681,2,0,P|305:66|321:0,1,99.0000030212403,0|0,0:0|1:0,0:0:0:0:
407,242,130004,2,0,P|419:302|423:354,1,99.0000030212403,8|0,1:0|0:0,0:0:0:0:
296,224,130326,5,2,1:2:0:0:
421,127,130488,1,0,0:0:0:0:
305,114,130649,1,8,1:0:0:0:
407,242,130810,1,0,1:0:0:0:
209,162,130971,37,8,1:0:0:0:
421,127,131132,1,0,1:0:0:0:
214,51,131294,1,8,1:0:0:0:
164,58,131375,1,8,1:0:0:0:
123,85,131455,1,8,1:0:0:0:
101,129,131536,1,8,1:0:0:0:
99,180,131617,5,4,1:0:0:0:
427,136,131778,2,0,P|370:117|293:115,1,125.999996154785,2|0,0:0|1:0,0:0:0:0:
19,88,132100,2,2,P|76:88|143:71,1,125.999996154785,6|0,2:1|1:0,1:0:0:0:
447,34,132423,2,0,P|417:27|381:26,1,62.9999980773926,0|0,1:0|1:0,1:0:0:0:
256,126,132584,38,2,B|239:180|258:229|258:229|273:274|256:324,1,202.500007724762,6|0,1:0|0:0,1:0:0:0:
446,197,133230,6,0,P|396:181|344:178,1,99.0000030212403,8|0,1:0|0:0,0:0:0:0:
147,273,133552,1,0,1:0:0:0:
380,280,133713,1,0,1:0:0:0:
255,126,133875,2,0,P|244:199|249:273,1,148.50000453186,8|0,1:0|0:0,0:0:0:0:
312,332,134197,38,2,B|278:328|253:308|253:308|192:353|116:346,1,198.000006042481,2|8,1:0|1:0,1:0:0:0:
328,216,134681,2,2,P|368:136|328:35,1,198.000006042481,6|0,1:0|1:0,1:0:0:0:
156,136,135165,2,0,L|270:124,1,99.0000030212403,8|0,1:0|0:0,0:0:0:0:
96,221,135488,5,4,1:0:0:0:
297,120,135649,1,0,0:0:0:0:
72,72,135810,2,0,L|13:67,1,49.5000015106202,8|0,1:0|1:0,1:0:0:0:
156,136,135971,2,2,P|224:110|305:124,1,148.50000453186,2|0,1:0|0:0,1:0:0:0:
361,171,136294,1,2,1:0:0:0:
167,307,136455,2,0,P|136:305|100:299,1,49.5000015106202,8|0,1:0|1:0,1:0:0:0:
344,280,136617,2,0,P|375:282|411:288,1,49.5000015106202,8|0,1:3|1:0,1:0:0:0:
255,292,136778,5,4,1:0:0:0:
489,357,136939,2,0,B|425:373|425:373|365:368,1,125.999996154785,2|0,0:0|1:0,0:0:0:0:
27,221,137262,2,2,B|87:205|87:205|153:209,1,125.999996154785,6|0,2:1|1:0,1:0:0:0:
436,240,137584,2,0,B|404:243|404:243|369:257,1,62.9999980773926,0|0,1:0|1:0,1:0:0:0:
259,354,137746,6,2,B|270:311|270:311|253:268|253:268|278:217|260:158,1,202.500007724762,6|0,1:0|0:0,1:0:0:0:
159,11,138391,38,0,P|159:72|166:116,1,99.0000030212403,8|0,1:0|0:0,0:0:0:0:
260,159,138713,1,0,1:0:0:0:
71,169,138875,1,0,1:0:0:0:
154,310,139036,2,0,P|168:260|170:207,1,99.0000030212403,8|0,1:0|0:0,0:0:0:0:
345,80,139359,6,0,P|351:139|368:195,1,99.0000030212403,2|0,1:2|0:0,0:0:0:0:
505,285,139681,2,0,L|395:276,1,99.0000030212403,8|0,1:0|0:0,0:0:0:0:
260,159,140004,1,0,1:0:0:0:
459,115,140165,1,0,1:0:0:0:
375,275,140326,1,8,1:0:0:0:
345,80,140488,1,8,1:0:0:0:
348,56,140568,1,0,1:0:0:0:
351,31,140649,37,2,1:2:0:0:
375,275,140810,1,0,1:0:0:0:
351,31,140971,2,0,L|367:197,1,148.50000453186,12|0,1:0|0:0,0:0:0:0:
375,275,141294,5,0,1:0:0:0:
436,40,141455,1,0,1:0:0:0:
375,275,141617,2,0,L|403:158,1,99.0000030212403,12|0,1:0|0:0,0:0:0:0:
471,336,141939,38,0,P|378:311|292:355,1,198.000006042481,4|8,1:0|1:0,0:0:0:0:
107,293,142423,2,0,P|163:293|231:281,1,99.0000030212403,0|2,0:0|1:2,0:0:0:0:
354,243,142746,1,0,1:0:0:0:
290,39,142907,1,8,1:0:0:0:
145,195,143068,1,0,0:0:0:0:
266,160,143230,5,6,1:0:0:0:
165,73,143391,1,0,0:0:0:0:
145,195,143552,1,8,1:0:0:0:
383,121,143713,2,2,P|431:171|353:242,1,198.000006042481,6|0,1:0|1:0,1:0:0:0:
184,182,144197,1,8,1:0:0:0:
225,170,144278,1,0,1:0:0:0:
266,160,144359,1,0,1:0:0:0:
96,111,144520,6,0,B|56:136|56:136|36:221|96:280,1,198.000006042481,4|8,1:0|1:0,0:0:0:0:
291,289,145004,2,0,P|245:266|193:255,1,99.0000030212403,0|2,0:0|1:2,0:0:0:0:
15,353,145326,1,0,1:0:0:0:
213,357,145488,1,8,1:0:0:0:
55,209,145649,1,0,0:0:0:0:
261,83,145810,5,6,1:0:0:0:
295,193,145971,1,0,0:0:0:0:
198,255,146133,1,8,1:0:0:0:
148,72,146294,2,2,P|247:61|331:11,1,198.000006042481,6|0,1:0|1:0,1:0:0:0:
61,13,146778,1,8,1:0:0:0:
44,59,146858,1,0,1:0:0:0:
49,108,146939,1,0,1:0:0:0:
76,149,147020,1,0,1:0:0:0:
118,172,147100,6,2,B|156:157|156:157|269:171,1,148.50000453186,6|0,1:0|0:0,1:0:0:0:
367,181,147423,5,0,1:0:0:0:
170,260,147584,1,0,1:0:0:0:
326,89,147746,5,8,1:0:0:0:
254,329,147907,1,2,1:0:0:0:
225,60,148068,5,8,1:0:0:0:
363,347,148230,1,10,1:0:0:0:
59,260,148391,5,2,1:0:0:0:
59,260,149358,2,8,P|79:235|92:204,1,49.5000015106202,8|8,1:0|1:0,1:0:0:0:
104,64,149520,2,8,P|115:93|135:120,1,49.5000015106202,8|8,1:0|1:0,1:0:0:0:
256,192,149681,5,4,1:0:0:0:
361,145,160004,6,0,B|393:158|393:158|439:139|509:150,2,135.000005149842,4|8|0,1:0|0:0|0:0,0:0:0:0:
256,92,160971,1,10,0:0:0:0:
151,145,161294,2,0,B|119:158|119:158|73:139|3:150,1,135.000005149842,0|10,1:0|0:0,0:0:0:0:
96,247,161778,6,0,P|139:245|171:234,1,67.5000025749208,2|0,0:0|0:0,0:0:0:0:
349,237,162100,2,0,P|382:246|416:247,1,67.5000025749208,2|8,0:0|1:0,0:0:0:0:
256,194,162423,1,0,1:0:0:0:
256,295,162584,6,0,L|256:367,1,67.5000025749208,2|0,1:2|0:0,0:0:0:0:
256,194,162907,2,0,P|205:171|205:115,1,101.250003862381,8|0,0:0|0:0,0:0:0:0:
256,76,163229,2,0,L|256:30,2,45.0000017166138,0|0|0,1:0|1:0|1:0,0:0:0:0:
256,194,163552,2,0,P|307:171|307:115,1,101.250003862381,10|0,0:0|0:0,0:0:0:0:
256,194,163875,6,0,L|256:270,1,67.5000025749208,2|0,1:2|0:0,0:0:0:0:
256,362,164197,1,10,0:0:0:0:
96,322,164358,2,0,P|156:314|192:318,1,67.5000025749208,2|0,0:0|1:0,0:0:0:0:
416,322,164681,2,0,P|382:315|349:314,1,67.5000025749208,2|8,0:0|1:0,0:0:0:0:
256,261,165004,1,0,0:0:0:0:
256,261,165084,1,0,0:0:0:0:
256,261,165165,6,0,L|256:179,1,67.5000025749208,2|0,1:2|0:0,0:0:0:0:
208,102,165487,2,0,P|256:115|304:102,1,101.250003862381,10|0,0:0|0:0,0:0:0:0:
279,31,165810,2,0,P|255:29|233:31,2,45.0000017166138,0|0|0,1:0|1:0|1:0,0:0:0:0:
392,60,166133,2,0,P|399:100|396:130,1,67.5000025749208,8|0,0:0|0:0,0:0:0:0:
116,128,166455,2,0,P|114:94|120:61,1,67.5000025749208,2|0,1:2|0:0,0:0:0:0:
304,101,166778,5,0,0:0:0:0:
208,102,166939,1,0,0:0:0:0:
256,18,167100,1,2,0:0:0:0:
256,284,167423,2,0,B|248:260|256:236|256:236|264:212|256:184,1,101.250003862381,4|0,1:3|0:0,0:0:0:0:
164,212,167746,38,2,P|102:259|32:228,1,161.999995056153,6|8,1:0|1:0,1:0:0:0:
347,263,168229,2,2,P|409:216|480:248,1,161.999995056153,10|0,1:3|1:0,1:0:0:0:
320,352,168713,1,8,1:3:0:0:
164,212,168875,1,8,1:0:0:0:
382,175,169036,1,0,1:0:0:0:
198,328,169197,6,2,P|173:293|165:210,1,125.999996154785,6|0,1:0|1:0,1:0:0:0:
3,342,169681,2,2,P|15:304|14:243,1,80.9999975280763,10|0,1:0|1:0,1:0:0:0:
150,133,170004,2,2,P|150:173|163:211,1,80.9999975280763,14|0,1:0|1:0,1:0:0:0:
326,299,170326,6,0,P|326:211|258:157,1,180,4|8,1:0|1:0,0:0:0:0:
62,258,170810,2,0,B|107:279|107:279|255:251,1,180,2|0,0:0|1:0,0:0:0:0:
427,223,171294,2,0,B|424:269|424:269|437:319,1,90,8|0,1:0|0:0,0:0:0:0:
487,132,171617,6,0,B|444:117|444:117|372:117,1,90,2|0,1:2|0:0,0:0:0:0:
318,192,171939,1,8,1:0:0:0:
120,105,172100,2,0,B|178:108|178:108|238:83|238:83|296:87,1,180,2|0,0:0|1:0,0:0:0:0:
159,11,172584,2,0,L|56:6,1,90,8|0,1:0|0:0,0:0:0:0:
294,86,172907,38,0,P|357:90|438:8,1,180,2|8,1:2|1:0,0:0:0:0:
318,192,173391,2,0,P|321:273|344:376,1,180,2|0,0:0|1:0,0:0:0:0:
175,199,173875,2,0,P|188:144|192:92,1,90,8|0,1:0|0:0,0:0:0:0:
19,306,174197,6,0,P|82:287|127:284,1,90,2|0,1:2|0:0,0:0:0:0:
221,296,174520,1,8,1:0:0:0:
86,144,174681,2,0,P|158:157|270:146,1,180,2|0,0:0|0:0,0:0:0:0:
408,236,175165,1,8,1:0:0:0:
373,226,175246,1,0,1:0:0:0:
337,228,175326,1,0,1:0:0:0:
469,317,175487,38,0,P|507:239|477:157,1,180,4|8,1:0|1:0,0:0:0:0:
333,82,175971,2,0,B|381:90|423:69|423:69|462:51|508:61,1,180,2|0,0:0|1:0,0:0:0:0:
363,190,176455,2,0,P|318:179|266:179,1,90,8|0,1:0|0:0,0:0:0:0:
72,273,176778,6,0,P|124:261|168:263,1,90,2|0,1:2|0:0,0:0:0:0:
261,301,177100,1,8,1:0:0:0:
97,171,177262,2,0,P|83:126|174:31,1,180,2|0,0:0|1:0,0:0:0:0:
397,90,177746,2,0,P|340:88|294:80,1,90,8|0,1:0|0:0,0:0:0:0:
72,273,178068,38,2,P|169:252|197:134,1,215.999993408203,6|8,1:0|1:0,1:0:0:0:
442,322,178552,2,2,P|345:301|317:183,1,215.999993408203,6|0,1:0|1:0,1:0:0:0:
149,371,179036,6,2,P|207:353|244:282,1,135.000005149842,6|0,1:0|1:0,1:0:0:0:
183,63,179520,38,0,P|188:115|206:157,1,90,4|0,1:0|0:0,0:0:0:0:
456,170,179842,1,0,1:0:0:0:
456,170,179923,1,0,1:0:0:0:
456,170,180004,2,0,P|408:148|363:142,1,90,8|0,1:0|0:0,0:0:0:0:
229,345,180326,1,8,1:0:0:0:
261,329,180407,1,0,1:0:0:0:
286,304,180487,1,0,1:0:0:0:
300,271,180568,1,0,1:0:0:0:
305,235,180649,22,0,B|263:248|263:248|124:230,1,180,4|8,1:0|1:0,0:0:0:0:
307,92,181133,2,0,L|504:71,1,180,2|0,0:0|1:0,0:0:0:0:
217,32,181617,2,0,B|199:74|199:74|204:127,1,90,8|0,1:0|0:0,0:0:0:0:
428,236,181939,6,0,B|383:224|383:224|327:234,1,90,2|0,1:2|0:0,0:0:0:0:
378,331,182262,1,8,1:0:0:0:
476,149,182423,2,0,B|390:123|390:123|299:140,1,180,2|0,0:0|1:0,0:0:0:0:
126,204,182907,2,0,L|221:209,1,90,8|0,1:0|0:0,0:0:0:0:
37,266,183229,38,0,P|20:202|95:103,1,180,2|8,1:2|1:0,0:0:0:0:
295,187,183713,2,0,B|269:208|238:214|238:214|185:186|124:204,1,180,2|0,0:0|1:0,0:0:0:0:
126,377,184197,2,0,P|158:333|173:289,1,90,8|0,1:0|0:0,0:0:0:0:
230,86,184520,6,0,P|244:131|266:171,1,90,2|0,1:2|0:0,0:0:0:0:
114,78,184842,1,8,1:0:0:0:
347,94,185004,2,0,P|419:139|432:233,1,180,2|0,0:0|1:0,0:0:0:0:
230,86,185487,1,8,1:0:0:0:
421,8,185649,1,0,0:0:0:0:
330,203,185810,38,0,B|270:209|270:209|208:194|208:194|151:201,2,180,4|8|0,1:0|1:0|1:0,1:0:0:0:
276,109,186617,1,0,1:0:0:0:
202,294,186778,2,0,L|213:387,1,90,8|0,1:0|0:0,0:0:0:0:
69,280,187100,6,0,B|39:246|39:246|29:168|67:105,1,180,2|8,1:2|1:0,0:0:0:0:
450,115,187746,2,2,P|467:157|472:210,1,90,2|0,1:0|1:0,1:0:0:0:
318,303,188068,2,0,P|356:248|366:154,1,135,8|0,1:0|0:0,0:0:0:0:
341,102,188391,38,0,B|302:132|302:132|243:142|164:113,1,180,4|8,1:0|1:0,0:0:0:0:
69,280,188875,2,0,P|118:270|171:267,1,90,4|0,1:0|1:0,0:0:0:0:
391,266,189197,1,0,1:0:0:0:
224,190,189358,1,12,1:0:0:0:
376,87,189520,1,0,0:0:0:0:
223,339,189681,5,2,1:0:0:0:
197,45,189842,1,10,1:0:0:0:
391,266,190004,1,8,1:0:0:0:
104,200,190165,1,10,1:0:0:0:
104,200,190810,2,0,L|111:129,1,53.9999983520508,0|0,1:0|1:0,0:0:0:0:
224,190,190971,6,0,L|240:309,1,107.999996704102,4|0,1:0|1:0,0:0:0:0:
324,116,191294,2,0,L|340:235,1,107.999996704102,4|0,1:0|1:0,0:0:0:0:
428,38,191617,2,0,L|444:157,1,107.999996704102,4|0,1:0|1:0,0:0:0:0:
224,190,191939,2,8,L|233:253,1,53.9999983520508,8|8,1:0|1:0,1:0:0:0:
324,116,192100,2,8,L|333:179,1,53.9999983520508,8|8,1:0|1:0,1:0:0:0:
428,38,192262,5,6,1:0:0:0:
68,100,192424,2,0,B|134:105|134:105|213:91,1,135.000005149842,2|0,0:0|1:0,0:0:0:0:
506,178,192746,2,2,B|438:172|438:172|372:185,1,135.000005149842,6|0,2:1|1:0,1:0:0:0:
72,348,193069,2,0,B|102:350|102:350|155:344,1,67.5000025749208,0|0,1:0|1:0,1:0:0:0:
443,295,193230,38,2,B|400:302|366:281|366:281|323:304|323:304|283:284|239:293,1,216,6|0,1:0|0:0,1:0:0:0:
0,258,193875,6,0,P|51:241|106:244,1,107.999996704102,8|0,1:0|0:0,0:0:0:0:
238,293,194197,1,0,1:0:0:0:
66,352,194358,1,0,1:0:0:0:
188,91,194520,2,0,P|202:146|200:208,1,107.999996704102,8|0,1:0|0:0,0:0:0:0:
435,368,194842,38,0,P|450:308|446:254,1,107.999996704102,2|0,1:2|0:0,0:0:0:0:
333,11,195165,2,0,P|334:72|349:126,1,107.999996704102,8|0,1:0|0:0,0:0:0:0:
456,51,195487,1,0,1:0:0:0:
206,75,195649,1,0,1:0:0:0:
358,223,195810,2,0,P|357:162|342:108,1,107.999996704102,8|0,1:0|0:0,0:0:0:0:
200,322,196133,5,2,1:2:0:0:
200,322,196294,1,0,1:0:0:0:
433,268,196455,2,0,P|353:248|272:265,1,161.999995056153,8|0,1:0|0:0,0:0:0:0:
200,322,196778,2,0,P|232:268|241:205,1,107.999996704102,2|0,1:2|1:0,1:0:0:0:
91,48,197100,1,8,1:0:0:0:
54,88,197181,1,8,1:0:0:0:
44,140,197261,1,8,1:0:0:0:
60,191,197342,1,8,1:0:0:0:
101,226,197423,37,6,1:0:0:0:
393,16,197584,2,0,P|319:25|259:45,1,135.000005149842,2|0,0:0|1:0,0:0:0:0:
487,364,197907,2,2,B|419:361|355:337,1,135.000005149842,6|0,2:1|1:0,1:0:0:0:
469,107,198229,2,0,P|434:110|391:121,1,67.5000025749208,0|0,1:0|1:0,1:0:0:0:
240,224,198391,6,2,B|292:198|340:217|340:217|404:238|457:213,1,216,6|0,1:0|0:0,1:0:0:0:
298,312,199036,38,0,P|234:324|170:310,1,107.999996704102,8|0,1:0|0:0,0:0:0:0:
296,96,199358,1,0,1:0:0:0:
450,216,199520,1,0,1:0:0:0:
240,224,199681,2,0,L|67:213,1,161.999995056153,8|0,1:0|0:0,0:0:0:0:
27,140,200004,6,2,B|54:190|54:190|24:358,1,215.999993408203,2|8,1:0|1:0,1:0:0:0:
240,224,200488,2,2,L|224:109,1,107.999996704102,6|0,1:0|1:0,1:0:0:0:
204,331,200810,1,0,1:0:0:0:
340,159,200971,1,8,1:0:0:0:
344,120,201052,1,0,1:0:0:0:
349,82,201133,1,0,1:0:0:0:
128,181,201295,37,4,1:0:0:0:
407,232,201456,1,0,0:0:0:0:
175,23,201617,2,0,L|185:84,1,53.9999983520508,8|0,1:0|1:0,1:0:0:0:
252,256,201778,2,2,L|267:87,1,161.999995056153,2|0,1:0|0:0,1:0:0:0:
276,9,202101,1,2,1:0:0:0:
75,172,202262,2,0,P|102:173|128:181,1,53.9999983520508,8|0,1:0|1:0,1:0:0:0:
407,232,202424,2,0,P|377:237|352:248,1,53.9999983520508,8|0,1:3|1:0,1:0:0:0:
216,362,202584,37,6,1:0:0:0:
135,83,202746,2,0,P|80:44|20:15,1,135.000005149842,2|0,0:0|1:0,0:0:0:0:
392,131,203068,2,2,P|447:89|517:54,1,135.000005149842,6|0,2:1|1:0,1:0:0:0:
182,273,203391,2,0,P|164:239|130:198,1,67.5000025749208,0|0,1:0|1:0,1:0:0:0:
326,375,203552,38,2,B|334:283|407:231|407:231|406:265|400:289,1,216,6|0,1:0|0:0,1:0:0:0:
182,273,204197,6,0,P|126:270|62:254,1,107.999996704102,8|0,1:0|0:0,0:0:0:0:
274,208,204519,1,0,1:0:0:0:
166,380,204681,1,0,1:0:0:0:
138,165,204842,2,0,P|140:102|159:51,1,107.999996704102,8|0,1:0|0:0,0:0:0:0:
388,277,205165,38,0,P|336:297|279:303,1,107.999996704102,2|0,1:2|0:0,0:0:0:0:
30,174,205487,2,0,L|138:165,1,107.999996704102,8|0,1:0|0:0,0:0:0:0:
268,150,205810,1,0,1:0:0:0:
73,62,205971,1,0,1:0:0:0:
285,14,206132,1,8,1:0:0:0:
138,165,206294,1,8,1:0:0:0:
102,168,206374,1,0,1:0:0:0:
67,171,206455,5,2,1:2:0:0:
297,175,206616,1,0,1:0:0:0:
30,174,206778,2,0,B|69:201|69:201|209:186,1,161.999995056153,12|0,1:0|0:0,0:0:0:0:
297,175,207100,37,0,1:0:0:0:
100,292,207261,1,0,1:0:0:0:
297,175,207423,1,12,1:0:0:0:
163,73,207584,1,0,0:0:0:0:
241,271,207746,6,0,P|334:274|408:177,1,215.999993408203,4|8,1:0|1:0,0:0:0:0:
290,32,208230,2,0,P|273:125|281:153,1,107.999996704102,0|2,0:0|1:2,0:0:0:0:
390,270,208553,1,0,1:0:0:0:
379,98,208714,1,8,1:0:0:0:
288,238,208875,1,0,0:0:0:0:
448,180,209037,37,6,1:0:0:0:
203,111,209198,1,0,0:0:0:0:
452,18,209359,1,8,1:0:0:0:
288,238,209520,2,2,B|252:232|230:210|230:210|162:253|69:239,1,215.999993408203,6|0,1:0|1:0,1:0:0:0:
316,134,210004,2,0,P|311:76|288:30,1,107.999996704102,8|0,1:0|0:0,0:0:0:0:
30,67,210327,22,0,B|51:121|51:121|127:154|203:111,1,215.999993408203,4|8,1:0|1:0,0:0:0:0:
385,277,210810,2,0,P|339:247|287:236,1,107.999996704102,0|2,0:0|1:2,0:0:0:0:
148,351,211133,1,0,1:0:0:0:
304,331,211295,1,8,1:0:0:0:
187,226,211456,1,0,0:0:0:0:
377,167,211617,5,6,1:0:0:0:
104,152,211778,1,0,0:0:0:0:
304,331,211940,1,8,1:0:0:0:
51,287,212101,2,2,P|111:272|178:274,1,107.999996704102,6|0,1:0|1:0,1:0:0:0:
304,331,212423,1,0,1:0:0:0:
359,74,212584,2,0,P|330:124|318:181,1,107.999996704102,8|0,1:0|0:0,0:0:0:0:
463,374,212907,6,0,P|464:293|442:234,1,107.999996704102,4|0,1:0|0:0,0:0:0:0:
169,235,213229,2,0,P|250:240|332:199,1,161.999995056153,8|0,1:0|0:0,0:0:0:0:
345,177,213552,1,0,1:0:0:0:
177,359,213713,2,0,P|103:341|53:339,1,107.999996704102,0|8,1:0|0:0,1:0:0:0:
304,331,214036,1,0,0:0:0:0:
322,207,214197,6,2,P|306:155|282:107,1,107.999996704102,6|0,1:0|0:0,1:0:0:0:
304,331,214520,1,8,1:0:0:0:
402,120,214681,2,2,P|445:75|482:48,1,107.999996704102,6|0,1:0|1:0,1:0:0:0:
182,49,215004,1,0,0:0:0:0:
319,252,215165,1,8,1:0:0:0:
366,276,215245,1,0,1:0:0:0:
419,266,215326,1,0,1:0:0:0:
456,227,215407,1,0,1:0:0:0:
458,173,215487,6,2,P|402:120|317:143,1,161.999995056153,6|0,1:0|0:0,1:0:0:0:
380,197,215810,5,0,1:0:0:0:
349,10,215971,1,0,1:0:0:0:
319,252,216133,5,8,1:0:0:0:
164,30,216294,1,2,1:0:0:0:
287,328,216455,5,8,1:0:0:0:
14,121,216617,1,10,1:0:0:0:
380,197,216778,5,2,1:0:0:0:
380,197,217746,2,8,L|444:181,1,53.9999983520508,8|8,1:0|1:0,1:0:0:0:
333,284,217907,2,8,L|397:296,1,53.9999983520508,8|8,1:0|1:0,1:0:0:0:
259,344,218068,6,0,P|188:324|56:350,1,198.000006042481,4|8,1:0|1:0,0:0:0:0:
285,222,218552,2,0,P|352:209|391:190,1,99.0000030212403,2|0,0:0|1:0,0:0:0:0:
132,75,218875,2,0,P|149:131|173:173,1,99.0000030212403,2|8,1:2|1:0,0:0:0:0:
285,222,219197,1,0,0:0:0:0:
0,252,219358,6,2,P|72:186|168:166,1,198.000006042481,2|8,1:0|1:0,1:0:0:0:
379,196,219842,2,0,P|330:204|284:221,1,99.0000030212403,2|0,0:0|1:0,0:0:0:0:
464,262,220165,1,0,1:0:0:0:
216,311,220326,2,0,P|266:326|340:326,1,99.0000030212403,8|0,1:0|0:0,0:0:0:0:
389,304,220568,1,0,0:0:0:0:
389,304,220649,6,2,B|362:264|362:264|373:101,1,198.000006042481,6|8,1:0|1:0,1:0:0:0:
499,14,221133,2,0,L|490:121,1,99.0000030212403,2|0,0:0|1:0,0:0:0:0:
260,176,221455,2,0,L|242:67,1,99.0000030212403,2|8,1:2|1:0,0:0:0:0:
484,213,221778,1,2,0:0:0:0:
203,250,221939,6,2,P|273:215|349:239,1,148.50000453186,6|0,1:0|0:0,1:0:0:0:
281,307,222262,1,10,1:0:0:0:
281,307,222423,1,0,1:0:0:0:
252,124,222584,2,2,L|263:24,1,99.0000030212403,6|0,1:0|0:0,1:0:0:0:
115,225,222907,1,10,1:0:0:0:
119,263,222987,1,0,1:0:0:0:
124,302,223068,1,0,1:0:0:0:
155,111,223229,6,0,B|206:107|206:107|251:123,1,99.0000030212403,4|0,1:0|1:0,0:0:0:0:
320,204,223471,1,0,1:0:0:0:
320,204,223552,1,8,1:0:0:0:
512,156,223713,2,0,B|464:143|464:143|412:155,1,99.0000030212403,2|0,1:2|1:0,0:0:0:0:
220,248,224036,1,8,1:0:0:0:
464,248,224197,1,8,1:3:0:0:
320,96,224358,1,8,1:0:0:0:
320,96,224439,1,8,1:0:0:0:
320,96,224520,5,4,1:0:0:0:
308,308,224681,1,0,1:0:0:0:
415,154,224843,1,2,1:2:0:0:
220,248,225004,1,2,1:2:0:0:
436,280,225165,5,0,1:0:0:0:
200,128,225326,1,8,1:0:0:0:
496,72,225488,1,8,1:0:0:0:
220,248,225649,1,8,1:0:0:0:
352,20,225810,6,0,B|368:160,1,135.000005149842,4|0,0:1|1:0,0:0:0:0:
320,248,226455,1,4,1:3:0:0:
420,280,226778,1,4,1:3:0:0:
368,368,227101,6,0,P|333:355|252:352,1,101.250003862381,4|0,1:0|0:0,0:0:0:0:
164,356,227423,2,0,P|168:327|184:284,1,56.25,8|0,1:0|1:0,1:0:0:0:
256,192,227584,2,0,P|265:218|268:256,1,56.25,8|0,1:3|1:3,1:3:0:0:
269,349,227746,5,10,1:0:0:0:
243,35,227907,1,10,1:0:0:0:
256,192,228391,5,4,1:0:0:0:
256,192,228471,12,2,230971,0:0:0:0:
