osu file format v14

[General]
AudioFilename: audio.mp3
AudioLeadIn: 0
PreviewTime: 65117
Countdown: 0
SampleSet: Soft
StackLeniency: 0.6
Mode: 0
LetterboxInBreaks: 0
WidescreenStoryboard: 1

[Editor]
DistanceSpacing: 2.8
BeatDivisor: 4
GridSize: 8
TimelineZoom: 2.2

[Metadata]
Title:Sakurairo Time Capsule
TitleUnicode:桜色タイムカプセル
Artist:*namirin
ArtistUnicode:*なみりん
Creator:rohasshiki
Version:Hard
Source:
Tags:namirin sakurairio time capsule utaite utattemita
BeatmapID:1367503
BeatmapSetID:637587

[Difficulty]
HPDrainRate:5
CircleSize:4
OverallDifficulty:8
ApproachRate:9.3
SliderMultiplier:1.50000000596046
SliderTickRate:1

[Events]
//Background and Video events
0,0,"Smile-anime-girl-kids-street-sakura_1920x1080.jpg",0,0
//Break Periods
//Storyboard Layer 0 (Background)
//Storyboard Layer 1 (Fail)
//Storyboard Layer 2 (Pass)
//Storyboard Layer 3 (Foreground)
//Storyboard Sound Samples

[TimingPoints]
1588,352.941176470588,4,2,0,30,1,0
1588,-200,4,2,0,30,0,0
10058,-100,4,2,0,30,0,0
14999,-66.6666666666667,4,2,0,30,0,0
15705,-100,4,2,0,50,0,0
29823,352.941176470588,4,3,0,40,1,0
31234,-100,4,2,0,30,0,0
43234,-83.3333333333333,4,2,0,30,0,0
43940,-100,4,2,0,30,0,0
53823,-200,4,2,0,30,0,0
58940,-200,4,3,0,40,0,0
61587,-100,4,2,0,30,0,0
64764,-100,4,2,0,30,0,0
65117,-66.6666666666667,4,2,0,50,0,1
82764,-100,4,2,0,30,0,0
84882,-66.6666666666667,4,2,0,30,0,0
87705,-100,4,2,0,40,0,0
93352,-83.3333333333333,4,2,0,30,0,0
98999,-200,4,2,0,30,0,0
101117,-100,4,2,0,30,0,0
121587,-200,4,2,0,30,0,0
126882,-133.333333333333,4,2,0,30,0,0
129352,-100,4,2,0,30,0,0
130058,-66.6666666666667,4,2,0,30,0,0
132793,-55.5555555555556,4,2,0,70,0,1
143293,-100,4,2,0,50,0,1
144176,-55.5555555555556,4,2,0,50,0,1
149470,-66.6666666666667,4,2,0,50,0,1
150176,-133.333333333333,4,2,0,30,0,0
152646,-100,4,2,0,50,0,0
154235,-117.647058823529,4,2,0,30,0,0
155382,-133.333333333333,4,2,0,30,0,0
164646,-200,4,2,0,30,0,0
166764,-133.333333333333,4,2,0,30,0,0
172940,-100,4,2,0,30,0,0
173823,-80,4,2,0,30,0,0
174529,-66.6666666666667,4,2,0,30,0,0
175235,-55.5555555555556,4,2,0,50,0,0
178058,-66.6666666666667,4,2,0,50,0,1
187940,-133.333333333333,4,2,0,50,0,1
188029,-133.333333333333,4,2,0,50,0,1
189352,-133.333333333333,4,2,0,30,0,0
200646,-200,4,2,0,30,0,0
209117,-133.333333333333,4,2,0,30,0,0
211235,-100,4,2,0,30,0,0
216176,-100,4,2,0,30,0,0
217587,-57.1428571428571,4,2,0,30,0,1
227470,-66.6666666666667,4,2,0,30,0,1
234529,-57.1428571428571,4,2,0,30,0,0
236470,-100,4,2,0,30,0,0
1116568,352.941176470588,4,2,0,30,1,0

[HitObjects]
256,72,1588,6,0,L|344:72,1,75.000000298023
303,176,2293,2,0,L|223:176,1,75.000000298023
272,280,2999,2,0,L|352:280,1,75.000000298023
424,184,3705,2,0,L|424:104,1,75.000000298023
288,152,4411,6,0,L|288:232,1,75.000000298023
160,192,5117,2,0,L|160:112,1,75.000000298023
232,296,5823,2,0,P|280:296|320:248,1,112.500000447034
328,168,6529,2,0,P|264:184|240:224,1,112.500000447034
232,296,7235,6,0,P|184:280|159:222,1,112.500000447034
150,134,7940,2,0,P|140:111|102:71,1,75.000000298023
212,61,8470,1,0,0:0:0:0:
275,132,8646,2,0,P|256:157|254:212,1,75.000000298023
258,280,9176,2,0,P|237:291|184:296,2,75.000000298023
366,229,10058,6,0,L|422:171,1,75.000000298023
336,144,10411,2,0,L|280:208,1,75.000000298023
248,120,10764,2,0,L|304:64,1,75.000000298023
208,48,11117,2,0,L|152:112,1,75.000000298023
96,240,11470,6,0,L|56:168,1,75.000000298023
152,176,11823,2,0,L|192:248,1,75.000000298023
248,184,12176,2,0,L|208:112,1,75.000000298023
296,112,12529,2,0,L|336:176,1,75.000000298023
352,200,12793,1,0,0:0:0:0:
368,232,12882,6,0,L|296:288,1,75.000000298023
288,192,13235,2,0,L|352:144,1,75.000000298023
432,240,13587,2,0,L|368:296,1,75.000000298023
248,168,13940,2,0,L|320:112,1,75.000000298023
480,272,14293,2,0,L|424:336,1,75.000000298023
208,136,14646,2,0,L|272:88,1,75.000000298023
432,88,14999,6,0,B|408:168|432:320|432:320|400:296|328:256|232:320,1,393.750016584992
248,304,15705,6,0,P|200:320|96:280,1,150.000000596046
56,208,16235,1,0,0:0:0:0:
72,112,16411,2,0,P|112:80|224:56,1,150.000000596046
416,160,17117,6,0,P|376:184|312:272,1,150.000000596046
284,350,17646,1,0,0:0:0:0:
224,288,17823,2,0,P|176:248|64:208,1,150.000000596046
264,80,18529,2,0,P|312:96|440:88,1,150.000000596046
464,190,19058,1,0,0:0:0:0:
440,288,19235,2,0,P|384:248|288:224,1,150.000000596046
217,249,19764,1,0,0:0:0:0:
144,296,19940,6,0,P|120:256|112:176,1,112.500000447034
152,120,20293,2,0,P|208:104|272:112,1,112.500000447034
312,176,20646,2,0,P|320:224|304:288,1,112.500000447034
232,224,20999,2,0,P|192:184|144:144,1,112.500000447034
88,88,21352,6,0,B|163:48|228:109,1,150.000000596046
288,192,21882,1,0,0:0:0:0:
352,88,22058,2,0,P|376:128|376:248,1,150.000000596046
112,280,22764,6,0,P|104:240|160:152,1,150.000000596046
201,238,23293,1,0,0:0:0:0:
262,161,23470,2,0,P|294:238|251:312,1,150.000000596046
201,238,24176,6,0,L|304:239,1,75.000000298023
376,192,24529,2,0,P|392:232|376:296,1,75.000000298023
286,233,24882,1,0,0:0:0:0:
346,325,25058,1,0,0:0:0:0:
224,320,25235,1,0,0:0:0:0:
166,214,25411,1,0,0:0:0:0:
268,142,25587,6,0,P|250:108|215:78,1,75.000000298023
175,166,25940,2,0,P|196:209|238:235,1,75.000000298023
324,215,26293,1,0,0:0:0:0:
248,116,26470,1,0,0:0:0:0:
416,159,26646,1,0,0:0:0:0:
327,55,26823,1,0,0:0:0:0:
477,90,26999,1,0,0:0:0:0:
88,256,27529,5,0,0:0:0:0:
88,256,27705,1,0,0:0:0:0:
416,256,28235,5,0,0:0:0:0:
416,256,28411,1,0,0:0:0:0:
224,80,28940,5,0,0:0:0:0:
224,80,29117,1,0,0:0:0:0:
56,200,29823,6,0,L|112:256,1,75.000000298023
168,192,30175,2,0,L|224:248,1,75.000000298023
288,192,30528,2,0,L|352:248,1,75.000000298023
424,192,30881,1,0,0:0:0:0:
360,96,31058,1,0,0:0:0:0:
360,96,31146,1,0,0:0:0:0:
360,96,31234,6,0,L|272:96,1,75.000000298023
177,94,31587,1,0,0:0:0:0:
254,187,31764,1,0,0:0:0:0:
130,193,31940,2,0,L|167:273,1,75.000000298023
277,278,32293,1,0,0:0:0:0:
160,264,32470,1,0,0:0:0:0:
232,176,32646,2,0,L|376:112,1,150.000000596046
472,184,33175,2,0,L|336:256,1,150.000000596046
250,195,33705,5,0,0:0:0:0:
246,305,33881,1,0,0:0:0:0:
151,245,34058,2,0,L|96:192,1,75.000000298023
138,102,34411,1,0,0:0:0:0:
237,158,34587,1,0,0:0:0:0:
258,49,34764,2,0,L|362:50,1,75.000000298023
419,108,35117,5,0,0:0:0:0:
452,204,35293,1,0,0:0:0:0:
402,296,35470,2,0,L|332:247,1,75.000000298023
303,137,35823,2,0,L|391:189,1,75.000000298023
247,227,36175,2,0,L|176:184,1,75.000000298023
152,88,36528,1,0,0:0:0:0:
80,186,36705,1,0,0:0:0:0:
80,186,36793,1,0,0:0:0:0:
80,186,36881,6,0,L|136:248,1,75.000000298023
247,227,37234,1,0,0:0:0:0:
265,118,37411,2,0,P|346:169|356:232,1,150.000000596046
346,309,37940,2,0,P|300:288|276:240,1,75.000000298023
361,218,38293,2,0,P|420:172|405:84,1,150.000000596046
328,133,38822,5,0,0:0:0:0:
226,181,38999,1,0,0:0:0:0:
234,73,39175,1,0,0:0:0:0:
317,232,39352,1,0,0:0:0:0:
312,58,39528,1,0,0:0:0:0:
234,73,39705,6,0,P|207:149|205:295,1,225.000000894069
275,348,40411,2,0,P|304:232|304:112,1,225.000000894069
288,40,41117,2,0,P|224:64|208:80,1,75.000000298023
166,153,41470,1,0,0:0:0:0:
272,136,41646,1,0,0:0:0:0:
288,40,41822,2,0,P|336:72|360:104,1,75.000000298023
368,186,42175,1,0,0:0:0:0:
279,238,42352,1,0,0:0:0:0:
375,290,42528,6,0,P|349:326|232:336,1,150.000000596046
279,238,43058,1,0,0:0:0:0:
384,181,43234,2,0,P|441:194|483:214,1,89.9999976110456
394,288,43587,2,0,P|336:266|302:243,1,89.9999976110456
282,161,43940,1,0,0:0:0:0:
360,88,44117,2,0,P|288:56|232:72,1,112.500000447034
224,72,44470,2,0,P|168:136|176:208,1,150.000000596046
208,304,44999,2,0,P|144:296|112:272,1,75.000000298023
