osu file format v14

[General]
AudioFilename: audio.mp3
AudioLeadIn: 0
PreviewTime: 189128
Countdown: 0
SampleSet: Soft
StackLeniency: 0.7
Mode: 0
LetterboxInBreaks: 0
WidescreenStoryboard: 0

[Editor]
Bookmarks: 26511,26688,97629,97982,98511,98688
DistanceSpacing: 1
BeatDivisor: 4
GridSize: 32
TimelineZoom: 1.5

[Metadata]
Title:Sakurairo Time Capsule
TitleUnicode:Sakurairo Time Capsule
Artist:*namirin
ArtistUnicode:*namirin
Creator:Viery
Version:Confession
Source:
Tags:vocaloid gumi ケビョウニンゲン kebyou ningen colored utaite nami 歌ってみた
BeatmapID:2123946
BeatmapSetID:1014884

[Difficulty]
HPDrainRate:5
CircleSize:4
OverallDifficulty:8.7
ApproachRate:9.3
SliderMultiplier:1.4
SliderTickRate:1

[Events]
//Background and Video events
0,0,"sakura (2).png",0,0
//Break Periods
2,189505,200045
//Storyboard Layer 0 (Background)
//Storyboard Layer 1 (Fail)
//Storyboard Layer 2 (Pass)
//Storyboard Layer 3 (Foreground)
//Storyboard Sound Samples

[TimingPoints]
1541,352.941176470588,4,2,1,40,1,0
1541,-133.333333333333,4,2,1,40,0,0
10011,-100,4,2,1,60,0,0
15305,-93.4579439252336,4,2,1,60,0,0
15658,-86.9565217391304,4,2,1,70,0,0
27482,-86.9565217391304,4,2,1,40,0,0
29776,-114.942528735632,4,2,1,70,0,0
31188,-100,4,2,1,70,0,0
40717,-80,4,2,1,70,0,0
41070,-100,4,2,1,70,0,0
53776,-114.942528735632,4,2,1,70,0,0
61540,-149.253731343284,4,2,1,70,0,0
63656,-100,4,2,1,70,0,0
64540,-133.333333333333,4,2,1,40,0,0
65070,-80,4,2,1,70,0,1
82011,-80,4,2,1,70,0,0
84129,-149.253731343284,4,2,1,70,0,0
84835,-80,4,2,1,70,0,0
101070,-114.942528735632,4,2,1,70,0,0
101776,-100,4,2,1,70,0,0
109540,340.909090909091,4,2,1,70,1,0
110221,353.460972017673,4,2,1,70,1,0
110574,357.142857142857,4,2,1,70,1,0
111658,352.941176470588,4,2,1,70,1,0
121540,-114.942528735632,4,2,1,70,0,0
129305,-149.253731343284,4,2,1,70,0,0
131775,-100,4,2,1,70,0,0
132834,-80,4,2,1,70,0,1
149775,-80,4,2,1,70,0,0
151893,-149.253731343284,4,2,1,70,0,0
152599,-80,4,2,1,70,0,0
156834,-200,4,2,1,70,0,0
165305,-149.253731343284,4,2,1,70,0,0
166716,-133.333333333333,4,2,1,70,0,0
172363,-200,4,2,1,70,0,0
175187,-100,4,2,1,70,0,0
178010,-89.2857142857143,4,2,1,70,0,0
186128,-80,4,2,1,70,0,0
200599,-133.333333333333,4,2,1,70,0,0
206246,368.098159509202,4,2,1,70,1,0
206982,342.857142857143,4,2,1,70,1,0
207667,375,4,2,1,70,1,0
208417,331.491712707182,4,2,1,70,1,0
210128,352.941176470588,4,2,1,70,1,0
210480,352.941176470588,4,2,1,70,1,0
211185,-149.253731343284,4,2,1,70,0,0
211891,-100,4,2,1,70,0,0
213303,-80,4,2,1,70,0,0
216127,-100,4,2,1,70,0,0
217009,-133.333333333333,4,2,1,70,0,0
217538,-74.0740740740741,4,2,1,70,0,1
234480,-74.0740740740741,4,2,1,70,0,0
236597,-149.253731343284,4,2,1,70,0,0
237303,-100,4,2,1,70,0,0
239774,-133.333333333333,4,2,1,70,0,0
241185,-100,4,2,1,70,0,0
241538,-89.2857142857143,4,2,1,70,0,0
254950,-149.253731343284,4,2,1,70,0,0
255656,-100,4,2,1,70,0,0
258127,-149.253731343284,4,2,1,70,0,0
268362,-149.253731343284,4,2,1,20,0,0

[Colours]
Combo1 : 247,185,130
Combo2 : 250,148,222
Combo3 : 244,140,142
Combo4 : 239,242,128

[HitObjects]
203,319,1541,5,0,0:0:0:0:
19,242,1893,1,0,0:0:0:0:
192,231,2246,2,0,B|281:224|255:289|337:286,1,157.500006008148
332,286,2952,6,0,P|328:247|330:225,1,52.5000020027161
425,176,3305,1,0,0:0:0:0:
425,176,3482,2,0,P|429:215|427:237,1,52.5000020027161
439,347,3835,2,0,P|476:341|497:336,2,52.5000020027161
327,203,4364,6,0,P|332:135|368:95,1,105.000004005432
130,38,5070,2,0,P|156:82|155:134,1,105.000004005432
88,293,5776,2,0,P|136:284|205:284,1,105.000004005432
286,291,6305,1,0,0:0:0:0:
286,291,6482,1,0,0:0:0:0:
366,67,7188,6,0,P|357:115|357:184,1,105.000004005432
435,259,7717,1,0,0:0:0:0:
435,259,7893,2,0,P|391:275|325:261,1,105.000004005432
334,266,8423,1,0,0:0:0:0:
239,299,8599,2,0,P|248:251|248:182,1,105.000004005432
272,88,9129,2,0,P|232:82|208:88,1,52.5000020027161
94,164,9482,2,0,P|134:170|158:164,1,52.5000020027161
243,168,9835,1,0,0:0:0:0:
28,93,10011,6,0,B|5:132|5:132|14:246,1,140
63,315,10540,1,0,0:0:0:0:
140,228,10717,2,0,P|133:188|131:155,1,70
63,315,11070,2,0,P|60:349|54:384,1,70
227,305,11423,6,0,P|267:298|300:296,1,70
140,228,11776,2,0,P|105:225|70:219,1,70
276,181,12129,2,0,P|310:178|345:172,1,70
128,115,12482,1,0,0:0:0:0:
253,19,12658,1,0,0:0:0:0:
253,19,12746,1,0,0:0:0:0:
253,19,12835,6,0,P|252:62|258:99,1,70
406,204,13188,2,0,P|369:181|334:168,1,70
169,244,13540,2,0,P|206:223|235:199,1,70
141,82,13893,1,0,0:0:0:0:
263,126,14070,1,0,0:0:0:0:
189,7,14246,5,0,0:0:0:0:
73,158,14423,1,0,0:0:0:0:
265,92,14599,5,0,0:0:0:0:
205,277,14776,1,0,0:0:0:0:
369,68,14952,5,0,0:0:0:0:
382,296,15129,1,0,0:0:0:0:
264,191,15305,6,0,P|285:199|302:203,1,37.4499988571167
486,176,15482,2,0,P|466:187|450:194,1,37.4499988571167
161,67,15658,6,0,P|108:70|49:154,1,161.000003070831
185,351,16188,1,0,0:0:0:0:
232,216,16364,2,0,P|225:165|223:130,1,80.5000015354157
42,268,16717,2,0,P|39:308|33:347,1,80.5000015354157
253,203,17070,6,0,B|341:191|302:138|395:135,1,161.000003070831
333,276,17599,1,0,0:0:0:0:
244,112,17776,2,0,P|200:112|160:121,1,80.5000015354157
246,231,18129,1,0,0:0:0:0:
353,50,18305,1,0,0:0:0:0:
353,50,18393,1,0,0:0:0:0:
353,50,18482,6,0,P|406:43|480:112,1,161.000003070831
333,276,19011,1,0,0:0:0:0:
253,89,19188,1,0,0:0:0:0:
430,178,19364,1,0,0:0:0:0:
226,320,19540,2,0,P|228:273|225:235,1,80.5000015354157
114,29,19893,6,0,P|112:76|115:114,1,80.5000015354157
120,277,20246,1,0,0:0:0:0:
267,70,20423,1,0,0:0:0:0:
21,164,20599,1,0,0:0:0:0:
260,238,20776,1,0,0:0:0:0:
114,29,20952,2,0,P|116:76|113:114,1,80.5000015354157
44,152,21217,1,0,0:0:0:0:
44,152,21305,6,0,P|101:134|202:159,1,161.000003070831
234,302,21835,1,0,0:0:0:0:
329,148,22011,2,0,P|327:105|331:65,1,80.5000015354157
402,257,22364,1,0,0:0:0:0:
218,176,22540,1,0,0:0:0:0:
480,117,22717,6,0,P|498:171|501:277,1,161.000003070831
268,287,23246,1,0,0:0:0:0:
319,168,23423,2,0,P|368:159|403:161,1,80.5000015354157
352,337,23776,1,0,0:0:0:0:
235,115,23952,1,0,0:0:0:0:
62,321,24129,6,0,P|74:224|127:204,1,161.000003070831
295,185,24658,1,0,0:0:0:0:
138,364,24835,2,0,P|136:306|133:277,1,80.5000015354157
64,125,25188,1,0,0:0:0:0:
33,318,25364,1,0,0:0:0:0:
215,137,25540,5,0,0:0:0:0:
25,213,25717,1,0,0:0:0:0:
232,277,25893,2,0,P|283:284|326:278,1,80.5000015354157
450,212,26246,1,0,0:0:0:0:
314,80,26423,1,0,0:0:0:0:
311,113,26511,1,0,0:0:0:0:
308,146,26599,2,0,L|302:207,1,40.2500007677078
232,277,26776,1,0,0:0:0:0:
169,76,26952,5,0,0:0:0:0:
151,285,27482,5,0,0:0:0:0:
151,285,27658,1,0,0:0:0:0:
360,303,28188,5,0,0:0:0:0:
360,303,28364,1,0,0:0:0:0:
378,94,28894,5,0,0:0:0:0:
378,94,29070,1,0,0:0:0:0:
376,154,29776,6,0,P|378:110|377:84,1,60.9000005110931
204,203,30129,2,0,P|203:172|205:142,1,60.9000005110931
321,284,30482,2,0,P|323:240|322:214,1,60.9000005110931
207,123,30835,2,0,P|171:113|116:123,1,91.3500007666397
79,183,31188,6,0,P|77:136|68:102,1,70
184,214,31540,2,0,P|177:248|176:283,1,70
244,369,31893,1,0,0:0:0:0:
345,265,32070,1,0,0:0:0:0:
345,265,32246,2,0,P|300:265|261:269,1,70
176,283,32599,5,0,0:0:0:0:
357,175,32776,2,0,P|397:186|426:212,1,70
275,267,33129,2,0,P|272:200|276:120,1,140
375,75,33658,1,0,0:0:0:0:
207,49,33835,1,0,0:0:0:0:
374,166,34011,2,0,P|421:156|465:77,1,140
294,40,34540,1,0,0:0:0:0:
294,40,34717,2,0,P|287:94|286:117,1,70
284,276,35070,2,0,P|291:222|292:199,1,70
339,366,35423,5,0,0:0:0:0:
384,203,35599,2,0,P|378:171|354:136,1,70
414,301,35952,2,0,P|448:275|465:243,1,70
291,206,36305,1,0,0:0:0:0:
184,350,36482,2,0,P|187:297|195:245,1,105
217,173,36835,6,0,P|216:130|212:96,1,70
17,119,37188,2,0,P|73:125|106:120,1,70
183,20,37540,2,0,P|127:14|94:19,1,70
151,223,37893,1,0,0:0:0:0:
134,111,38070,1,0,0:0:0:0:
62,323,38246,6,0,B|150:342|125:291|207:310,1,140
363,243,38776,1,0,0:0:0:0:
273,358,38952,1,0,0:0:0:0:
232,207,39129,1,0,0:0:0:0:
387,324,39305,1,0,0:0:0:0:
197,308,39482,1,0,0:0:0:0:
375,219,39658,6,0,P|383:183|327:103,1,140
189,38,40188,1,0,0:0:0:0:
189,38,40364,2,0,P|198:81|202:114,1,70
40,230,40717,6,0,B|87:223|87:223|126:231,1,87.5
277,276,41070,5,0,0:0:0:0:
124,148,41246,1,0,0:0:0:0:
340,125,41423,1,0,0:0:0:0:
181,310,41599,1,0,0:0:0:0:
239,65,41776,2,0,P|248:95|255:172,1,105
249,254,42129,1,0,0:0:0:0:
277,276,42217,1,0,0:0:0:0:
310,285,42305,1,0,0:0:0:0:
344,281,42393,1,0,0:0:0:0:
375,263,42482,6,0,P|372:214|383:121,1,140
468,232,43011,1,0,0:0:0:0:
284,180,43188,1,0,0:0:0:0:
443,63,43364,2,0,P|466:113|467:144,1,70
238,61,43717,1,0,0:0:0:0:
382,123,43893,5,0,0:0:0:0:
165,131,44070,2,0,P|123:138|88:134,1,70
238,61,44423,2,0,P|261:104|242:199,1,140
105,276,44952,1,0,0:0:0:0:
165,131,45129,1,0,0:0:0:0:
253,323,45305,6,0,B|330:328|312:272|385:270,1,140
451,380,45835,1,0,0:0:0:0:
263,234,46011,2,0,P|256:189|259:158,1,70
130,43,46364,2,0,P|137:88|134:119,1,70
58,200,46717,5,0,0:0:0:0:
252,64,46893,2,0,P|297:62|337:63,1,70
187,166,47246,2,0,P|232:164|272:165,1,70
335,250,47599,1,0,0:0:0:0:
101,221,47776,2,0,P|87:175|99:115,1,105
156,66,48129,6,0,P|201:68|241:67,1,70
371,44,48482,1,0,0:0:0:0:
257,234,48658,1,0,0:0:0:0:
257,234,48835,2,0,P|256:185|257:153,1,70
156,66,49188,1,0,0:0:0:0:
354,247,49364,1,0,0:0:0:0:
94,199,49540,6,0,B|106:121|56:148|63:61,1,140
200,230,50070,1,0,0:0:0:0:
11,183,50246,1,0,0:0:0:0:
242,78,50423,1,0,0:0:0:0:
119,282,50599,1,0,0:0:0:0:
62,66,50776,1,0,0:0:0:0:
200,230,50952,6,0,P|255:261|329:239,1,140
468,190,51482,1,0,0:0:0:0:
286,27,51658,2,0,P|270:79|267:173,1,140
330,332,52188,1,0,0:0:0:0:
190,203,52364,5,0,0:0:0:0:
415,282,52540,1,0,0:0:0:0:
191,350,52717,2,0,P|196:303|195:270,1,70
190,203,52982,1,0,0:0:0:0:
190,203,53070,1,0,0:0:0:0:
298,108,53246,1,0,0:0:0:0:
418,155,53423,1,0,0:0:0:0:
427,255,53599,1,0,0:0:0:0:
415,282,53776,6,0,B|348:267|361:309|281:289,1,121.800001022186
295,292,54305,1,0,0:0:0:0:
180,133,54482,2,0,P|190:170|189:253,1,121.800001022186
189,252,55011,1,0,0:0:0:0:
91,215,55188,1,0,0:0:0:0:
311,200,55364,1,0,0:0:0:0:
311,200,55717,5,0,0:0:0:0:
282,354,55893,1,0,0:0:0:0:
426,252,56070,1,0,0:0:0:0:
391,127,56246,1,0,0:0:0:0:
294,101,56423,1,0,0:0:0:0:
257,118,56599,6,0,P|206:136|135:111,1,121.800001022186
379,43,57129,1,0,0:0:0:0:
379,43,57217,1,0,0:0:0:0:
379,43,57305,2,0,P|391:91|391:182,1,121.800001022186
393,163,57835,1,0,0:0:0:0:
257,118,58011,1,0,0:0:0:0:
304,297,58188,2,0,P|309:257|309:226,1,60.9000005110931
257,118,58540,1,0,0:0:0:0:
99,332,58717,6,0,P|86:294|86:248,1,81.2000006814575
187,226,59070,1,0,0:0:0:0:
224,266,59188,1,0,0:0:0:0:
205,316,59305,1,0,0:0:0:0:
171,275,59423,5,0,0:0:0:0:
391,283,60129,1,0,0:0:0:0:
287,80,60835,1,0,0:0:0:0:
287,221,61540,6,0,L|287:77,1,140.699993344574
287,80,62246,5,0,0:0:0:0:
364,208,62423,1,0,0:0:0:0:
190,163,62599,5,0,0:0:0:0:
416,93,62776,1,0,0:0:0:0:
263,312,62952,5,0,0:0:0:0:
141,61,63129,1,0,0:0:0:0:
461,192,63305,5,0,0:0:0:0:
136,328,63482,1,0,0:0:0:0:
343,38,63658,6,0,P|406:53|305:93,1,280
167,44,64540,2,0,P|112:41|67:45,1,78.7500030040742
88,42,64893,1,0,0:0:0:0:
307,107,65070,6,0,P|356:149|424:102,1,131.25
435,55,65423,1,0,0:0:0:0:
388,234,65599,2,0,P|381:286|385:331,1,87.5
210,198,65952,2,0,P|217:146|213:101,1,87.5
76,233,66305,1,0,0:0:0:0:
236,286,66482,5,0,0:0:0:0:
111,149,66658,1,0,0:0:0:0:
301,180,66835,1,0,0:0:0:0:
84,324,67011,1,0,0:0:0:0:
283,355,67188,2,0,P|331:346|360:321,1,87.5
399,139,67540,1,0,0:0:0:0:
287,260,67717,1,0,0:0:0:0:
185,69,67893,6,0,P|145:24|68:23,1,131.25
21,68,68246,1,0,0:0:0:0:
272,74,68423,2,0,P|320:77|364:69,1,87.5
216,183,68776,1,0,0:0:0:0:
392,145,68952,1,0,0:0:0:0:
185,69,69129,1,0,0:0:0:0:
316,272,69305,6,0,P|312:221|314:180,1,87.5
358,70,69658,1,0,0:0:0:0:
486,254,69835,2,0,P|444:262|399:255,1,87.5
234,182,70188,1,0,0:0:0:0:
422,134,70364,1,0,0:0:0:0:
206,295,70540,1,0,0:0:0:0:
206,295,70629,1,0,0:0:0:0:
206,295,70717,5,0,0:0:0:0:
358,185,70893,1,0,0:0:0:0:
137,349,71070,2,0,L|208:292,1,87.5
358,185,71423,1,0,0:0:0:0:
182,152,71599,1,0,0:0:0:0:
312,355,71776,1,0,0:0:0:0:
254,101,71952,1,0,0:0:0:0:
254,101,72040,1,0,0:0:0:0:
254,101,72129,5,0,0:0:0:0:
296,269,72305,1,0,0:0:0:0:
235,15,72482,2,0,L|256:111,1,87.5
296,269,72835,1,0,0:0:0:0:
145,157,73011,1,0,0:0:0:0:
398,113,73188,1,0,0:0:0:0:
305,378,73364,1,0,0:0:0:0:
253,185,73540,6,0,P|259:118|284:56,1,131.25
339,12,73893,1,0,0:0:0:0:
369,195,74070,1,0,0:0:0:0:
243,80,74246,1,0,0:0:0:0:
436,102,74423,1,0,0:0:0:0:
253,185,74599,2,0,P|200:190|143:183,1,87.5
360,129,74952,5,0,0:0:0:0:
364,161,75040,1,0,0:0:0:0:
369,195,75129,2,0,L|375:242,1,43.75
332,325,75305,1,0,0:0:0:0:
217,101,75482,6,0,L|223:53,1,43.75
198,123,75835,2,0,L|207:30,2,87.5
183,286,76364,5,0,0:0:0:0:
253,187,76540,1,0,0:0:0:0:
111,203,76717,1,0,0:0:0:0:
273,274,76893,1,0,0:0:0:0:
110,89,77070,5,0,0:0:0:0:
99,287,77246,1,0,0:0:0:0:
292,135,77423,1,0,0:0:0:0:
278,354,77599,1,0,0:0:0:0:
145,172,77776,5,0,0:0:0:0:
382,236,77952,1,0,0:0:0:0:
179,254,78129,1,0,0:0:0:0:
329,125,78305,1,0,0:0:0:0:
114,90,78482,2,0,P|65:86|21:96,1,87.5
236,194,78835,1,0,0:0:0:0:
192,51,79011,1,0,0:0:0:0:
130,317,79188,6,0,P|182:300|285:317,1,131.25
321,354,79540,1,0,0:0:0:0:
255,210,79717,2,0,P|249:164|253:119,1,87.5
336,257,80070,1,0,0:0:0:0:
148,183,80246,1,0,0:0:0:0:
344,144,80423,1,0,0:0:0:0:
251,303,80599,5,0,0:0:0:0:
251,303,80688,1,0,0:0:0:0:
251,303,80776,1,0,0:0:0:0:
231,76,80952,2,0,P|232:132|236:173,1,87.5
332,47,81305,5,0,0:0:0:0:
144,151,81482,1,0,0:0:0:0:
148,183,81570,1,0,0:0:0:0:
153,217,81659,2,0,L|159:264,1,43.75
251,303,81835,1,0,0:0:0:0:
231,76,82011,5,0,0:0:0:0:
231,76,82717,5,0,0:0:0:0:
267,150,82982,1,0,0:0:0:0:
219,216,83246,1,0,0:0:0:0:
231,76,83423,5,0,0:0:0:0:
231,76,83952,1,0,0:0:0:0:
231,76,84040,1,0,0:0:0:0:
231,76,84129,6,0,L|219:225,1,140.699993344574
442,347,84835,6,0,P|430:281|424:217,1,131.25
442,137,85188,5,0,0:0:0:0:
323,294,85364,1,0,0:0:0:0:
507,242,85540,5,0,0:0:0:0:
346,44,85717,1,0,0:0:0:0:
199,317,85893,5,0,0:0:0:0:
424,217,86070,1,0,0:0:0:0:
93,56,86246,5,0,0:0:0:0:
122,366,86423,1,0,0:0:0:0:
122,366,86599,2,0,L|115:274,1,87.5
250,148,86952,2,0,L|243:240,1,87.5
340,114,87305,1,0,0:0:0:0:
325,84,87393,1,0,0:0:0:0:
302,61,87481,1,0,0:0:0:0:
272,48,87569,1,0,0:0:0:0:
239,47,87658,6,0,B|136:45|177:114|82:108,1,175
133,306,88188,1,0,0:0:0:0:
260,234,88364,2,0,P|257:180|247:140,1,87.5
41,213,88717,2,0,P|31:255|30:299,1,87.5
319,355,89070,6,0,P|374:342|393:227,1,175
236,137,89599,1,0,0:0:0:0:
216,318,89776,2,0,P|157:336|126:335,1,87.5
123,178,90129,1,0,0:0:0:0:
324,269,90305,1,0,0:0:0:0:
324,269,90393,1,0,0:0:0:0:
324,269,90482,6,0,B|365:182|299:176|326:94,1,175
435,212,91011,1,0,0:0:0:0:
232,118,91188,1,0,0:0:0:0:
431,59,91364,1,0,0:0:0:0:
249,221,91540,2,0,P|196:225|156:219,1,87.5
327,50,91893,6,0,P|335:106|337:142,1,87.5
343,278,92246,1,0,0:0:0:0:
440,87,92423,1,0,0:0:0:0:
232,118,92599,1,0,0:0:0:0:
466,232,92776,1,0,0:0:0:0:
327,50,92952,2,0,P|330:93|336:136,1,87.5
402,182,93217,1,0,0:0:0:0:
402,182,93305,6,0,P|351:159|240:194,1,175
196,340,93835,1,0,0:0:0:0:
87,214,94011,2,0,P|34:213|-5:222,1,87.5
104,350,94364,1,0,0:0:0:0:
162,147,94540,1,0,0:0:0:0:
307,290,94717,6,0,B|405:297|374:228|469:227,1,175
429,366,95246,1,0,0:0:0:0:
321,197,95423,2,0,P|315:145|319:103,1,87.5
461,201,95776,1,0,0:0:0:0:
270,289,95952,1,0,0:0:0:0:
240,62,96129,6,0,P|180:46|97:118,1,175
85,261,96658,1,0,0:0:0:0:
281,149,96835,2,0,P|230:139|190:136,1,87.5
234,310,97188,1,0,0:0:0:0:
385,186,97364,1,0,0:0:0:0:
194,136,97540,5,0,0:0:0:0:
194,136,97629,1,0,0:0:0:0:
194,136,97717,1,0,0:0:0:0:
365,305,97893,1,0,0:0:0:0:
365,305,97982,1,0,0:0:0:0:
365,305,98070,1,0,0:0:0:0:
173,236,98246,5,0,0:0:0:0:
381,100,98423,1,0,0:0:0:0:
384,133,98511,1,0,0:0:0:0:
387,166,98599,2,0,L|392:218,1,43.75
365,305,98776,1,0,0:0:0:0:
185,114,98952,5,0,0:0:0:0:
340,317,100364,1,0,0:0:0:0:
278,94,100893,6,0,B|283:116|283:116|280:150,1,43.75
185,214,101070,6,0,P|226:211|268:218,1,81.2000006814575
368,189,101423,2,0,P|396:189|414:186,2,40.6000003407288
248,7,101776,6,0,P|212:29|189:120,1,140
265,217,102305,1,0,0:0:0:0:
376,101,102482,2,0,P|420:95|446:99,1,70
265,217,102835,2,0,P|230:220|195:214,1,70
46,180,103188,5,0,0:0:0:0:
188,48,103364,2,0,P|187:91|189:122,1,70
80,18,103717,2,0,P|79:61|81:92,1,70
107,246,104070,1,0,0:0:0:0:
288,119,104246,2,0,P|239:104|180:123,1,105
197,195,104599,6,0,P|198:238|196:269,1,70
80,337,104952,2,0,P|37:329|1:333,1,70
226,350,105305,2,0,P|260:351|294:343,1,70
442,277,105658,1,0,0:0:0:0:
248,257,105835,1,0,0:0:0:0:
405,84,106011,6,0,P|455:98|484:174,1,140
285,117,106540,1,0,0:0:0:0:
444,2,106717,1,0,0:0:0:0:
399,166,106893,1,0,0:0:0:0:
312,1,107070,1,0,0:0:0:0:
497,101,107246,1,0,0:0:0:0:
282,209,107423,6,0,B|202:212|235:155|135:156,1,140
0,223,107952,1,0,0:0:0:0:
153,321,108129,2,0,P|160:278|160:239,1,70
54,76,108482,2,0,P|55:110|61:145,1,70
282,101,108835,6,0,P|331:88|362:85,1,70
429,86,109099,1,0,0:0:0:0:
448,114,109187,1,0,0:0:0:0:
457,148,109275,1,0,0:0:0:0:
455,183,109363,1,0,0:0:0:0:
442,215,109451,1,0,0:0:0:0:
419,241,109540,6,0,P|387:241|370:243,1,46.6666666666667
288,338,109767,1,0,0:0:0:0:
288,338,109880,2,0,P|301:318|311:297,1,46.6666666666667
294,215,110108,1,0,0:0:0:0:
224,270,110221,6,0,B|155:248|164:292|83:274,1,140
86,71,110752,1,0,0:0:0:0:
215,181,110931,1,0,0:0:0:0:
17,215,111109,1,0,0:0:0:0:
191,74,111288,1,0,0:0:0:0:
138,274,111466,1,0,0:0:0:0:
0,122,111645,5,0,0:0:0:0:
215,181,111834,2,0,P|254:187|291:179,1,70
439,86,112187,2,0,P|419:46|330:31,1,140
406,259,112716,1,0,0:0:0:0:
365,107,112893,1,0,0:0:0:0:
256,283,113069,6,0,B|186:289|194:239|123:243,1,140
0,155,113599,1,0,0:0:0:0:
229,120,113775,2,0,P|239:168|240:208,1,70
83,76,114128,2,0,P|86:41|94:7,1,70
148,163,114481,5,0,0:0:0:0:
274,39,114658,2,0,P|308:65|322:97,1,70
411,82,115010,2,0,P|405:124|384:152,1,70
231,203,115363,1,0,0:0:0:0:
356,327,115540,2,0,P|354:272|361:210,1,105
315,158,115893,6,0,P|320:108|318:77,1,70
83,55,116246,1,0,0:0:0:0:
161,210,116422,1,0,0:0:0:0:
161,210,116599,2,0,P|214:202|238:204,1,70
125,296,116952,1,0,0:0:0:0:
199,122,117128,1,0,0:0:0:0:
310,331,117305,6,0,P|317:285|320:192,1,140
119,135,117834,1,0,0:0:0:0:
239,261,118010,1,0,0:0:0:0:
297,102,118187,1,0,0:0:0:0:
138,231,118363,1,0,0:0:0:0:
319,191,118540,1,0,0:0:0:0:
156,54,118716,6,0,P|92:48|35:104,1,140
47,267,119246,1,0,0:0:0:0:
188,137,119422,2,0,P|136:133|109:136,1,70
240,250,119775,1,0,0:0:0:0:
289,89,119952,1,0,0:0:0:0:
138,231,120128,5,0,0:0:0:0:
366,231,120305,1,0,0:0:0:0:
198,66,120481,1,0,0:0:0:0:
234,286,120658,1,0,0:0:0:0:
383,67,120834,5,0,0:0:0:0:
261,170,121010,1,0,0:0:0:0:
366,231,121187,1,0,0:0:0:0:
310,300,121363,1,0,0:0:0:0:
336,322,121540,6,0,P|343:270|336:187,1,121.800001022186
338,201,122069,1,0,0:0:0:0:
196,276,122246,2,0,B|130:268|149:307|79:308,1,121.800001022186
81,307,122775,1,0,0:0:0:0:
113,203,122952,1,0,0:0:0:0:
249,355,123128,1,0,0:0:0:0:
249,355,123481,5,0,0:0:0:0:
27,225,123658,1,0,0:0:0:0:
175,123,123834,1,0,0:0:0:0:
259,229,124010,1,0,0:0:0:0:
324,161,124187,1,0,0:0:0:0:
352,186,124363,6,0,P|296:208|231:196,1,121.800001022186
236,198,124893,1,0,0:0:0:0:
401,107,125069,2,0,P|435:136|442:223,1,121.800001022186
447,209,125599,1,0,0:0:0:0:
348,293,125775,5,0,0:0:0:0:
271,45,125952,2,0,P|261:86|258:130,1,60.9000005110931
255,217,126305,1,0,0:0:0:0:
483,34,126481,2,0,P|493:75|497:131,1,81.2000006814575
377,151,126834,1,0,0:0:0:0:
353,106,126952,1,0,0:0:0:0:
378,62,127069,1,0,0:0:0:0:
401,107,127187,5,0,0:0:0:0:
181,99,127893,1,0,0:0:0:0:
285,302,128599,1,0,0:0:0:0:
285,161,129305,6,0,L|285:305,1,140.699993344574
285,301,130010,5,0,0:0:0:0:
377,172,130187,1,0,0:0:0:0:
202,151,130363,5,0,0:0:0:0:
382,302,130540,1,0,0:0:0:0:
291,71,130716,5,0,0:0:0:0:
161,304,130893,1,0,0:0:0:0:
445,227,131069,5,0,0:0:0:0:
148,62,131246,1,0,0:0:0:0:
286,333,131422,5,0,0:0:0:0:
339,169,131599,1,0,0:0:0:0:
161,304,131775,2,0,P|120:307|58:267,1,105
45,202,132128,5,0,0:0:0:0:
242,96,132305,1,0,0:0:0:0:
262,124,132393,1,0,0:0:0:0:
267,158,132481,1,0,0:0:0:0:
255,190,132569,1,0,0:0:0:0:
243,222,132657,1,0,0:0:0:0:
246,257,132745,1,0,0:0:0:0:
265,286,132834,6,0,P|274:234|202:163,1,131.25
167,217,133187,1,0,0:0:0:0:
224,360,133363,2,0,P|274:365|312:361,1,87.5
442,183,133716,2,0,P|398:179|355:184,1,87.5
442,292,134069,1,0,0:0:0:0:
485,98,134246,5,0,0:0:0:0:
353,264,134422,1,0,0:0:0:0:
305,71,134599,1,0,0:0:0:0:
442,183,134775,1,0,0:0:0:0:
458,0,134952,2,0,P|404:-5|366:3,1,87.5
190,78,135305,1,0,0:0:0:0:
403,108,135481,1,0,0:0:0:0:
158,241,135658,6,0,P|107:226|79:137,1,131.25
89,86,136010,1,0,0:0:0:0:
249,228,136187,2,0,P|249:282|253:321,1,87.5
78,335,136540,1,0,0:0:0:0:
164,158,136716,1,0,0:0:0:0:
252,315,136893,1,0,0:0:0:0:
73,205,137069,6,0,P|76:161|76:117,1,87.5
175,2,137422,1,0,0:0:0:0:
253,189,137599,2,0,P|298:198|339:191,1,87.5
431,47,137952,1,0,0:0:0:0:
243,53,138128,1,0,0:0:0:0:
408,241,138305,1,0,0:0:0:0:
408,241,138393,1,0,0:0:0:0:
408,241,138481,5,0,0:0:0:0:
298,117,138657,1,0,0:0:0:0:
466,306,138834,2,0,L|400:232,1,87.5
298,117,139187,1,0,0:0:0:0:
485,162,139363,1,0,0:0:0:0:
269,329,139540,1,0,0:0:0:0:
382,101,139716,1,0,0:0:0:0:
382,101,139805,1,0,0:0:0:0:
382,101,139893,5,0,0:0:0:0:
306,250,140069,1,0,0:0:0:0:
418,21,140246,2,0,L|379:105,1,87.5
306,250,140599,1,0,0:0:0:0:
485,162,140775,1,0,0:0:0:0:
268,122,140952,1,0,0:0:0:0:
351,343,141128,1,0,0:0:0:0:
376,124,141305,6,0,P|364:63|300:16,1,131.25
237,26,141657,1,0,0:0:0:0:
327,217,141834,2,0,P|373:220|416:216,1,87.5
172,150,142187,1,0,0:0:0:0:
236,295,142363,1,0,0:0:0:0:
268,122,142540,1,0,0:0:0:0:
98,313,142716,5,0,0:0:0:0:
130,309,142804,1,0,0:0:0:0:
164,304,142893,2,0,L|211:298,1,43.75
300,236,143069,1,0,0:0:0:0:
91,139,143246,6,0,L|43:133,1,43.75
106,179,143599,2,0,L|6:170,1,87.5
226,191,143952,1,0,0:0:0:0:
226,191,144040,1,0,0:0:0:0:
226,191,144128,5,0,0:0:0:0:
177,86,144305,1,0,0:0:0:0:
153,272,144481,1,0,0:0:0:0:
328,209,144657,1,0,0:0:0:0:
92,97,144834,5,0,0:0:0:0:
142,309,145010,1,0,0:0:0:0:
300,81,145187,1,0,0:0:0:0:
269,292,145363,1,0,0:0:0:0:
142,166,145540,5,0,0:0:0:0:
412,241,145716,1,0,0:0:0:0:
166,285,145893,1,0,0:0:0:0:
401,121,146069,1,0,0:0:0:0:
285,376,146246,2,0,P|271:333|269:281,1,87.5
300,118,146599,1,0,0:0:0:0:
368,325,146775,1,0,0:0:0:0:
491,123,146952,6,0,P|478:73|376:35,1,131.25
339,40,147305,1,0,0:0:0:0:
407,207,147481,2,0,P|400:152|401:110,1,87.5
261,257,147834,1,0,0:0:0:0:
449,287,148010,1,0,0:0:0:0:
281,119,148187,1,0,0:0:0:0:
267,343,148363,6,0,P|266:299|260:256,1,87.5
154,106,148716,1,0,0:0:0:0:
372,224,148893,1,0,0:0:0:0:
157,325,149069,5,0,0:0:0:0:
313,114,149246,1,0,0:0:0:0:
345,110,149334,1,0,0:0:0:0:
379,105,149423,2,0,L|426:99,1,43.75
500,162,149599,1,0,0:0:0:0:
272,209,149775,5,0,0:0:0:0:
272,209,150481,5,0,0:0:0:0:
236,283,150746,1,0,0:0:0:0:
284,349,151010,1,0,0:0:0:0:
272,209,151187,5,0,0:0:0:0:
272,209,151716,1,0,0:0:0:0:
272,209,151804,1,0,0:0:0:0:
272,209,151893,6,0,L|284:358,1,140.699993344574
94,238,152599,6,0,P|102:150|116:92,1,131.25
149,40,152952,5,0,0:0:0:0:
0,162,153128,1,0,0:0:0:0:
234,211,153305,5,0,0:0:0:0:
18,69,153481,1,0,0:0:0:0:
169,351,153657,5,0,0:0:0:0:
268,96,153834,1,0,0:0:0:0:
6,261,154010,5,0,0:0:0:0:
398,298,154187,1,0,0:0:0:0:
398,298,154363,2,0,L|303:289,1,87.5
455,224,154716,2,0,P|479:255|487:309,1,87.5
362,206,155069,2,0,P|376:169|419:135,1,87.5
398,298,155422,5,0,0:0:0:0:
398,298,156481,1,0,0:0:0:0:
224,168,156834,6,0,B|105:164|148:245|37:241,1,210
225,72,158246,2,0,P|280:89|320:161,1,140
223,307,159305,2,0,P|193:306|179:311,1,35
223,307,159657,6,0,P|277:276|211:168,1,210
363,278,161069,2,0,P|398:288|438:288,1,70
375,91,161775,2,0,P|374:129|377:174,1,70
216,230,162481,2,0,P|223:186|221:119,1,105
221,125,163187,2,0,P|185:92|122:84,1,105
142,165,163893,6,0,B|107:268|176:252|136:373,1,210
136,370,165128,1,0,0:0:0:0:
233,335,165305,6,0,P|283:326|325:334,1,93.7999955630495
421,307,165834,2,0,P|388:268|374:227,1,93.7999955630495
374,228,166363,2,0,P|376:202|373:172,1,46.8999977815248
277,92,166716,6,0,P|278:133|284:159,1,52.5000020027161
186,44,167069,2,0,P|185:85|179:111,1,52.5000020027161
102,139,167422,2,0,P|103:180|109:206,1,52.5000020027161
11,91,167775,2,0,P|10:132|4:158,1,52.5000020027161
78,288,168128,6,0,P|124:277|188:276,1,105.000004005432
375,171,168834,2,0,P|348:141|314:213,1,157.500006008148
394,306,169540,6,0,P|395:265|401:239,1,52.5000020027161
303,354,169893,2,0,P|302:313|296:287,1,52.5000020027161
219,259,170246,2,0,P|220:218|226:192,1,52.5000020027161
128,307,170599,2,0,P|127:266|121:240,1,52.5000020027161
187,100,170952,6,0,P|247:101|296:125,2,105.000004005432
89,309,172010,1,0,0:0:0:0:
89,309,172187,1,0,0:0:0:0:
89,309,172363,6,0,B|344:276|174:127|438:106,1,420.000016021729
379,230,174834,1,0,0:0:0:0:
379,230,175010,1,0,0:0:0:0:
234,54,175187,6,0,P|179:32|124:77,1,105
112,123,175540,1,0,0:0:0:0:
333,94,175716,2,0,P|379:84|446:89,1,105
512,104,176069,1,0,0:0:0:0:
401,245,176246,1,0,0:0:0:0:
401,245,176334,1,0,0:0:0:0:
401,245,176422,1,0,0:0:0:0:
238,152,176599,6,0,P|252:187|251:273,1,105
242,329,176952,1,0,0:0:0:0:
139,147,177128,2,0,P|160:93|207:66,1,105
276,70,177481,1,0,0:0:0:0:
165,242,177657,1,0,0:0:0:0:
130,246,177745,1,0,0:0:0:0:
96,238,177833,1,0,0:0:0:0:
68,218,177921,1,0,0:0:0:0:
49,189,178010,6,0,P|58:146|54:107,1,78.4000009570313
198,233,178363,2,0,P|195:271|203:310,1,78.4000009570313
412,167,178716,1,0,0:0:0:0:
253,160,178893,1,0,0:0:0:0:
325,289,179069,1,0,0:0:0:0:
404,83,179246,1,0,0:0:0:0:
198,233,179422,6,0,P|170:193|164:147,1,78.4000009570313
244,49,179775,1,0,0:0:0:0:
412,167,179952,2,0,P|363:162|320:163,1,78.4000009570313
495,276,180305,2,0,P|446:271|403:272,1,78.4000009570313
287,299,180657,1,0,0:0:0:0:
501,126,180834,6,0,P|476:88|441:72,1,78.4000009570313
241,183,181187,1,0,0:0:0:0:
412,167,181363,1,0,0:0:0:0:
228,18,181540,6,0,P|226:74|228:106,1,78.4000009570313
158,134,181805,2,0,P|207:107|234:90,1,78.4000009570313
146,46,182069,1,0,0:0:0:0:
246,268,182246,6,0,P|293:250|317:214,1,78.4000009570313
96,245,182599,1,0,0:0:0:0:
295,340,182775,1,0,0:0:0:0:
249,144,182952,6,0,P|241:172|238:191,1,39.2000004785156
195,380,183128,2,0,P|198:351|201:331,1,39.2000004785156
366,245,183305,2,0,P|337:237|318:234,1,39.2000004785156
96,245,183481,2,0,P|124:252|143:255,1,39.2000004785156
421,158,183657,6,0,P|451:192|459:274,1,117.600001435547
420,325,184010,1,0,0:0:0:0:
316,153,184187,2,0,P|330:110|397:62,1,117.600001435547
461,70,184540,1,0,0:0:0:0:
369,261,184716,2,0,P|366:238|365:218,1,39.2000004785156
258,38,184893,2,0,P|256:57|254:76,1,39.2000004785156
128,280,185069,6,0,P|139:226|148:151,1,117.600001435547
146,88,185422,1,0,0:0:0:0:
210,339,185599,2,0,P|221:291|225:256,1,78.4000009570313
233,190,185863,1,0,0:0:0:0:
268,173,185951,1,0,0:0:0:0:
307,169,186039,1,0,0:0:0:0:
345,178,186128,6,0,L|341:209,1,21.875
383,177,186216,2,0,L|387:201,1,21.875
415,155,186305,2,0,L|439:179,1,21.875
428,118,186393,2,0,L|457:121,1,21.875
390,54,186481,5,0,0:0:0:0:
215,97,186716,6,0,L|118:77,1,87.5
72,145,186952,2,0,L|135:72,1,87.5
112,5,187187,1,0,0:0:0:0:
312,235,187422,6,0,P|346:280|361:313,1,87.5
445,302,187657,2,0,P|400:299|357:306,1,87.5
401,216,187893,1,0,0:0:0:0:
256,192,188069,12,0,189305,0:0:0:0:
153,85,200599,6,0,P|165:127|170:211,1,105.000004005432
171,187,201128,1,0,0:0:0:0:
229,276,201305,2,0,B|328:274|282:224|374:215,1,157.500006008148
454,90,202010,5,0,0:0:0:0:
454,90,202187,2,0,P|400:82|363:135,1,105.000004005432
455,191,202716,2,0,P|469:232|458:351,1,157.500006008148
309,313,203422,6,0,P|275:299|204:294,1,105.000004005432
207,293,203952,1,0,0:0:0:0:
90,326,204128,2,0,B|96:241|134:266|142:179,1,157.500006008148
126,43,204834,5,0,0:0:0:0:
126,43,205010,2,0,P|84:49|44:104,1,105.000004005432
224,90,205540,6,0,P|278:83|307:84,1,70.0000026702882
383,47,205893,2,0,P|404:21|410:15,2,35.0000013351441
377,138,206246,5,0,0:0:0:0:
90,178,207667,1,0,0:0:0:0:
357,331,209079,1,0,0:0:0:0:
256,66,210480,1,0,0:0:0:0:
256,207,211185,6,0,L|256:47,1,140.699993344574
201,309,211891,6,0,P|251:287|308:308,1,105
258,360,212244,5,0,0:0:0:0:
149,198,212421,1,0,0:0:0:0:
421,243,212597,5,0,0:0:0:0:
121,357,212774,1,0,0:0:0:0:
256,77,212950,5,0,0:0:0:0:
347,372,213127,1,0,0:0:0:0:
20,162,213303,5,0,0:0:0:0:
385,48,213480,1,0,0:0:0:0:
385,48,213656,2,0,B|348:85|348:85|349:218,1,175
396,270,214097,1,0,0:0:0:0:
354,283,214185,1,0,0:0:0:0:
311,278,214273,1,0,0:0:0:0:
275,254,214362,5,0,0:0:0:0:
273,210,214450,1,0,0:0:0:0:
272,166,214538,1,0,0:0:0:0:
271,122,214626,1,0,0:0:0:0:
269,79,214715,5,0,0:0:0:0:
192,318,214891,1,0,0:0:0:0:
463,224,215068,2,0,P|414:190|334:218,1,131.25
216,304,215421,6,0,P|212:274|212:245,1,43.75
348,71,215597,2,0,P|352:101|352:130,1,43.75
341,355,215774,2,0,P|344:333|345:311,1,43.75
179,20,215950,2,0,P|175:41|174:63,1,43.75
43,306,216127,6,0,P|132:337|65:242,1,280
112,131,217009,2,0,P|117:82|113:36,1,78.7500030040742
115,52,217362,1,0,0:0:0:0:
43,306,217538,6,0,P|75:345|157:291,1,141.750000540733
131,243,217891,1,0,0:0:0:0:
314,184,218068,2,0,P|368:172|413:176,1,94.5000003604889
327,336,218421,2,0,P|273:348|228:344,1,94.5000003604889
234,127,218774,1,0,0:0:0:0:
399,270,218950,5,0,0:0:0:0:
417,67,219127,1,0,0:0:0:0:
256,258,219303,1,0,0:0:0:0:
216,11,219480,1,0,0:0:0:0:
476,159,219656,2,0,P|415:175|362:160,1,94.5000003604889
196,133,220009,1,0,0:0:0:0:
417,67,220185,1,0,0:0:0:0:
83,45,220362,6,0,P|104:99|113:182,1,141.750000540733
100,260,220715,1,0,0:0:0:0:
292,182,220891,2,0,P|340:170|385:170,1,94.5000003604889
181,328,221244,1,0,0:0:0:0:
110,125,221421,1,0,0:0:0:0:
304,266,221597,1,0,0:0:0:0:
270,20,221774,6,0,P|219:9|147:68,1,141.750000540733
110,125,222127,1,0,0:0:0:0:
343,93,222303,1,0,0:0:0:0:
55,59,222480,1,0,0:0:0:0:
173,263,222656,1,0,0:0:0:0:
173,263,222744,1,0,0:0:0:0:
173,263,222832,1,0,0:0:0:0:
343,93,223009,1,0,0:0:0:0:
343,93,223097,1,0,0:0:0:0:
343,93,223185,5,0,0:0:0:0:
233,199,223362,1,0,0:0:0:0:
391,16,223538,2,0,B|386:46|386:46|334:101,1,94.5000003604889
233,199,223891,1,0,0:0:0:0:
296,5,224068,1,0,0:0:0:0:
406,224,224244,1,0,0:0:0:0:
137,184,224421,1,0,0:0:0:0:
137,184,224509,1,0,0:0:0:0:
137,184,224597,5,0,0:0:0:0:
322,214,224774,1,0,0:0:0:0:
60,142,224950,2,0,B|83:174|83:174|158:187,1,94.5000003604889
322,214,225303,1,0,0:0:0:0:
140,86,225480,1,0,0:0:0:0:
225,325,225656,1,0,0:0:0:0:
324,97,225832,1,0,0:0:0:0:
60,142,226009,6,0,P|79:199|84:301,1,141.750000540733
60,353,226362,1,0,0:0:0:0:
204,220,226538,2,0,P|254:212|306:216,1,94.5000003604889
185,322,226891,1,0,0:0:0:0:
136,120,227068,1,0,0:0:0:0:
386,218,227244,1,0,0:0:0:0:
204,220,227421,5,0,0:0:0:0:
208,188,227509,1,0,0:0:0:0:
213,154,227598,2,0,L|219:107,1,43.75
295,25,227774,1,0,0:0:0:0:
322,275,227950,6,0,L|328:322,1,43.75
352,297,228303,1,0,0:0:0:0:
370,132,228480,1,0,0:0:0:0:
370,132,228568,1,0,0:0:0:0:
370,132,228656,6,0,P|324:152|301:188,1,94.5000003604889
447,265,229009,1,0,0:0:0:0:
428,249,229097,1,0,0:0:0:0:
415,237,229185,6,0,P|349:227|266:230,1,141.750000540733
201,276,229538,5,0,0:0:0:0:
459,162,229715,1,0,0:0:0:0:
86,153,229891,5,0,0:0:0:0:
415,237,230068,1,0,0:0:0:0:
176,52,230244,5,0,0:0:0:0:
210,315,230421,1,0,0:0:0:0:
382,50,230597,5,0,0:0:0:0:
321,343,230774,1,0,0:0:0:0:
87,244,230950,5,0,0:0:0:0:
351,183,231127,1,0,0:0:0:0:
44,119,231303,5,0,0:0:0:0:
430,208,231480,1,0,0:0:0:0:
128,351,231656,6,0,P|117:293|121:205,1,141.750000540733
141,130,232009,5,0,0:0:0:0:
274,304,232185,1,0,0:0:0:0:
213,47,232362,5,0,0:0:0:0:
284,328,232538,1,0,0:0:0:0:
336,22,232715,5,0,0:0:0:0:
293,355,232891,1,0,0:0:0:0:
477,99,233068,6,0,P|412:87|325:104,1,141.750000540733
269,124,233421,1,0,0:0:0:0:
307,319,233597,2,0,P|311:270|304:208,1,94.5000003604889
451,246,233950,6,0,P|352:241|450:191,1,283.500001081467
256,192,235185,5,0,0:0:0:0:
213,262,235450,1,0,0:0:0:0:
255,332,235714,1,0,0:0:0:0:
256,192,235891,5,0,0:0:0:0:
256,192,236420,1,0,0:0:0:0:
256,192,236508,1,0,0:0:0:0:
256,192,236597,6,0,L|256:352,1,140.699993344574
311,89,237303,6,0,P|261:111|204:90,1,105
254,38,237656,5,0,0:0:0:0:
379,230,237832,1,0,0:0:0:0:
134,225,238009,5,0,0:0:0:0:
389,54,238185,1,0,0:0:0:0:
334,319,238362,5,0,0:0:0:0:
38,209,238538,1,0,0:0:0:0:
254,38,238715,5,0,0:0:0:0:
256,332,238891,1,0,0:0:0:0:
256,332,239068,2,0,L|256:204,1,105
67,195,239597,1,0,0:0:0:0:
142,121,239774,6,0,B|277:132|201:228|355:226,1,245.000009346009
349,226,241009,1,0,0:0:0:0:
426,161,241185,2,0,P|442:204|443:265,1,105
488,329,241538,6,0,P|451:312|324:320,1,156.800001914063
200,366,242068,1,0,0:0:0:0:
242,161,242244,2,0,P|251:215|251:252,1,78.4000009570313
70,357,242597,2,0,P|72:317|79:279,1,78.4000009570313
230,75,242950,6,0,P|295:96|331:177,1,156.800001914063
48,211,243479,1,0,0:0:0:0:
242,161,243656,1,0,0:0:0:0:
151,290,243832,1,0,0:0:0:0:
135,94,244009,2,0,P|154:141|165:212,1,117.600001435547
151,290,244362,6,0,P|222:269|287:269,1,117.600001435547
436,274,244715,1,0,0:0:0:0:
246,187,244891,1,0,0:0:0:0:
339,362,245068,1,0,0:0:0:0:
481,206,245244,1,0,0:0:0:0:
223,186,245421,2,0,P|176:191|137:200,1,78.4000009570313
346,240,245774,6,0,P|343:188|344:154,1,78.4000009570313
368,21,246127,1,0,0:0:0:0:
435,233,246303,1,0,0:0:0:0:
232,86,246479,5,0,0:0:0:0:
477,117,246656,1,0,0:0:0:0:
477,117,246744,1,0,0:0:0:0:
477,117,246832,1,0,0:0:0:0:
185,108,247009,1,0,0:0:0:0:
209,96,247097,1,0,0:0:0:0:
232,86,247185,6,0,P|243:138|242:249,1,156.800001914063
116,186,247715,1,0,0:0:0:0:
340,185,247891,2,0,B|431:173|389:126|485:115,1,156.800001914063
387,269,248421,1,0,0:0:0:0:
331,79,248597,6,0,P|317:39|295:12,1,78.4000009570313
116,93,248950,2,0,P|157:101|197:94,1,78.4000009570313
2,36,249303,2,0,P|-1:96|13:194,1,156.800001914063
178,250,249832,1,0,0:0:0:0:
116,93,250009,5,0,0:0:0:0:
90,299,250185,1,0,0:0:0:0:
90,299,250362,2,0,P|94:255|92:213,1,78.4000009570313
268,266,250715,2,0,P|272:222|270:180,1,78.4000009570313
422,346,251068,2,0,P|426:302|424:260,1,78.4000009570313
411,190,251332,1,0,0:0:0:0:
411,190,251421,5,0,0:0:0:0:
323,333,251597,1,0,0:0:0:0:
512,260,251774,1,0,0:0:0:0:
512,260,251862,1,0,0:0:0:0:
512,260,251950,1,0,0:0:0:0:
329,98,252127,5,0,0:0:0:0:
210,251,252303,1,0,0:0:0:0:
243,248,252391,1,0,0:0:0:0:
276,245,252479,2,0,L|329:239,1,39.2000004785156
411,190,252656,1,0,0:0:0:0:
139,131,252832,5,0,0:0:0:0:
423,221,254244,1,0,0:0:0:0:
200,343,254774,1,0,0:0:0:0:
200,343,254862,1,0,0:0:0:0:
200,343,254950,6,0,L|200:183,1,140.699993344574
402,35,255656,6,0,P|403:96|412:169,1,105
439,213,256009,5,0,0:0:0:0:
494,41,256185,1,0,0:0:0:0:
250,126,256362,5,0,0:0:0:0:
512,159,256538,1,0,0:0:0:0:
286,19,256715,5,0,0:0:0:0:
310,272,256891,1,0,0:0:0:0:
424,115,257068,5,0,0:0:0:0:
102,134,257244,2,0,L|181:127,1,70
291,246,257597,1,0,0:0:0:0:
291,246,257774,2,0,L|212:239,1,70
78,300,258127,6,0,B|327:271|163:114|448:74,1,445.549978924485
437,75,259891,5,0,0:0:0:0:
256,192,260068,12,0,268362,0:0:0:0:
