osu file format v14

[General]
AudioFilename: audio.mp3
AudioLeadIn: 0
PreviewTime: 206982
Countdown: 0
SampleSet: Soft
StackLeniency: 0.7
Mode: 0
LetterboxInBreaks: 0
WidescreenStoryboard: 1

[Editor]
Bookmarks: 1541,10011,15658,31188,42482,53776,65070,82011,87658,101776,110221,121540,132834,149775,155422,252832
DistanceSpacing: 1
BeatDivisor: 4
GridSize: 8
TimelineZoom: 1.700001

[Metadata]
Title:Sakurairo Time Capsule
TitleUnicode:桜色タイムカプセル
Artist:*namirin
ArtistUnicode:*なみりん
Creator:-[Shady]-
Version:HeTo's Insane
Source:
Tags:japanese rock j-rock suzumu vocaloid gumi ケビョウニンゲン kebyou ningen cherry blossom colored utaite nami 歌ってみた スズム ぎぶそん Gibson Kei Nakamura 中村 圭 Goo ぐー yasu Tinkle-POP HeTo
BeatmapID:2499331
BeatmapSetID:1146780

[Difficulty]
HPDrainRate:5
CircleSize:3.6
OverallDifficulty:8
ApproachRate:9
SliderMultiplier:1.78
SliderTickRate:1

[Events]
//Background and Video events
0,0,"Sakurairo.jpg",0,0
//Break Periods
2,189495,199989
//Storyboard Layer 0 (Background)
//Storyboard Layer 1 (Fail)
//Storyboard Layer 2 (Pass)
//Storyboard Layer 3 (Foreground)
//Storyboard Layer 4 (Overlay)
//Storyboard Sound Samples

[TimingPoints]
1541,352.941176470588,4,2,1,40,1,0
1541,-222.222222222221,4,2,1,40,0,0
10011,-133.333333333333,4,2,1,50,0,0
15658,-105.263157894737,4,2,1,60,0,0
22629,-105.263157894737,4,2,1,5,0,0
22717,-105.263157894737,4,2,1,60,0,0
25717,-105.263157894737,4,2,2,60,0,0
25893,-105.263157894737,4,2,1,60,0,0
26952,-222.222222222221,4,2,1,50,0,0
29776,-153.846153846153,4,2,1,50,0,0
31188,-125,4,2,1,55,0,0
41070,-111.111111111111,4,2,1,60,0,0
41577,352.941176470588,4,2,1,60,1,0
41577,-111.111111111111,4,2,1,60,0,0
41776,352.941176470588,4,2,1,60,1,0
41776,-111.111111111111,4,2,1,60,0,0
42107,352.941176470588,4,2,1,60,1,0
42107,-111.111111111111,4,2,1,60,0,0
42459,352.941176470588,4,2,1,65,1,0
42459,-105.263157894737,4,2,1,65,0,0
42482,-105.263157894737,4,2,1,65,0,0
43017,352.941176470588,4,2,1,65,1,0
43017,-105.263157894737,4,2,1,65,0,0
43527,352.941176470588,4,2,1,65,1,0
43527,-105.263157894737,4,2,1,65,0,0
43879,352.941176470588,4,2,1,65,1,0
43879,-105.263157894737,4,2,1,65,0,0
48026,-105.263157894737,4,2,1,5,0,0
48115,-105.263157894737,4,2,1,60,0,0
53761,-153.846153846154,4,2,1,55,0,0
59408,-222.222222222223,4,2,1,45,0,0
61526,-153.846153846155,4,2,1,60,0,0
62144,-153.846153846155,4,2,1,5,0,0
62231,-105.263157894737,4,2,1,65,0,0
63643,-153.846153846155,4,2,1,65,0,0
64349,-153.846153846155,4,2,1,15,0,0
65055,-90.9090909090909,4,2,1,70,0,1
65320,-90.9090909090909,4,2,1,5,0,1
65408,-90.9090909090909,4,2,1,70,0,1
68143,-90.9090909090909,4,2,1,5,0,1
68231,-90.9090909090909,4,2,1,70,0,1
69555,-90.9090909090909,4,2,1,5,0,1
69643,-90.9090909090909,4,2,1,70,0,1
70790,-90.9090909090909,4,2,1,5,0,1
70878,-90.9090909090909,4,2,1,70,0,1
70967,-90.9090909090909,4,2,1,5,0,1
71055,-90.9090909090909,4,2,1,70,0,1
71320,-90.9090909090909,4,2,1,5,0,1
71408,-90.9090909090909,4,2,1,70,0,1
72202,-90.9090909090909,4,2,1,5,0,1
72290,-90.9090909090909,4,2,1,70,0,1
72378,-90.9090909090909,4,2,1,5,0,1
72467,-90.9090909090909,4,2,1,70,0,1
72731,-90.9090909090909,4,2,1,5,0,1
72820,-90.9090909090909,4,2,1,70,0,1
73790,-90.9090909090909,4,2,1,5,0,1
73878,-90.9090909090909,4,2,1,70,0,1
76614,-90.9090909090909,4,2,1,5,0,1
76702,-90.9090909090909,4,2,1,70,0,1
79437,-90.9090909090909,4,2,1,5,0,1
79525,-90.9090909090909,4,2,1,70,0,1
81996,-100,4,2,1,50,0,0
83937,-100,4,2,1,65,0,0
87643,-105.263157894737,4,2,1,65,0,0
101761,-105.263157894737,4,2,1,65,0,0
108467,-105.263157894737,4,2,2,65,0,0
108820,-105.263157894737,4,2,1,65,0,0
109526,344.827586206897,4,2,1,60,1,0
109526,-105.263157894737,4,2,1,65,0,0
110215,353.460972017673,4,2,1,65,1,0
110215,-105.263157894737,4,2,1,65,0,0
110574,357.142857142857,4,2,1,65,1,0
110574,-105.263157894737,4,2,1,65,0,0
111645,352.941176470588,4,2,1,65,1,0
111645,-105.263157894737,4,2,1,65,0,0
115527,-105.263157894737,4,2,2,65,0,0
115880,-105.263157894737,4,2,1,65,0,0
117305,352.941176470588,4,2,1,65,1,0
117305,-105.263157894737,4,2,1,65,0,0
119068,-105.263157894737,4,2,2,65,0,0
119246,-105.263157894737,4,2,1,65,0,0
119774,-105.263157894737,4,2,2,65,0,0
119952,-105.263157894737,4,2,1,65,0,0
120834,-105.263157894737,4,2,2,65,0,0
121010,-105.263157894737,4,2,1,65,0,0
121452,-105.263157894737,4,2,1,5,0,0
121540,-153.846153846153,4,2,1,55,0,0
127187,-222.22222222222,4,2,1,45,0,0
129305,-153.846153846153,4,2,1,60,0,0
129922,-153.846153846153,4,2,1,5,0,0
130010,-105.263157894736,4,2,1,65,0,0
132834,-90.9090909090909,4,2,1,70,0,1
133099,-90.9090909090909,4,2,1,5,0,1
133187,-90.9090909090909,4,2,1,70,0,1
135922,-90.9090909090909,4,2,1,5,0,1
136010,-90.9090909090909,4,2,1,70,0,1
138569,-90.9090909090909,4,2,1,5,0,1
138657,-90.9090909090909,4,2,1,70,0,1
138746,-90.9090909090909,4,2,1,5,0,1
138834,-90.9090909090909,4,2,1,70,0,1
139099,-90.9090909090909,4,2,1,5,0,1
139187,-90.9090909090909,4,2,1,70,0,1
139539,-90.9090909090909,4,2,2,70,0,1
139716,-90.9090909090909,4,2,1,70,0,1
139981,-90.9090909090909,4,2,1,5,0,1
140069,-90.9090909090909,4,2,1,70,0,1
140157,-90.9090909090909,4,2,1,5,0,1
140246,-90.9090909090909,4,2,1,70,0,1
140510,-90.9090909090909,4,2,1,5,0,1
140599,-90.9090909090909,4,2,1,70,0,1
141569,-90.9090909090909,4,2,1,5,0,1
141657,-90.9090909090909,4,2,1,70,0,1
144393,-90.9090909090909,4,2,1,5,0,1
144481,-90.9090909090909,4,2,1,70,0,1
147216,-90.9090909090909,4,2,1,5,0,1
147305,-90.9090909090909,4,2,1,70,0,1
149775,-100,4,2,1,50,0,0
151716,-100,4,2,1,65,0,0
155422,-285.714285714284,4,2,1,45,0,0
166716,-133.333333333333,4,2,1,45,0,0
167069,-133.333333333333,4,2,3,45,0,0
168040,-133.333333333333,4,2,3,5,0,0
168128,-133.333333333333,4,2,3,45,0,0
172363,-133.333333333333,4,2,1,45,0,0
175187,-100,4,2,1,65,0,0
175452,-100,4,2,1,5,0,0
175540,-100,4,2,1,65,0,0
175628,-100,4,2,1,5,0,0
175716,-100,4,2,1,65,0,0
176589,352.941176470588,4,2,1,75,1,0
181706,-100,4,2,1,5,0,0
181765,-100,4,2,1,65,0,0
181941,-100,4,2,1,5,0,0
182045,352.941176470588,4,2,1,85,1,0
182236,352.941176470588,4,2,1,85,1,0
183647,-100,4,2,1,85,0,0
183912,389.61038961039,4,2,1,85,1,0
184174,352.941176470588,4,2,1,85,1,0
184431,352.941176470588,4,2,1,85,1,0
185041,352.941176470588,4,2,1,85,1,0
186450,-95.2380952380952,4,2,1,85,0,0
186717,352.941176470588,4,2,1,85,1,0
187187,-125,4,2,1,65,0,0
187911,352.941176470588,4,2,1,45,1,0
187911,-326.797385620915,4,2,1,65,0,0
189295,352.941176470588,4,2,1,30,1,0
189295,-333.333333333333,4,2,1,30,0,0
200589,-200,4,2,1,45,0,0
205518,352.941176470588,4,2,1,15,1,0
205518,-200,4,2,1,15,0,0
205747,352.941176470588,4,2,1,15,1,0
205747,-200,4,2,1,15,0,0
205870,300,4,2,1,15,1,0
205870,-200,4,2,1,15,0,0
206246,368.098159509202,4,2,1,35,1,0
206246,-222.222222222221,4,2,1,35,0,0
206982,342.857142857143,4,2,1,35,1,0
206982,-222.222222222221,4,2,1,35,0,0
207647,375,4,2,1,35,1,0
207647,-222.222222222221,4,2,1,35,0,0
208397,331.491712707182,4,2,1,35,1,0
208397,-222.222222222221,4,2,1,35,0,0
210128,352.941176470588,4,2,1,35,1,0
210128,-222.222222222221,4,2,1,35,0,0
210480,352.941176470588,4,2,1,35,1,0
210480,-222.222222222221,4,2,1,35,0,0
211185,-153.846153846153,4,2,1,65,0,0
211803,-153.846153846153,4,2,1,5,0,0
211891,-105.263157894737,4,2,1,65,0,0
213111,352.941176470588,4,2,1,65,1,0
213111,-105.263157894737,4,2,1,65,0,0
213269,357.142857142857,4,2,1,60,1,0
213269,-105.263157894737,4,2,1,60,0,0
214709,352.941176470588,4,2,1,60,1,0
214709,-105.263157894737,4,2,1,60,0,0
216120,-153.846153846154,4,2,1,65,0,0
216825,-153.846153846154,4,2,1,25,0,0
217516,352.941176470588,4,2,1,85,1,1
217516,-90.9090909090909,4,2,1,70,0,1
217780,-90.9090909090909,4,2,1,5,0,1
217884,352.941176470588,4,2,1,85,1,1
217884,-90.9090909090909,4,2,1,70,0,1
218942,352.941176470588,4,2,1,85,1,1
218942,-90.9090909090909,4,2,1,85,0,1
220618,-90.9090909090909,4,2,1,5,0,1
220706,-90.9090909090909,4,2,1,70,0,1
222029,-90.9090909090909,4,2,1,5,0,1
222118,-90.9090909090909,4,2,1,70,0,1
223265,-90.9090909090909,4,2,1,5,0,1
223353,-90.9090909090909,4,2,1,70,0,1
223441,-90.9090909090909,4,2,1,5,0,1
223529,-90.9090909090909,4,2,1,70,0,1
223794,-90.9090909090909,4,2,1,5,0,1
223882,-90.9090909090909,4,2,1,70,0,1
224676,-90.9090909090909,4,2,1,5,0,1
224765,-90.9090909090909,4,2,1,70,0,1
224853,-90.9090909090909,4,2,1,5,0,1
224941,-90.9090909090909,4,2,1,70,0,1
225206,-90.9090909090909,4,2,1,5,0,1
225294,-90.9090909090909,4,2,1,70,0,1
226265,-90.9090909090909,4,2,1,5,0,1
226353,-90.9090909090909,4,2,1,70,0,1
234471,-100,4,2,1,50,0,0
236412,-100,4,2,1,65,0,0
241529,-100,4,2,1,65,0,0
252823,-100,4,2,1,50,0,0
254765,-100,4,2,1,65,0,0
261294,-100,4,2,1,55,0,0
262706,-100,4,2,1,45,0,0
264118,-100,4,2,1,35,0,0
265529,-100,4,2,1,25,0,0
266941,-100,4,2,1,15,0,0
268353,-100,4,2,1,5,0,0

[Colours]
Combo1 : 237,156,158
Combo2 : 138,255,138
Combo3 : 138,191,255
Combo4 : 242,151,240

[HitObjects]
233,7,1541,6,0,P|272:13|306:49,1,80.0999975555421,2|0,0:0|0:0,0:0:0:0:
400,137,2246,2,0,L|385:225,1,80.0999975555421,2|0,0:0|0:0,0:0:0:0:
297,271,2952,2,0,L|312:359,1,80.0999975555421,2|0,0:0|0:0,0:0:0:0:
199,213,3658,1,2,0:0:0:0:
297,271,4011,1,0,0:0:0:0:
163,330,4364,6,0,L|76:308,2,80.0999975555421,2|0|2,0:0|0:0|0:0,0:0:0:0:
168,343,5423,1,0,0:0:0:0:
88,217,5776,2,0,P|42:243|4:348,1,160.199995111084,2|2,0:0|0:0,0:0:0:0:
440,82,7188,6,0,P|379:104|350:119,1,80.0999975555421,2|0,0:0|0:0,0:0:0:0:
271,68,7893,2,0,P|210:46|181:31,1,80.0999975555421,2|2,0:0|0:0,0:0:0:0:
67,6,8599,2,0,B|92:99|33:67|74:177,1,160.199995111084,2|2,0:0|0:0,0:0:0:0:
158,367,10011,6,0,L|234:353,1,66.7500025463105,2|0,0:0|0:0,0:0:0:0:
300,275,10364,2,0,L|224:261,1,66.7500025463105,2|0,0:0|0:0,0:0:0:0:
150,196,10717,2,0,L|226:182,1,66.7500025463105,2|0,0:0|0:0,0:0:0:0:
324,124,11070,2,0,L|248:110,1,66.7500025463105,2|0,0:0|0:0,0:0:0:0:
387,0,11423,6,0,P|394:46|400:97,1,66.7500025463105,2|0,0:0|0:0,0:0:0:0:
476,157,11776,2,0,P|480:123|485:90,1,66.7500025463105,2|0,0:0|0:0,0:0:0:0:
392,171,12129,2,0,P|399:217|405:268,1,66.7500025463105,2|0,0:0|0:0,0:0:0:0:
479,305,12482,1,2,0:0:0:0:
362,351,12658,2,0,L|336:344,2,22.2500008487702,2|2|2,0:0|0:0|0:0,0:0:0:0:
350,331,12835,6,0,P|303:340|265:352,1,66.7500025463105,2|0,0:0|0:0,0:0:0:0:
130,280,13188,2,0,P|177:289|215:301,1,66.7500025463105,2|0,0:0|0:0,0:0:0:0:
260,165,13540,2,0,P|270:222|273:251,1,66.7500025463105,2|0,0:0|0:0,0:0:0:0:
135,65,13893,2,0,P|127:97|124:130,1,66.7500025463105,2|0,0:0|0:0,0:0:0:0:
284,21,14246,6,0,P|294:78|297:107,1,66.7500025463105,2|0,0:0|0:0,0:0:0:0:
153,206,14599,1,2,0:0:0:0:
153,206,14776,1,0,0:0:0:0:
115,58,14952,2,0,P|60:78|34:90,1,66.7500025463105,2|0,0:0|0:0,0:0:0:0:
27,240,15305,5,2,0:0:0:0:
29,253,15393,1,2,0:0:0:0:
35,264,15482,1,2,0:0:0:0:
44,273,15570,1,2,0:0:0:0:
59,278,15658,6,0,B|181:291|113:237|231:254,2,169.099995484543,6|8|2,1:2|0:0|1:2,0:0:0:0:
209,346,16540,1,4,1:3:0:0:
293,137,16717,2,0,P|237:161|217:190,1,84.5499977422715,8|4,0:0|0:3,0:0:0:0:
387,235,17070,5,2,1:2:0:0:
490,135,17246,1,4,0:3:0:0:
386,49,17423,2,0,P|390:96|396:156,1,84.5499977422715,8|4,0:0|0:3,0:0:0:0:
487,351,17776,2,0,P|491:308|494:266,1,84.5499977422715,2|4,1:2|1:3,0:0:0:0:
393,133,18129,1,8,0:0:0:0:
319,295,18305,1,6,1:3:0:0:
319,295,18393,1,2,1:2:0:0:
319,295,18482,6,0,P|259:280|122:252,2,169.099995484543,6|8|0,1:2|0:0|1:0,0:0:0:0:
455,198,19364,1,4,1:3:0:0:
388,362,19540,1,8,0:0:0:0:
282,179,19717,1,6,1:3:0:0:
282,179,19805,1,2,1:2:0:0:
282,179,19893,6,0,P|293:125|304:71,1,84.5499977422715,2|4,1:2|0:3,0:0:0:0:
154,258,20246,2,0,P|143:204|132:150,1,84.5499977422715,10|4,0:0|0:3,0:0:0:0:
50,358,20599,1,2,1:2:0:0:
249,273,20776,1,4,1:3:0:0:
77,111,20952,2,0,P|17:130|-12:153,1,84.5499977422715,10|4,0:0|1:3,0:0:0:0:
62,213,21217,1,0,1:0:0:0:
71,227,21305,6,0,B|134:223|134:223|163:191|163:191|255:188,1,169.099995484543,6|8,1:2|0:0,0:0:0:0:
433,124,21835,1,4,0:3:0:0:
378,2,22011,2,0,P|361:44|343:94,1,84.5499977422715,2|4,1:2|1:3,0:0:0:0:
341,306,22364,1,8,0:0:0:0:
501,259,22540,2,0,L|460:246,1,42.2749988711357,4|0,0:3|0:0,0:0:0:0:
335,214,22717,6,0,P|396:237|429:344,1,169.099995484543,2|8,1:2|0:0,0:0:0:0:
230,313,23246,1,4,0:3:0:0:
211,135,23423,2,0,P|229:79|244:38,1,84.5499977422715,2|4,1:2|1:3,0:0:0:0:
335,214,23776,1,8,0:0:0:0:
311,5,23952,1,6,0:3:0:0:
170,213,24129,6,0,P|88:196|-13:182,1,169.099995484543,6|8,1:2|0:0,0:0:0:0:
165,59,24658,1,6,1:3:0:0:
234,278,24835,2,0,P|310:262|352:256,1,84.5499977422715,2|0,1:2|0:0,0:0:0:0:
416,56,25188,1,8,0:0:0:0:
254,143,25364,1,6,1:3:0:0:
497,282,25540,5,2,1:2:0:0:
380,143,25717,1,12,0:3:0:0:
330,363,25893,1,8,0:0:0:0:
405,231,26070,1,4,1:3:0:0:
503,381,26246,1,8,0:0:0:0:
283,235,26423,1,0,1:0:0:0:
283,235,26511,1,0,1:0:0:0:
283,235,26599,2,0,L|294:180,1,42.2749988711357,0|0,1:0|1:0,0:0:0:0:
363,73,26776,1,0,1:0:0:0:
191,215,26952,6,0,P|178:184|58:170,1,160.199995111084,6|2,1:2|0:0,0:0:0:0:
242,349,28364,6,0,P|255:318|375:304,1,160.199995111084,2|2,0:0|0:0,0:0:0:0:
378,311,29776,6,0,L|394:238,1,57.8499973518373,4|0,0:3|0:0,0:0:0:0:
390,326,30129,2,0,L|406:253,1,57.8499973518373,4|0,0:3|0:0,0:0:0:0:
399,338,30482,2,0,L|415:265,1,57.8499973518373,4|0,0:3|0:0,0:0:0:0:
367,119,30835,1,8,0:3:0:0:
269,195,31011,1,0,1:0:0:0:
269,195,31099,1,0,1:0:0:0:
269,195,31188,6,0,L|118:168,1,142.4,6|4,1:2|1:3,0:0:0:0:
0,123,31717,1,0,0:0:0:0:
66,45,31893,2,0,L|76:115,1,71.2,6|2,1:3|0:0,0:0:0:0:
21,266,32246,2,0,L|31:195,1,71.2,6|2,1:3|0:0,0:0:0:0:
129,327,32599,5,6,1:3:0:0:
190,204,32776,2,0,P|137:172|110:167,1,71.2,2|4,0:0|1:3,0:0:0:0:
262,291,33129,2,0,P|318:275|410:220,1,142.4,2|0,0:0|0:0,0:0:0:0:
438,148,33658,1,6,1:3:0:0:
369,70,33835,1,2,0:0:0:0:
484,13,34011,6,0,P|472:55|449:180,1,142.4,6|4,1:3|1:3,0:0:0:0:
512,268,34540,1,2,0:0:0:0:
431,350,34717,2,0,B|337:353|398:305|286:309,1,142.4,6|4,1:3|1:3,0:0:0:0:
226,363,35246,1,0,0:0:0:0:
159,290,35423,5,4,1:3:0:0:
159,290,35599,2,0,L|172:212,1,71.2,2|4,0:0|1:3,0:0:0:0:
208,133,35952,1,2,0:0:0:0:
323,193,36129,2,0,P|384:194|420:101,1,142.4,6|6,1:3|1:3,0:0:0:0:
349,40,36658,1,4,0:3:0:0:
208,133,36835,6,0,P|151:115|70:82,1,142.4,6|6,1:3|1:3,0:0:0:0:
189,241,37364,2,0,P|254:213|322:192,1,142.4,2|2,0:0|0:0,0:0:0:0:
130,304,37893,1,6,1:3:0:0:
67,222,38070,1,2,0:0:0:0:
160,380,38246,6,0,P|173:320|192:223,1,142.4,6|4,1:3|1:3,0:0:0:0:
212,88,38776,1,2,0:0:0:0:
320,190,38952,2,0,P|330:229|340:273,1,71.2,6|2,1:3|0:0,0:0:0:0:
231,94,39305,2,0,P|239:59|247:24,1,71.2,6|2,1:3|0:0,0:0:0:0:
111,250,39658,6,0,P|60:239|8:149,1,142.4,6|4,1:3|1:3,0:0:0:0:
79,38,40188,1,2,0:0:0:0:
164,141,40364,2,0,P|116:169|78:175,1,71.2,6|0,1:3|0:0,0:0:0:0:
235,258,40717,2,0,P|214:246|198:234,2,35.6,6|2|2,1:3|0:0|0:0,0:0:0:0:
332,193,41070,5,6,1:3:0:0:
286,76,41246,1,2,0:2:0:0:
336,274,41423,1,6,1:3:0:0:
439,134,41577,2,0,L|439:174,1,40.049998777771,2|2,0:0|0:0,0:0:0:0:
416,182,41776,2,0,L|418:86,1,80.0999975555421,8|0,0:0|0:0,0:0:0:0:
364,0,42040,1,0,1:0:0:0:
364,0,42107,6,0,L|361:69,1,40.049998777771,8|8,0:0|0:0,0:0:0:0:
263,151,42283,2,0,L|266:214,1,40.049998777771,8|8,0:0|0:0,0:0:0:0:
344,359,42459,6,0,B|231:342|315:301|180:283,1,169.099995484543,6|8,1:2|0:0,0:0:0:0:
86,173,43017,1,2,0:2:0:0:
64,353,43193,2,0,P|84:286|97:250,1,84.5499977422715,2|2,1:2|1:2,0:0:0:0:
190,161,43527,1,10,0:0:0:0:
81,63,43703,1,2,0:0:0:0:
97,192,43879,5,2,1:2:0:0:
251,63,44055,2,0,P|185:83|156:93,1,84.5499977422715,2|8,0:0|0:0,0:0:0:0:
364,61,44408,2,0,P|299:34|174:-11,1,169.099995484543,2|0,1:2|1:0,0:0:0:0:
378,154,44937,1,10,0:0:0:0:
474,52,45114,1,2,0:0:0:0:
274,153,45290,6,0,P|285:202|311:354,1,169.099995484543,6|8,1:2|0:0,0:0:0:0:
378,154,45820,1,2,0:0:0:0:
504,297,45996,2,0,P|451:278|413:263,1,84.5499977422715,2|0,1:2|1:0,0:0:0:0:
274,153,46349,1,10,0:0:0:0:
457,128,46525,1,2,0:0:0:0:
308,268,46702,5,0,1:0:0:0:
211,104,46878,2,0,P|229:40|237:6,1,84.5499977422715,2|8,0:0|0:0,0:0:0:0:
126,205,47231,1,0,1:0:0:0:
126,205,47320,1,0,1:0:0:0:
126,205,47408,2,0,P|108:141|100:107,1,84.5499977422715,0|2,1:0|1:2,0:0:0:0:
189,338,47761,2,0,P|207:274|228:199,1,126.824996613407,10|0,0:0|0:0,0:0:0:0:
230,195,48114,6,0,P|296:193|338:288,1,169.099995484543,2|10,1:2|0:0,0:0:0:0:
186,371,48643,2,0,P|111:353|-1:323,1,169.099995484543,2|0,0:2|1:0,0:0:0:0:
104,143,49173,1,10,0:0:0:0:
174,290,49349,1,2,0:0:0:0:
25,161,49526,6,0,P|28:105|139:68,1,169.099995484543,2|8,1:2|0:0,0:0:0:0:
242,184,50055,1,2,0:0:0:0:
323,48,50231,1,2,1:2:0:0:
207,110,50408,1,2,1:2:0:0:
347,201,50584,1,10,0:0:0:0:
205,283,50761,1,2,0:0:0:0:
398,119,50937,6,0,P|386:172|363:299,1,169.099995484543,6|8,1:2|0:0,0:0:0:0:
477,174,51467,1,2,0:0:0:0:
323,48,51643,2,0,B|211:46|275:93|150:94,1,169.099995484543,2|8,1:2|0:0,0:0:0:0:
303,131,52173,1,2,0:2:0:0:
61,138,52349,6,0,P|140:172|159:181,1,84.5499977422715,2|0,1:2|1:0,0:0:0:0:
217,289,52702,1,12,0:0:0:0:
94,357,52878,1,8,0:3:0:0:
94,357,52967,1,0,1:0:0:0:
94,357,53055,5,10,0:3:0:0:
145,257,53231,1,8,0:3:0:0:
242,369,53408,1,8,0:3:0:0:
297,304,53584,1,8,0:3:0:0:
368,370,53761,6,0,P|411:362|446:243,1,173.549992055512,6|2,1:2|1:2,0:0:0:0:
373,157,54467,2,0,B|263:143|337:207|193:195,1,173.549992055512,10|0,0:0|1:2,0:0:0:0:
210,196,55173,1,2,0:0:0:0:
117,127,55349,6,0,L|132:64,1,57.8499973518373,8|0,0:0|0:0,0:0:0:0:
26,171,55702,1,2,0:0:0:0:
26,171,55878,2,0,L|11:108,1,57.8499973518373,10|2,0:0|0:0,0:0:0:0:
104,221,56231,1,2,1:2:0:0:
34,279,56408,1,2,1:2:0:0:
96,360,56584,6,0,P|155:340|272:313,1,173.549992055512,2|2,1:2|1:2,0:0:0:0:
274,308,57202,1,2,1:2:0:0:
274,308,57290,2,0,P|233:292|147:263,1,115.699994703675,10|0,0:0|1:0,0:0:0:0:
110,185,57820,1,2,0:0:0:0:
202,100,57996,1,2,1:2:0:0:
126,21,58173,6,0,L|108:98,1,57.8499973518373,8|0,0:0|0:0,0:0:0:0:
255,0,58525,1,2,1:2:0:0:
255,0,58702,2,0,L|275:85,1,77.1333298024497,8|8,0:0|0:3,0:0:0:0:
324,165,59055,6,0,L|376:153,1,38.5666649012249,8|8,0:3|0:3,0:0:0:0:
445,113,59290,5,8,0:3:0:0:
431,98,59408,6,0,L|447:274,2,160.199995111084,2|2|2,0:2|0:0|0:0,0:0:0:0:
274,317,61526,6,0,P|232:306|66:269,1,202.47499073143,6|0,0:0|0:0,0:0:0:0:
14,211,62231,6,0,P|58:197|104:180,1,84.5499977422715,6|2,1:2|1:2,0:0:0:0:
272,92,62584,2,0,P|228:78|182:61,1,84.5499977422715,2|2,1:2|1:2,0:0:0:0:
310,185,62937,1,10,0:0:0:0:
184,165,63114,1,10,0:0:0:0:
415,102,63290,1,10,0:0:0:0:
301,319,63467,1,10,0:0:0:0:
272,92,63643,6,0,P|328:94|386:245,1,231.399989407349,6|0,0:0|0:0,0:0:0:0:
463,313,65055,6,0,P|389:295|291:274,1,146.850004481506,6|0,1:2|0:0,0:0:0:0:
283,283,65408,1,10,0:0:0:0:
336,51,65584,2,0,P|374:73|391:125,1,97.900002987671,2|0,1:2|1:0,0:0:0:0:
193,275,65937,2,0,P|207:229|248:203,1,97.900002987671,2|8,1:2|0:0,0:0:0:0:
325,365,66290,1,2,0:0:0:0:
326,194,66467,5,2,1:2:0:0:
238,356,66643,1,2,1:2:0:0:
411,217,66820,2,0,P|398:154|388:111,1,97.900002987671,10|0,0:0|0:0,0:0:0:0:
283,0,67173,2,0,P|272:47|262:95,1,97.900002987671,2|0,1:2|0:0,0:0:0:0:
162,220,67525,1,10,0:0:0:0:
52,123,67702,1,2,1:2:0:0:
0,330,67878,6,0,P|60:323|81:227,1,146.850004481506,6|0,1:2|0:0,0:0:0:0:
67,224,68231,1,10,0:0:0:0:
205,331,68408,2,0,P|258:319|329:300,1,97.900002987671,2|0,1:2|1:2,0:0:0:0:
444,169,68761,1,2,1:2:0:0:
292,127,68937,1,10,0:0:0:0:
426,279,69114,1,2,0:0:0:0:
485,33,69290,6,0,P|441:35|384:119,1,146.850004481506,2|0,1:2|0:0,0:0:0:0:
383,140,69643,1,10,0:0:0:0:
229,269,69820,2,0,P|173:255|18:216,1,195.800005975342,2|0,1:2|1:2,0:0:0:0:
138,337,70349,1,8,0:0:0:0:
121,100,70525,1,2,1:2:0:0:
103,90,70614,1,2,1:2:0:0:
84,96,70702,6,0,L|95:155,1,48.9500014938355,2|0,1:2|0:0,0:0:0:0:
216,208,70878,2,0,L|207:159,1,48.9500014938355,0|0,1:2|0:0,0:0:0:0:
242,18,71055,6,0,L|205:173,1,146.850004481506,14|0,0:0|0:0,0:0:0:0:
216,208,71408,1,0,1:2:0:0:
300,303,71584,2,0,B|350:312|350:312|408:273,1,97.900002987671,2|8,1:2|1:2,0:0:0:0:
468,132,71937,1,2,1:2:0:0:
487,131,72025,1,2,1:2:0:0:
493,112,72114,6,0,L|482:53,1,48.9500014938355,2|0,1:2|0:0,0:0:0:0:
354,23,72290,2,0,L|362:71,1,48.9500014938355,0|0,1:0|0:0,0:0:0:0:
329,215,72467,6,0,L|363:72,1,146.850004481506,14|0,0:0|0:0,0:0:0:0:
354,23,72820,1,0,1:0:0:0:
221,133,72996,2,0,P|158:117|99:103,1,97.900002987671,2|8,1:2|1:2,0:0:0:0:
91,302,73349,1,0,1:0:0:0:
314,155,73525,6,0,P|266:166|149:225,1,146.850004481506,6|0,1:2|0:0,0:0:0:0:
152,230,73878,1,10,0:0:0:0:
30,365,74055,2,0,B|4:324|4:324|19:250,1,97.900002987671,2|0,1:2|1:0,0:0:0:0:
126,109,74408,1,2,1:2:0:0:
91,302,74584,1,8,0:0:0:0:
0,130,74761,1,2,1:2:0:0:
191,329,74937,6,0,L|247:317,1,48.9500014938355,8|8,0:0|0:0,0:0:0:0:
319,260,75114,2,0,L|375:272,1,48.9500014938355,8|8,0:0|0:0,0:0:0:0:
459,327,75290,1,8,0:0:0:0:
504,81,75467,5,12,0:0:0:0:
504,81,75820,5,10,1:2:0:0:
337,180,75996,1,10,1:2:0:0:
512,246,76173,1,10,1:2:0:0:
325,168,76349,6,0,B|214:153|294:214|145:201,1,146.850004481506,6|0,1:2|0:0,0:0:0:0:
156,193,76702,1,10,0:0:0:0:
366,98,76878,2,0,P|319:81|274:63,1,97.900002987671,2|0,1:2|1:0,0:0:0:0:
416,272,77231,2,0,P|369:288|324:306,1,97.900002987671,2|8,1:2|0:0,0:0:0:0:
480,181,77584,1,2,0:0:0:0:
272,241,77761,5,2,1:2:0:0:
410,364,77937,1,2,1:2:0:0:
290,161,78114,1,10,0:0:0:0:
219,355,78290,1,2,0:0:0:0:
379,172,78467,2,0,P|362:119|344:56,1,97.900002987671,2|0,1:2|1:0,0:0:0:0:
217,13,78820,1,10,0:0:0:0:
125,108,78996,1,2,0:0:0:0:
201,274,79173,6,0,P|215:213|240:97,1,146.850004481506,6|0,1:2|0:0,0:0:0:0:
241,100,79525,1,10,0:0:0:0:
34,219,79702,2,0,P|88:206|146:192,1,97.900002987671,2|0,1:2|1:0,0:0:0:0:
296,296,80055,2,0,P|242:283|184:269,1,97.900002987671,2|10,1:2|0:0,0:0:0:0:
44,334,80408,1,0,1:0:0:0:
224,177,80584,5,2,1:2:0:0:
39,129,80761,1,0,1:0:0:0:
140,326,80937,2,0,L|163:217,1,97.900002987671,12|2,0:0|0:0,0:0:0:0:
188,6,81290,2,0,L|208:101,1,97.900002987671,6|0,1:2|0:0,0:0:0:0:
321,234,81643,1,8,1:2:0:0:
340,230,81731,1,0,1:0:0:0:
352,214,81820,2,0,L|362:156,1,48.9500014938355,0|0,1:0|1:0,0:0:0:0:
321,80,81996,5,2,0:2:0:0:
241,27,83408,1,2,0:0:0:0:
161,123,83937,5,0,1:0:0:0:
161,123,84025,1,0,1:0:0:0:
161,123,84114,2,0,P|120:158|81:25,1,267,14|2,0:2|0:0,0:0:0:0:
261,30,84820,6,0,B|376:35|294:90|436:92,1,178,6|2,1:2|1:2,0:0:0:0:
411,3,85349,1,2,1:2:0:0:
266,161,85525,2,0,P|280:214|293:265,1,89,8|8,0:0|0:0,0:0:0:0:
473,147,85878,1,8,0:0:0:0:
367,344,86055,1,8,0:0:0:0:
266,161,86231,5,6,1:3:0:0:
505,260,86408,2,0,P|453:243|396:223,1,89,6|2,1:3|0:3,0:0:0:0:
389,142,86673,1,2,0:0:0:0:
389,142,86761,2,0,L|308:170,1,44.5,2|2,0:0|0:0,0:0:0:0:
288,247,86937,2,0,P|209:229|178:166,1,133.5,2|2,0:0|0:0,0:0:0:0:
101,82,87290,5,8,0:0:0:0:
81,81,87378,1,8,0:0:0:0:
63,90,87467,1,8,0:0:0:0:
50,105,87555,1,8,0:0:0:0:
46,124,87643,6,0,P|60:183|82:316,2,169.099995484543,6|8|2,1:2|0:0|1:2,0:0:0:0:
0,281,88525,1,4,1:3:0:0:
155,162,88702,2,0,P|220:147|271:136,1,84.5499977422715,8|4,0:0|0:3,0:0:0:0:
373,285,89055,6,0,P|290:261|192:239,1,169.099995484543,2|8,1:2|0:0,0:0:0:0:
340,370,89584,1,4,0:3:0:0:
456,255,89761,2,0,B|465:212|465:212|431:144,1,84.5499977422715,2|4,1:2|1:3,0:0:0:0:
382,2,90114,1,8,0:0:0:0:
359,177,90290,1,6,1:3:0:0:
359,177,90378,1,2,1:2:0:0:
359,177,90467,6,0,P|381:115|496:106,1,169.099995484543,6|8,1:2|0:0,0:0:0:0:
373,269,90996,1,0,0:0:0:0:
234,132,91173,2,0,P|249:92|260:51,1,84.5499977422715,0|4,1:2|1:3,0:0:0:0:
441,175,91525,1,8,0:0:0:0:
262,289,91702,1,6,1:3:0:0:
262,289,91790,1,2,1:2:0:0:
262,289,91878,6,0,P|221:278|154:256,1,84.5499977422715,2|4,1:2|0:3,0:0:0:0:
4,172,92231,2,0,P|45:161|112:139,1,84.5499977422715,10|4,0:0|0:3,0:0:0:0:
115,156,92496,1,0,1:0:0:0:
115,156,92584,1,2,1:2:0:0:
0,62,92761,1,4,1:3:0:0:
102,240,92937,1,10,0:0:0:0:
183,42,93114,1,4,1:3:0:0:
267,232,93290,6,0,B|390:214|286:172|431:148,1,169.099995484543,6|8,1:2|0:0,0:0:0:0:
412,244,93820,1,4,0:3:0:0:
281,57,93996,2,0,P|270:117|260:162,1,84.5499977422715,2|4,1:2|1:3,0:0:0:0:
350,315,94349,1,8,0:0:0:0:
498,185,94525,2,0,L|485:133,1,42.2749988711357,6|2,1:3|1:2,0:0:0:0:
512,286,94702,6,0,B|455:283|455:283|426:247|426:247|322:236,1,169.099995484543,2|8,1:2|0:0,0:0:0:0:
231,342,95231,1,4,0:3:0:0:
110,207,95408,2,0,P|151:197|191:185,1,84.5499977422715,2|4,1:2|1:3,0:0:0:0:
320,314,95761,1,8,0:0:0:0:
149,366,95937,1,6,0:3:0:0:
302,221,96114,6,0,P|389:246|409:338,1,169.099995484543,6|8,1:2|0:0,0:0:0:0:
205,255,96643,1,6,1:3:0:0:
205,255,96731,1,2,1:2:0:0:
205,255,96820,2,0,P|219:204|238:142,1,84.5499977422715,2|0,1:2|0:0,0:0:0:0:
163,48,97173,1,8,0:0:0:0:
10,123,97349,1,6,1:3:0:0:
107,246,97525,5,2,1:2:0:0:
120,236,97614,1,0,1:0:0:0:
125,219,97702,1,4,1:3:0:0:
163,48,97878,5,8,0:3:0:0:
150,58,97967,1,8,0:3:0:0:
145,75,98055,1,14,0:3:0:0:
232,233,98231,1,10,0:3:0:0:
358,82,98408,5,0,1:0:0:0:
358,82,98496,1,0,1:0:0:0:
358,82,98584,2,0,L|310:95,1,42.2749988711357,8|8,0:0|0:0,0:0:0:0:
201,140,98761,1,8,0:0:0:0:
428,302,98937,5,6,0:3:0:0:
471,227,100349,1,2,0:0:0:0:
351,67,100937,2,0,L|342:104,2,28.1833325807572,0|0|8,1:0|1:0|0:3,0:0:0:0:
269,212,101290,5,8,0:3:0:0:
227,241,101408,5,8,0:3:0:0:
177,232,101525,5,8,0:3:0:0:
144,192,101643,5,8,0:3:0:0:
151,141,101761,6,0,P|85:128|23:229,1,169.099995484543,6|8,1:2|0:0,0:0:0:0:
43,342,102290,1,2,1:2:0:0:
158,314,102467,2,0,P|171:261|180:213,1,84.5499977422715,2|2,1:2|1:2,0:0:0:0:
277,365,102820,2,0,P|264:312|255:264,1,84.5499977422715,8|0,0:0|0:0,0:0:0:0:
344,169,103173,5,2,1:2:0:0:
424,281,103349,2,0,P|378:263|327:246,1,84.5499977422715,2|8,0:0|0:0,0:0:0:0:
258,132,103702,1,2,0:0:0:0:
437,131,103878,2,0,P|391:149|340:166,1,84.5499977422715,2|2,1:2|1:2,0:0:0:0:
245,121,104231,1,10,0:0:0:0:
172,209,104408,1,0,0:0:0:0:
84,125,104584,6,0,P|99:70|111:26,1,84.5499977422715,2|0,1:2|0:0,0:0:0:0:
165,130,104937,1,8,0:0:0:0:
62,224,105114,2,0,P|47:169|16:53,1,169.099995484543,2|0,0:0|1:0,0:0:0:0:
165,130,105643,1,10,0:0:0:0:
274,51,105820,1,2,0:0:0:0:
357,154,105996,6,0,P|335:221|301:339,1,169.099995484543,2|8,1:2|0:0,0:0:0:0:
423,236,106525,1,2,0:0:0:0:
266,134,106702,1,2,1:2:0:0:
423,236,106878,1,2,1:2:0:0:
235,274,107055,1,10,0:0:0:0:
357,154,107231,1,2,0:0:0:0:
393,338,107408,6,0,P|470:337|504:245,1,169.099995484543,2|8,1:2|0:0,0:0:0:0:
436,114,107937,1,2,0:0:0:0:
315,245,108114,2,0,P|274:233|198:212,1,84.5499977422715,2|0,1:2|1:0,0:0:0:0:
135,87,108467,2,0,P|94:99|18:120,1,84.5499977422715,12|0,0:3|0:0,0:0:0:0:
127,243,108820,5,6,1:2:0:0:
238,132,108996,1,8,0:0:0:0:
238,132,109084,1,8,0:0:0:0:
238,132,109173,2,0,L|226:66,1,42.2749988711357,8|8,0:0|0:0,0:0:0:0:
335,175,109349,2,0,L|347:109,1,42.2749988711357,8|8,0:0|0:0,0:0:0:0:
399,38,109526,5,0,1:0:0:0:
412,24,109640,2,0,P|443:6|497:11,1,56.3666651615143,8|8,0:0|0:0,0:0:0:0:
508,166,109870,5,8,0:0:0:0:
492,174,109985,2,0,P|462:169|441:155,1,56.3666651615143,8|8,0:0|0:0,0:0:0:0:
314,62,110215,6,0,P|254:78|214:109,1,84.5499977422715,6|2,1:2|1:2,0:0:0:0:
175,219,110574,1,8,0:0:0:0:
81,106,110752,1,2,0:0:0:0:
196,224,110931,2,0,P|183:280|174:321,1,84.5499977422715,2|2,1:2|1:2,0:0:0:0:
312,192,111288,1,10,0:0:0:0:
230,90,111466,1,2,0:0:0:0:
294,274,111645,5,2,1:2:0:0:
449,99,111821,2,0,P|368:129|346:143,1,84.5499977422715,2|8,0:2|0:0,0:0:0:0:
406,352,112174,2,0,P|465:336|471:217,1,169.099995484543,2|0,0:0|1:0,0:0:0:0:
300,198,112703,1,10,0:0:0:0:
419,274,112880,1,2,0:0:0:0:
369,127,113056,6,0,P|353:187|323:323,1,169.099995484543,2|8,1:2|0:0,0:0:0:0:
246,131,113586,1,2,0:0:0:0:
157,258,113762,2,0,P|209:244|259:232,1,84.5499977422715,2|0,1:2|1:0,0:0:0:0:
122,141,114115,2,0,P|70:127|21:113,1,84.5499977422715,8|0,0:0|1:0,0:0:0:0:
157,258,114468,5,2,1:2:0:0:
226,120,114645,2,0,P|213:58|202:15,1,84.5499977422715,2|8,0:2|0:0,0:0:0:0:
352,186,114997,1,0,1:3:0:0:
352,186,115086,1,0,1:3:0:0:
352,186,115174,2,0,P|365:124|375:82,1,84.5499977422715,0|2,1:3|1:2,0:0:0:0:
470,220,115527,1,14,0:3:0:0:
338,317,115703,1,0,0:0:0:0:
211,197,115880,6,0,B|90:209|173:252|51:271,1,169.099995484543,6|10,1:2|0:0,0:0:0:0:
175,362,116409,2,0,P|191:274|212:191,1,169.099995484543,2|0,0:0|1:0,0:0:0:0:
121,98,116939,1,10,0:0:0:0:
235,0,117115,1,2,0:0:0:0:
127,183,117305,6,0,P|47:152|50:61,1,169.099995484543,2|8,1:2|0:0,0:0:0:0:
161,0,117834,1,2,0:0:0:0:
210,196,118010,1,2,1:2:0:0:
121,98,118187,1,2,1:2:0:0:
304,187,118363,1,10,0:0:0:0:
158,286,118540,1,2,0:0:0:0:
288,101,118716,6,0,P|371:129|381:227,1,169.099995484543,2|12,1:2|0:3,0:0:0:0:
364,371,119246,1,2,0:0:0:0:
512,249,119422,2,0,B|452:247|452:247|411:284|411:284|344:283,1,169.099995484543,6|12,1:3|0:3,0:0:0:0:
210,375,119952,1,2,0:0:0:0:
127,199,120128,5,6,1:2:0:0:
249,286,120305,1,8,0:0:0:0:
57,370,120481,1,0,1:0:0:0:
40,277,120658,1,2,1:2:0:0:
164,287,120834,5,10,0:3:0:0:
18,199,121010,1,8,0:3:0:0:
195,74,121187,2,0,P|184:129|168:221,1,126.824996613407,8|0,0:3|0:0,0:0:0:0:
167,209,121540,6,0,P|90:207|68:106,1,173.549992055512,6|2,1:2|1:2,0:0:0:0:
181,0,122246,2,0,B|300:3|208:54|363:60,1,173.549992055512,10|2,0:0|1:2,0:0:0:0:
453,167,122952,1,2,1:2:0:0:
447,12,123128,6,0,P|435:56|424:93,1,57.8499973518373,8|0,0:0|0:0,0:0:0:0:
335,167,123481,1,2,1:2:0:0:
335,167,123658,2,0,P|347:211|358:248,1,57.8499973518373,10|2,0:0|1:2,0:0:0:0:
381,369,124010,1,2,1:2:0:0:
441,231,124187,1,2,1:2:0:0:
472,359,124363,6,0,P|389:340|348:329,1,115.699994703675,2|0,1:2|0:0,0:0:0:0:
187,334,124893,1,2,1:2:0:0:
199,238,125069,2,0,P|243:262|272:384,1,173.549992055512,14|2,0:0|0:0,0:0:0:0:
187,334,125775,1,2,1:2:0:0:
70,266,125952,6,0,P|80:221|85:198,1,57.8499973518373,8|0,0:0|0:0,0:0:0:0:
215,155,126305,1,2,1:2:0:0:
215,155,126481,2,0,P|205:110|196:73,1,77.1333298024497,8|8,0:0|0:3,0:0:0:0:
112,14,126834,5,8,0:3:0:0:
65,19,126952,5,8,0:3:0:0:
36,55,127069,5,8,0:3:0:0:
39,101,127187,6,0,L|12:269,2,160.199995111084,2|2|2,0:2|0:0|0:0,0:0:0:0:
221,5,129305,6,0,B|356:4|257:63|418:58,1,202.47499073143,6|0,0:2|0:0,0:0:0:0:
502,21,130010,6,0,P|487:67|472:115,1,84.5499977422715,6|2,1:2|1:2,0:0:0:0:
434,299,130363,2,0,P|421:258|408:218,1,84.5499977422715,2|2,1:2|1:2,0:0:0:0:
253,136,130716,1,10,0:0:0:0:
194,296,130893,1,10,0:0:0:0:
354,153,131069,1,10,0:0:0:0:
160,77,131246,1,10,0:0:0:0:
402,304,131422,5,6,1:2:0:0:
310,73,131599,1,2,1:2:0:0:
281,323,131775,2,0,P|298:266|315:209,1,84.5499977422715,12|0,0:0|0:0,0:0:0:0:
394,163,132040,1,8,0:0:0:0:
394,163,132128,6,0,L|327:145,1,42.2749988711357,8|0,0:0|1:0,0:0:0:0:
242,196,132305,2,0,L|175:214,1,42.2749988711357,0|0,1:0|1:0,0:0:0:0:
70,130,132481,1,2,1:2:0:0:
68,87,132569,1,2,1:2:0:0:
89,51,132657,1,2,1:2:0:0:
125,30,132745,1,2,1:2:0:0:
167,33,132834,6,0,P|183:99|203:197,1,146.850004481506,6|0,1:2|0:0,0:0:0:0:
201,206,133187,1,10,0:0:0:0:
35,294,133363,2,0,P|76:245|124:238,1,97.900002987671,2|0,1:2|1:0,0:0:0:0:
275,370,133716,2,0,P|229:353|203:312,1,97.900002987671,2|8,1:2|0:0,0:0:0:0:
315,140,134069,1,2,0:0:0:0:
423,289,134246,6,0,P|409:343|395:400,1,97.900002987671,2|2,1:2|1:2,0:0:0:0:
512,163,134599,1,10,0:0:0:0:
512,348,134775,1,2,1:2:0:0:
406,173,134952,2,0,P|352:152|297:134,1,97.900002987671,2|0,1:2|1:0,0:0:0:0:
188,263,135305,1,10,0:0:0:0:
71,150,135481,1,2,1:2:0:0:
192,7,135658,6,0,P|205:60|225:172,1,146.850004481506,2|0,1:2|0:0,0:0:0:0:
226,179,136010,1,10,0:0:0:0:
481,119,136187,2,0,P|453:36|345:31,1,195.800005975342,2|2,1:2|1:2,0:0:0:0:
315,238,136716,1,10,0:0:0:0:
400,104,136893,1,2,0:0:0:0:
173,180,137069,6,0,P|250:160|288:151,1,97.900002987671,2|0,1:2|0:0,0:0:0:0:
397,296,137422,1,10,0:0:0:0:
222,368,137599,1,2,1:2:0:0:
222,368,137687,1,0,1:2:0:0:
222,368,137775,2,0,P|174:356|127:343,1,97.900002987671,0|0,1:0|1:0,0:0:0:0:
0,172,138128,1,8,0:0:0:0:
20,331,138305,1,2,1:2:0:0:
37,322,138393,1,2,1:2:0:0:
46,305,138481,6,0,L|28:230,1,48.9500014938355,2|0,1:2|0:0,0:0:0:0:
116,116,138657,2,0,L|134:191,1,48.9500014938355,0|0,1:2|0:0,0:0:0:0:
128,344,138834,6,0,P|211:316|274:298,1,146.850004481506,14|0,0:0|0:0,0:0:0:0:
333,117,139187,1,0,1:0:0:0:
512,257,139363,2,0,P|460:238|414:220,1,97.900002987671,2|12,0:0|1:3,0:0:0:0:
267,299,139716,1,2,1:2:0:0:
255,283,139805,1,2,1:2:0:0:
258,263,139893,6,0,L|324:247,1,48.9500014938355,2|0,1:2|0:0,0:0:0:0:
507,132,140069,2,0,L|441:148,1,48.9500014938355,0|0,1:2|0:0,0:0:0:0:
368,340,140246,6,0,P|380:275|403:151,1,146.850004481506,14|0,0:0|0:0,0:0:0:0:
387,170,140599,1,0,1:0:0:0:
323,0,140775,2,0,P|333:57|343:113,1,97.900002987671,2|8,0:0|1:2,0:0:0:0:
262,238,141128,1,2,1:2:0:0:
118,37,141305,6,0,P|172:45|259:118,1,146.850004481506,6|0,1:2|0:0,0:0:0:0:
259,119,141657,1,10,0:0:0:0:
45,196,141834,1,2,1:2:0:0:
45,196,141922,1,0,1:0:0:0:
45,196,142010,2,0,P|101:150|128:143,1,97.900002987671,0|2,1:0|1:2,0:0:0:0:
239,345,142363,1,8,0:0:0:0:
203,184,142540,1,2,1:2:0:0:
203,184,142628,1,2,1:2:0:0:
203,184,142716,6,0,L|190:247,1,48.9500014938355,8|8,0:0|0:0,0:0:0:0:
239,345,142893,1,8,0:0:0:0:
309,173,143069,1,8,0:3:0:0:
410,336,143246,5,4,1:3:0:0:
410,336,143599,5,10,0:0:0:0:
497,223,143775,1,10,0:0:0:0:
410,90,143952,2,0,L|393:155,1,48.9500014938355,10|8,0:0|0:0,0:0:0:0:
294,260,144128,6,0,P|213:262|186:180,1,146.850004481506,6|0,1:2|0:0,0:0:0:0:
190,184,144481,1,10,0:0:0:0:
126,3,144657,2,0,P|134:51|142:99,1,97.900002987671,2|0,1:2|1:0,0:0:0:0:
54,272,145010,2,0,P|62:223|70:175,1,97.900002987671,2|8,1:2|0:0,0:0:0:0:
222,89,145363,1,2,0:0:0:0:
217,300,145540,5,2,1:2:0:0:
190,184,145716,1,2,1:2:0:0:
292,370,145893,1,10,0:0:0:0:
120,318,146069,1,2,0:0:0:0:
313,157,146246,2,0,P|296:214|282:261,1,97.900002987671,2|0,1:2|1:0,0:0:0:0:
427,192,146599,1,10,0:0:0:0:
282,55,146775,1,2,0:0:0:0:
411,275,146952,6,0,P|486:258|501:158,1,146.850004481506,6|0,1:2|0:0,0:0:0:0:
506,166,147305,1,10,0:0:0:0:
366,20,147481,2,0,P|303:31|273:77,1,97.900002987671,2|0,1:2|1:0,0:0:0:0:
364,212,147834,1,2,0:0:0:0:
350,96,148010,1,10,0:0:0:0:
251,268,148187,1,2,1:2:0:0:
512,198,148363,6,0,P|461:175|410:154,1,97.900002987671,2|0,1:2|1:0,0:0:0:0:
242,152,148716,1,8,0:0:0:0:
435,79,148893,1,2,1:3:0:0:
346,320,149069,2,0,P|331:253|319:190,1,97.900002987671,8|0,0:3|1:0,0:0:0:0:
253,49,149422,1,8,0:0:0:0:
233,44,149510,1,0,1:3:0:0:
216,54,149599,1,0,1:3:0:0:
143,169,149775,5,2,0:0:0:0:
145,284,151187,1,2,0:0:0:0:
224,34,151716,5,0,1:0:0:0:
224,34,151805,1,0,1:0:0:0:
224,34,151893,2,0,B|206:192|291:81|270:298,1,267,14|2,0:2|0:0,0:0:0:0:
138,365,152599,6,0,P|80:371|44:265,1,178,6|2,1:2|1:2,0:0:0:0:
138,182,153128,1,2,1:2:0:0:
266,287,153305,2,0,P|251:340|240:388,1,89,8|8,0:0|0:0,0:0:0:0:
384,237,153657,1,8,0:0:0:0:
245,164,153834,1,8,0:0:0:0:
470,91,154010,5,10,0:0:0:0:
229,0,154187,1,10,0:0:0:0:
365,246,155422,5,2,0:0:0:0:
239,43,156481,1,0,0:0:0:0:
239,43,156834,2,0,B|110:49|202:97|62:103,1,186.899994296265,2|0,0:0|0:0,0:0:0:0:
173,300,158246,6,0,P|236:301|268:188,1,186.899994296265,2|0,0:0|0:0,0:0:0:0:
181,34,159657,2,0,L|198:226,1,186.899994296265,2|0,0:0|0:0,0:0:0:0:
339,358,161069,6,0,P|390:344|465:326,1,124.59999619751,2|0,0:0|0:0,0:0:0:0:
459,327,162128,1,0,0:0:0:0:
510,228,162481,1,2,0:0:0:0:
226,285,163893,6,0,P|284:301|333:201,1,186.899994296265,2|2,0:0|0:0,0:0:0:0:
264,140,165128,1,2,0:0:0:0:
170,114,165305,2,0,P|126:130|79:146,1,93.4499971481324,2|2,0:0|0:0,0:0:0:0:
137,348,166363,1,2,0:0:0:0:
137,348,166716,6,0,L|149:276,1,66.7500025463105,6|4,0:3|0:3,0:0:0:0:
233,356,167069,2,0,L|245:284,1,66.7500025463105,2|4,0:3|0:3,0:0:0:0:
321,365,167422,2,0,L|333:293,1,66.7500025463105,2|4,0:3|0:3,0:0:0:0:
433,206,167775,2,0,L|416:317,1,100.125003819466,2|0,0:2|0:0,0:0:0:0:
417,304,168128,6,0,P|404:255|326:219,1,133.500005092621,2|4,1:2|0:3,0:0:0:0:
216,156,168834,2,0,P|180:167|69:189,1,133.500005092621,2|2,0:3|0:0,0:0:0:0:
86,186,169363,1,4,0:3:0:0:
22,30,169540,6,0,L|34:109,1,66.7500025463105,2|4,0:3|0:3,0:0:0:0:
123,4,169893,1,2,0:3:0:0:
123,4,170069,2,0,L|135:83,1,66.7500025463105,4|2,0:3|0:3,0:0:0:0:
241,93,170422,2,0,L|229:172,2,66.7500025463105,4|2|4,0:3|0:3|0:3,0:0:0:0:
370,12,170952,6,0,P|424:24|461:100,1,133.500005092621,2|4,0:0|0:3,0:0:0:0:
359,229,171481,2,0,L|382:79,1,133.500005092621,2|0,0:0|0:0,0:0:0:0:
460,197,172010,1,2,0:0:0:0:
309,307,172187,1,2,0:0:0:0:
301,300,172275,1,2,0:0:0:0:
299,290,172363,5,6,1:2:0:0:
256,192,172452,12,2,174834,0:0:0:0:
162,39,175187,6,0,P|91:47|59:126,1,133.5,6|0,1:2|0:0,0:0:0:0:
47,105,175540,2,0,L|58:161,1,44.5,10|0,0:0|0:0,0:0:0:0:
167,317,175716,2,0,P|177:254|195:129,1,178,6|0,0:0|1:0,0:0:0:0:
276,9,176246,2,0,L|288:66,2,44.5,0|0|0,1:0|1:0|1:0,0:0:0:0:
356,166,176589,6,0,L|466:137,1,89,6|0,1:2|0:0,0:0:0:0:
472,148,176853,1,8,0:0:0:0:
472,148,176941,1,0,1:0:0:0:
346,301,177118,2,0,L|237:273,1,89,6|0,1:2|1:2,0:0:0:0:
199,70,177472,5,8,0:3:0:0:
199,70,177560,1,8,0:3:0:0:
199,70,177648,1,8,0:3:0:0:
242,72,177736,1,8,0:3:0:0:
279,96,177824,1,8,0:3:0:0:
297,136,177912,1,8,0:3:0:0:
293,180,178000,6,0,P|245:163|192:147,1,89,6|6,1:2|1:3,0:0:0:0:
33,98,178353,1,10,0:2:0:0:
154,0,178530,1,4,0:3:0:0:
77,184,178706,1,2,1:2:0:0:
4,20,178883,1,4,1:3:0:0:
88,203,179059,2,0,L|60:308,1,89,10|4,0:0|0:3,0:0:0:0:
267,207,179412,6,0,P|241:132|134:121,1,178,2|10,1:2|1:2,0:0:0:0:
222,301,179941,2,0,P|268:289|316:275,1,89,6|0,1:3|1:0,0:0:0:0:
394,191,180294,2,0,P|440:203|488:217,1,89,6|8,1:3|0:0,0:0:0:0:
422,323,180647,1,6,0:3:0:0:
273,166,180824,6,0,P|293:100|309:51,1,89,2|6,1:2|0:3,0:0:0:0:
310,61,181089,1,0,1:0:0:0:
310,61,181177,1,8,0:0:0:0:
199,274,181397,5,2,0:0:0:0:
199,274,181471,6,0,P|150:250|85:222,1,118.666666666667,2|0,0:0|0:0,0:0:0:0:
91,224,181765,6,0,P|136:193|192:151,1,89,2|0,0:0|0:0,0:0:0:0:
68,137,182045,5,6,0:3:0:0:
187,359,182236,6,0,B|318:350|214:303|376:288,1,178,2|8,1:2|0:0,0:0:0:0:
509,365,182765,1,6,0:3:0:0:
499,355,182853,1,2,0:0:0:0:
486,351,182941,6,0,L|414:372,1,44.5,6|2,0:0|0:0,0:0:0:0:
486,240,183118,2,0,L|443:252,1,44.5,0|0,1:0|1:0,0:0:0:0:
321,196,183294,1,8,0:3:0:0:
327,184,183383,1,8,0:3:0:0:
321,171,183471,1,8,0:3:0:0:
327,159,183559,1,8,0:3:0:0:
326,145,183647,6,0,P|284:112|215:111,1,89,6|0,1:2|0:0,0:0:0:0:
208,121,183912,1,8,0:0:0:0:
208,121,184009,1,10,0:0:0:0:
148,307,184174,6,0,P|190:296|224:267,1,89,6|0,1:2|0:0,0:0:0:0:
242,232,184431,1,8,0:0:0:0:
242,232,184519,1,10,0:0:0:0:
87,114,184695,5,2,1:2:0:0:
75,120,184783,1,2,1:2:0:0:
68,131,184872,2,0,L|79:193,1,44.5,2|2,1:2|0:2,0:0:0:0:
208,121,185041,6,0,P|221:52|229:5,1,89,6|0,1:2|0:0,0:0:0:0:
235,0,185305,1,8,0:0:0:0:
235,0,185393,1,10,0:0:0:0:
382,170,185570,1,6,0:0:0:0:
465,21,185746,5,10,0:2:0:0:
453,14,185835,1,2,1:2:0:0:
439,16,185923,2,0,L|382:36,1,44.5,2|2,1:2|1:2,0:0:0:0:
296,89,186099,5,10,0:0:0:0:
295,102,186188,1,2,1:2:0:0:
294,115,186276,1,2,1:2:0:0:
292,128,186364,1,2,1:2:0:0:
289,140,186452,6,0,P|236:99|124:101,1,140.174995722199,6|10,0:0|0:0,0:0:0:0:
165,88,186952,1,10,0:0:0:0:
117,222,187187,6,0,P|170:181|230:170,1,94.9333333333333,6|10,0:0|0:0,0:0:0:0:
195,172,187658,1,10,0:0:0:0:
408,212,187911,6,0,B|263:202|347:269|209:267,1,213.599993481446,6|2,1:2|0:0,0:0:0:0:
428,18,200589,6,0,L|401:198,1,178,2|8,0:0|0:3,0:0:0:0:
274,265,202000,5,2,0:0:0:0:
348,343,202177,1,8,0:3:0:0:
348,343,202530,1,0,1:0:0:0:
222,363,202706,2,0,P|180:347|122:332,1,89,10|0,0:3|0:0,0:0:0:0:
30,90,203412,6,0,P|62:91|123:180,1,133.5,2|0,0:0|1:0,0:0:0:0:
123,163,204118,1,10,0:3:0:0:
298,321,204824,5,2,0:0:0:0:
409,252,205000,2,0,P|393:293|378:341,1,89,8|0,0:3|0:0,0:0:0:0:
379,335,205518,1,10,0:3:0:0:
500,214,205747,1,8,0:3:0:0:
500,214,205870,2,0,L|455:184,2,29.6666666666667,8|8|8,0:3|0:3|0:3,0:0:0:0:
511,247,206246,5,2,0:0:0:0:
298,50,206982,5,2,0:0:0:0:
275,42,207647,1,2,0:0:0:0:
194,103,208397,1,2,0:0:0:0:
284,321,209059,5,2,0:0:0:0:
435,105,210128,1,2,0:0:0:0:
512,203,210480,1,2,0:0:0:0:
215,18,211185,6,0,P|118:25|101:121,1,202.47499073143,4|0,0:0|0:0,0:0:0:0:
106,131,211891,6,0,P|94:179|81:226,1,84.5499977422715,6|0,1:2|0:0,0:0:0:0:
236,105,212244,2,0,P|248:153|261:200,1,84.5499977422715,0|0,1:2|1:2,0:0:0:0:
367,263,212597,1,8,0:3:0:0:
438,155,212774,1,8,0:3:0:0:
283,263,212950,1,8,0:0:0:0:
464,354,213111,1,8,0:0:0:0:
433,169,213269,5,8,0:3:0:0:
299,349,213447,1,8,1:3:0:0:
510,149,213626,2,0,P|486:86|416:64,1,126.824996613407,6|0,1:2|1:0,0:0:0:0:
349,75,213983,6,0,L|328:16,3,42.2749988711357,2|2|2|2,1:2|1:2|1:2|1:2,0:0:0:0:
331,162,214340,1,2,1:2:0:0:
304,194,214429,1,2,1:2:0:0:
264,204,214519,1,2,1:2:0:0:
225,189,214608,1,2,1:2:0:0:
203,153,214709,6,0,L|227:83,2,56.3666651615143,2|0|0,1:2|1:0|1:0,0:0:0:0:
46,209,215061,6,0,P|61:263|71:300,1,84.5499977422715,6|0,1:2|0:0,0:0:0:0:
172,376,215414,2,0,L|235:361,1,42.2749988711357,8|8,0:0|0:2,0:0:0:0:
275,284,215590,2,0,L|316:293,1,42.2749988711357,8|8,1:2|0:2,0:0:0:0:
433,357,215767,5,8,0:0:0:0:
443,349,215855,1,8,0:0:0:0:
453,356,215943,1,8,0:0:0:0:
464,350,216032,1,8,0:0:0:0:
477,355,216120,6,0,B|513:189|426:275|456:115,1,231.399989407349,6|0,0:0|0:0,0:0:0:0:
187,327,217516,6,0,P|112:308|93:244,1,146.850004481506,6|0,1:2|0:0,0:0:0:0:
105,219,217884,1,10,0:0:0:0:
20,19,218061,2,0,P|41:70|62:129,1,97.900002987671,2|0,1:2|1:0,0:0:0:0:
215,248,218414,2,0,P|231:202|250:156,1,97.900002987671,2|8,1:2|0:0,0:0:0:0:
374,23,218767,1,2,0:0:0:0:
378,221,218943,5,2,1:2:0:0:
307,98,219118,1,2,1:2:0:0:
360,312,219294,1,10,0:0:0:0:
483,138,219471,1,2,0:0:0:0:
288,243,219647,2,0,P|239:228|188:214,1,97.900002987671,2|0,1:2|1:0,0:0:0:0:
296,362,220000,1,10,0:0:0:0:
427,244,220176,1,2,1:2:0:0:
316,56,220353,6,0,P|305:124|288:238,1,146.850004481506,6|0,1:2|0:0,0:0:0:0:
288,243,220706,1,10,0:0:0:0:
106,81,220882,2,0,P|146:50|209:39,1,97.900002987671,2|0,1:2|1:0,0:0:0:0:
69,240,221235,1,2,1:2:0:0:
186,120,221412,1,10,0:0:0:0:
4,179,221588,1,2,0:0:0:0:
172,313,221765,6,0,B|222:309|222:309|261:279|261:279|332:274,1,146.850004481506,2|0,1:2|0:0,0:0:0:0:
334,288,222118,1,10,0:0:0:0:
480,182,222294,1,2,1:2:0:0:
318,64,222471,1,0,1:0:0:0:
379,200,222647,1,8,0:2:0:0:
379,200,222735,1,8,0:2:0:0:
379,200,222824,2,0,P|390:150|404:98,1,97.900002987671,8|0,0:2|1:3,0:0:0:0:
479,36,223088,1,0,1:3:0:0:
474,22,223176,6,0,L|403:4,1,48.9500014938355,2|0,1:2|0:0,0:0:0:0:
259,63,223353,2,0,L|306:75,1,48.9500014938355,0|0,1:0|0:0,0:0:0:0:
512,148,223530,6,0,B|414:154|480:195|357:203,1,146.850004481506,14|0,0:0|0:0,0:0:0:0:
202,139,223882,1,0,1:0:0:0:
84,246,224059,2,0,P|152:267|191:284,1,97.900002987671,2|8,0:0|1:2,0:0:0:0:
280,371,224412,1,0,1:0:0:0:
267,378,224500,1,0,1:0:0:0:
253,373,224588,6,0,L|267:308,1,48.9500014938355,2|0,1:2|0:0,0:0:0:0:
407,217,224765,2,0,L|396:264,1,48.9500014938355,0|0,1:0|0:0,0:0:0:0:
473,374,224942,6,0,P|407:351|400:257,1,146.850004481506,14|0,0:0|0:0,0:0:0:0:
318,203,225294,1,0,1:0:0:0:
438,42,225471,2,0,P|449:101|461:152,1,97.900002987671,2|8,0:0|1:2,0:0:0:0:
388,282,225823,1,2,0:0:0:0:
212,178,226000,6,0,P|222:130|248:11,1,146.850004481506,6|0,1:2|0:0,0:0:0:0:
269,13,226353,1,10,0:0:0:0:
95,166,226530,2,0,P|84:82|79:46,1,97.900002987671,2|0,1:2|1:0,0:0:0:0:
206,270,226882,2,0,P|267:264|300:221,1,97.900002987671,2|8,1:2|0:0,0:0:0:0:
190,96,227235,1,2,0:0:0:0:
57,250,227412,5,8,0:0:0:0:
57,250,227500,1,8,0:0:0:0:
57,250,227588,2,0,L|64:313,1,48.9500014938355,8|8,0:0|0:0,0:0:0:0:
167,382,227765,1,8,0:0:0:0:
222,187,227941,5,4,1:2:0:0:
222,187,228294,5,10,0:0:0:0:
48,124,228471,1,10,0:0:0:0:
184,294,228647,2,0,L|245:281,1,48.9500014938355,10|8,0:0|0:0,0:0:0:0:
375,207,228823,5,2,1:2:0:0:
375,207,228912,1,0,1:0:0:0:
375,207,229000,1,0,1:0:0:0:
375,207,229088,1,0,1:0:0:0:
375,207,229177,6,0,P|392:142|410:73,1,97.900002987671,14|0,1:2|0:0,0:0:0:0:
206,2,229530,2,0,P|218:49|230:96,1,97.900002987671,8|2,0:0|1:2,0:0:0:0:
184,294,229882,1,8,0:0:0:0:
77,152,230059,1,2,1:2:0:0:
298,226,230235,6,0,P|246:209|197:193,1,97.900002987671,10|2,0:0|1:2,0:0:0:0:
0,306,230588,2,0,P|52:289|101:273,1,97.900002987671,10|2,0:0|1:2,0:0:0:0:
204,195,230941,1,10,0:0:0:0:
84,74,231118,1,0,1:0:0:0:
249,0,231294,2,0,P|236:55|224:106,1,97.900002987671,10|2,0:0|1:2,0:0:0:0:
317,284,231648,6,0,B|460:265|356:217|504:198,1,195.800005975342,14|10,1:2|0:0,0:0:0:0:
307,155,232176,1,2,1:2:0:0:
463,384,232353,2,0,P|474:332|485:271,1,97.900002987671,8|2,0:0|1:2,0:0:0:0:
393,37,232706,2,0,P|401:85|412:133,1,97.900002987671,10|2,0:0|1:2,0:0:0:0:
310,274,233059,5,10,1:2:0:0:
213,99,233235,1,0,1:2:0:0:
213,99,233323,1,0,1:2:0:0:
213,99,233412,2,0,P|163:71|86:76,1,97.900002987671,2|10,0:0|0:0,0:0:0:0:
236,298,233765,1,0,1:0:0:0:
333,106,233942,2,0,P|284:112|188:235,1,195.800005975342,14|0,0:0|0:0,0:0:0:0:
236,298,234471,5,2,0:0:0:0:
91,203,235882,1,2,0:0:0:0:
431,61,236412,5,0,1:2:0:0:
431,61,236500,1,0,1:2:0:0:
431,61,236588,2,0,B|263:63|376:155|164:157,1,267,14|0,0:0|0:0,0:0:0:0:
37,103,237295,6,0,P|25:173|3:309,1,178,6|2,1:2|1:2,0:0:0:0:
145,372,237823,1,2,1:2:0:0:
268,215,238000,2,0,P|205:192|160:178,1,89,8|8,0:0|0:0,0:0:0:0:
331,341,238353,1,8,0:0:0:0:
461,259,238529,1,8,0:0:0:0:
252,115,238706,5,14,0:0:0:0:
472,19,238882,1,14,0:0:0:0:
221,64,241530,6,0,B|96:71|194:120|30:138,2,178,6|8|2,1:2|0:0|1:2,0:0:0:0:
287,230,242412,1,4,1:3:0:0:
330,1,242588,2,0,P|314:59|301:107,1,89,8|4,0:0|0:3,0:0:0:0:
268,308,242942,6,0,P|330:302|359:198,1,178,2|8,1:2|0:0,0:0:0:0:
233,157,243470,1,4,0:3:0:0:
143,294,243647,2,0,P|86:272|36:253,1,89,2|4,1:2|1:3,0:0:0:0:
174,380,244000,1,8,0:0:0:0:
286,229,244176,1,6,1:3:0:0:
286,229,244265,1,2,1:2:0:0:
286,229,244353,6,0,L|247:31,1,178,6|8,1:2|0:0,0:0:0:0:
162,197,244882,1,4,0:3:0:0:
89,54,245059,2,0,P|143:39|186:29,1,89,2|4,1:2|1:3,0:0:0:0:
345,125,245412,1,8,0:0:0:0:
180,284,245588,1,6,0:3:0:0:
180,284,245676,1,2,0:0:0:0:
180,284,245765,6,0,P|169:230|158:180,1,89,2|6,1:2|1:3,0:0:0:0:
339,370,246118,2,0,P|350:316|361:266,1,89,10|4,0:0|0:3,0:0:0:0:
373,257,246382,1,8,0:0:0:0:
373,257,246470,1,10,0:0:0:0:
464,90,246647,1,4,1:3:0:0:
450,90,246735,1,0,1:0:0:0:
439,97,246823,1,2,1:2:0:0:
248,225,247000,2,0,L|314:209,1,44.5,4|0,1:3|1:0,0:0:0:0:
468,187,247177,6,0,B|398:180|398:180|363:141|363:141|270:128,1,178,6|8,1:2|0:0,0:0:0:0:
143,254,247706,1,4,0:3:0:0:
41,104,247882,2,0,P|57:46|72:-12,1,89,2|4,1:2|1:3,0:0:0:0:
199,104,248235,1,8,0:0:0:0:
28,259,248412,1,6,1:3:0:0:
28,259,248500,1,2,1:2:0:0:
28,259,248589,6,0,P|9:167|-11:73,1,178,6|8,1:2|0:0,0:0:0:0:
143,254,249118,1,4,0:3:0:0:
200,7,249294,2,0,P|181:94|173:127,1,89,2|4,1:2|1:3,0:0:0:0:
284,242,249647,1,8,0:0:0:0:
395,98,249823,1,6,0:3:0:0:
200,218,250000,5,2,1:2:0:0:
384,327,250176,1,8,0:0:0:0:
373,102,250353,2,0,P|329:113|293:137,1,89,8|0,0:0|1:0,0:0:0:0:
181,296,250706,1,8,0:0:0:0:
181,93,250882,1,0,1:0:0:0:
262,359,251059,2,0,P|276:304|288:257,1,89,8|0,0:0|0:0,0:0:0:0:
302,244,251323,1,0,1:0:0:0:
302,244,251412,5,2,1:2:0:0:
458,133,251588,1,8,0:0:0:0:
306,28,251765,1,8,0:0:0:0:
292,28,251853,1,0,1:0:0:0:
283,38,251941,1,0,1:0:0:0:
381,227,252118,1,12,0:0:0:0:
484,39,252294,1,0,1:0:0:0:
440,31,252382,1,0,1:0:0:0:
399,45,252470,1,0,1:0:0:0:
370,78,252558,1,0,1:0:0:0:
361,121,252648,1,4,1:3:0:0:
381,227,252823,5,2,0:0:0:0:
275,279,254235,1,2,0:0:0:0:
179,151,254765,5,2,1:2:0:0:
179,151,254853,1,0,1:0:0:0:
179,151,254941,2,0,P|115:167|175:51,1,267,6|2,1:2|0:0,0:0:0:0:
314,183,255648,6,0,P|386:198|507:222,1,178,6|2,1:2|1:2,0:0:0:0:
388,103,256176,1,2,1:2:0:0:
287,279,256353,2,0,P|214:294|161:305,1,89,8|8,0:0|0:0,0:0:0:0:
96,177,256706,1,8,0:0:0:0:
75,329,256882,1,8,0:0:0:0:
241,141,257059,5,14,0:0:0:0:
7,48,257235,1,14,0:0:0:0:
277,274,259882,5,6,1:2:0:0:
256,192,259970,12,0,268353,0:0:0:0:
