osu file format v14

[General]
AudioFilename: audio.mp3
AudioLeadIn: 0
PreviewTime: 47537
Countdown: 1
SampleSet: None
StackLeniency: 0.8
Mode: 0
LetterboxInBreaks: 0
WidescreenStoryboard: 1

[Editor]
Bookmarks: 1870,19759,33981,48203,65870,94426,97981,112203,126426,137092,144203,172648,186870,193870,204648
DistanceSpacing: 1.1
BeatDivisor: 4
GridSize: 16
TimelineZoom: 1.399999

[Metadata]
Title:Omajinai
TitleUnicode:オマジナイ
Artist:*namirin
ArtistUnicode:*namirin
Creator:pishifat
Version:Hard
Source:
Tags:mappers' guild fa osu featured artist Koishiteiku Planet コイシテイク・プラネット
BeatmapID:1947337
BeatmapSetID:906565

[Difficulty]
HPDrainRate:5
CircleSize:3.7
OverallDifficulty:6
ApproachRate:8
SliderMultiplier:1
SliderTickRate:1

[Events]
//Background and Video events
0,0,"a.jpg",0,0
//Break Periods
2,19959,32639
2,98181,111453
2,187070,193231
//Storyboard Layer 0 (Background)
//Storyboard Layer 1 (Fail)
//Storyboard Layer 2 (Pass)
//Storyboard Layer 3 (Foreground)
//Storyboard Sound Samples

[TimingPoints]
204,444.444444444444,4,3,1,40,1,0
1315,-66.6666666666667,4,3,2,40,0,0
1537,-66.6666666666667,4,3,1,40,0,0
1648,-66.6666666666667,4,3,2,45,0,0
1759,-66.6666666666667,4,3,2,50,0,0
1981,-66.6666666666667,4,3,1,70,0,0
7092,-66.6666666666667,4,3,2,70,0,0
7315,-55.5555555555556,4,3,1,70,0,0
8870,-66.6666666666667,4,3,2,70,0,0
9092,-66.6666666666667,4,3,1,70,0,0
9426,-66.6666666666667,4,3,1,70,0,0
14203,-66.6666666666667,4,3,1,70,0,0
14648,-66.6666666666667,4,3,1,60,0,0
15537,-66.6666666666667,4,3,1,70,0,0
16426,-66.6666666666667,4,3,1,40,0,0
16870,-66.6666666666667,4,3,1,50,0,0
17315,-66.6666666666667,4,3,1,60,0,0
17537,-66.6666666666667,4,3,1,65,0,0
18092,-55.5555555555556,4,3,1,70,0,0
18426,-66.6666666666667,4,3,1,44,0,0
18537,-66.6666666666667,4,3,1,70,0,0
18759,-66.6666666666667,4,3,1,44,0,0
18870,-66.6666666666667,4,3,1,70,0,0
19092,-66.6666666666667,4,3,1,44,0,0
19315,-66.6666666666667,4,3,1,44,0,0
19759,-66.6666666666667,4,2,1,45,0,0
22870,-66.6666666666667,4,2,1,45,0,0
25833,-66.6666666666667,4,2,1,45,0,0
26426,-66.6666666666667,4,2,1,45,0,0
33315,-66.6666666666667,4,2,1,65,0,0
33537,-66.6666666666667,4,2,1,55,0,0
39315,-66.6666666666667,4,2,1,65,0,0
39537,-66.6666666666667,4,2,2,65,0,0
39759,-66.6666666666667,4,2,1,65,0,0
40426,-66.6666666666667,4,2,1,50,0,0
41092,-66.6666666666667,4,2,1,55,0,0
46722,-66.6666666666667,4,2,1,50,0,0
47611,-66.6666666666667,4,3,1,70,0,0
48203,-66.6666666666667,4,3,1,70,0,0
50870,-66.6666666666667,4,3,1,55,0,0
50981,-66.6666666666667,4,3,1,70,0,0
59759,-66.6666666666667,4,3,1,60,0,0
59981,-66.6666666666667,4,3,1,40,0,0
60203,-66.6666666666667,4,3,1,45,0,0
60426,-66.6666666666667,4,3,1,50,0,0
60648,-83.3333333333333,4,3,1,60,0,0
60870,-83.3333333333333,4,3,1,45,0,0
61092,-83.3333333333333,4,3,1,60,0,0
61315,-83.3333333333333,4,3,1,45,0,0
61537,-83.3333333333333,4,3,1,60,0,0
61759,-83.3333333333333,4,3,1,45,0,0
61981,-83.3333333333333,4,3,1,60,0,0
62426,-83.3333333333333,4,3,1,70,0,0
65981,-58.8235294117647,4,3,1,70,0,1
66315,-58.8235294117647,4,3,1,70,0,1
66648,-58.8235294117647,4,3,1,70,0,1
66870,-58.8235294117647,4,3,1,70,0,1
67203,-58.8235294117647,4,3,1,70,0,1
67537,-58.8235294117647,4,3,1,70,0,1
68203,-58.8235294117647,4,3,1,70,0,1
68426,-58.8235294117647,4,3,1,70,0,1
68759,-58.8235294117647,4,3,1,70,0,1
68981,-58.8235294117647,4,3,1,70,0,1
69315,-58.8235294117647,4,3,1,70,0,1
69870,-58.8235294117647,4,3,1,70,0,1
70203,-58.8235294117647,4,3,1,70,0,1
70759,-58.8235294117647,4,3,1,70,0,1
71092,-58.8235294117647,4,3,1,70,0,1
71315,-58.8235294117647,4,3,1,70,0,1
72315,-58.8235294117647,4,3,1,70,0,1
73092,-58.8235294117647,4,3,1,70,0,1
73537,-58.8235294117647,4,3,1,70,0,1
73759,-58.8235294117647,4,3,1,70,0,1
73981,-58.8235294117647,4,3,1,70,0,1
74648,-58.8235294117647,4,3,1,70,0,1
74870,-58.8235294117647,4,3,1,70,0,1
75315,-58.8235294117647,4,3,1,70,0,1
75648,-58.8235294117647,4,3,1,70,0,1
76203,-58.8235294117647,4,3,1,70,0,1
76426,-58.8235294117647,4,3,1,70,0,1
77092,-58.8235294117647,4,3,1,70,0,1
77315,-58.8235294117647,4,3,1,70,0,1
77981,-58.8235294117647,4,3,1,70,0,1
78203,-58.8235294117647,4,3,1,70,0,1
79092,-58.8235294117647,4,3,1,70,0,1
79315,-58.8235294117647,4,3,1,70,0,1
79537,-66.6666666666667,4,3,1,70,0,0
79759,-66.6666666666667,4,3,1,70,0,0
80203,-58.8235294117647,4,3,1,70,0,1
80537,-58.8235294117647,4,3,1,70,0,1
80870,-58.8235294117647,4,3,1,70,0,1
81426,-58.8235294117647,4,3,1,70,0,1
81759,-58.8235294117647,4,3,1,70,0,1
82426,-58.8235294117647,4,3,1,70,0,1
82648,-58.8235294117647,4,3,1,70,0,1
82981,-58.8235294117647,4,3,1,70,0,1
83203,-58.8235294117647,4,3,1,70,0,1
83537,-58.8235294117647,4,3,1,70,0,1
84092,-58.8235294117647,4,3,1,70,0,1
84426,-58.8235294117647,4,3,1,65,0,1
85315,-58.8235294117647,4,3,1,57,0,1
86203,-58.8235294117647,4,3,1,50,0,1
87315,-71.4285714285714,4,3,1,70,0,1
91092,-58.8235294117647,4,3,1,70,0,1
91315,-58.8235294117647,4,3,1,70,0,1
93870,-58.8235294117647,4,3,1,70,0,1
94315,-58.8235294117647,4,3,1,5,0,1
94426,-66.6666666666667,4,3,1,70,0,0
94870,-66.6666666666667,4,3,1,70,0,0
96426,-66.6666666666667,4,3,1,70,0,0
97389,-66.6666666666667,4,3,1,70,0,0
97981,-66.6666666666667,4,2,1,55,0,0
112203,-66.6666666666667,4,2,1,55,0,0
117537,-66.6666666666667,4,2,1,55,0,0
117759,-66.6666666666667,4,2,2,55,0,0
117981,-66.6666666666667,4,2,1,55,0,0
124870,-66.6666666666667,4,2,2,55,0,0
125833,-66.6666666666667,4,3,1,70,0,0
126426,-66.6666666666667,4,3,1,70,0,0
129203,-66.6666666666667,4,3,1,70,0,0
137981,-66.6666666666667,4,3,1,60,0,0
138203,-66.6666666666667,4,3,1,45,0,0
138426,-66.6666666666667,4,3,1,50,0,0
138648,-66.6666666666667,4,3,1,55,0,0
138870,-83.3333333333333,4,3,1,65,0,0
139092,-83.3333333333333,4,3,1,50,0,0
139315,-83.3333333333333,4,3,1,65,0,0
139537,-83.3333333333333,4,3,1,50,0,0
139759,-83.3333333333333,4,3,1,65,0,0
139981,-83.3333333333333,4,3,1,50,0,0
140203,-83.3333333333333,4,3,1,65,0,0
140648,-83.3333333333333,4,3,1,70,0,0
142870,-83.3333333333333,4,3,1,70,0,0
144203,-58.8235294117647,4,3,1,70,0,1
144537,-58.8235294117647,4,3,1,70,0,1
144870,-58.8235294117647,4,3,1,70,0,1
145426,-58.8235294117647,4,3,1,70,0,1
145759,-58.8235294117647,4,3,1,70,0,1
146426,-58.8235294117647,4,3,1,70,0,1
146648,-58.8235294117647,4,3,1,70,0,1
146981,-58.8235294117647,4,3,1,70,0,1
147203,-58.8235294117647,4,3,1,70,0,1
147537,-58.8235294117647,4,3,1,70,0,1
148092,-58.8235294117647,4,3,1,70,0,1
148426,-58.8235294117647,4,3,1,70,0,1
148870,-58.8235294117647,4,3,1,70,0,1
149315,-58.8235294117647,4,3,1,70,0,1
149537,-58.8235294117647,4,3,1,70,0,1
150426,-58.8235294117647,4,3,1,70,0,1
151315,-58.8235294117647,4,3,1,70,0,1
151759,-58.8235294117647,4,3,1,70,0,1
151981,-58.8235294117647,4,3,1,70,0,1
152203,-58.8235294117647,4,3,1,70,0,1
152870,-58.8235294117647,4,3,1,70,0,1
153537,-58.8235294117647,4,3,1,70,0,1
153870,-58.8235294117647,4,3,1,70,0,1
154426,-58.8235294117647,4,3,1,70,0,1
154648,-58.8235294117647,4,3,1,70,0,1
155315,-58.8235294117647,4,3,1,70,0,1
155648,-58.8235294117647,4,3,1,70,0,1
155981,-58.8235294117647,4,3,1,70,0,1
156426,-58.8235294117647,4,3,1,70,0,1
157315,-58.8235294117647,4,3,1,70,0,1
157537,-58.8235294117647,4,3,1,70,0,1
157759,-58.8235294117647,4,3,1,70,0,0
158426,-58.8235294117647,4,3,1,70,0,1
158759,-58.8235294117647,4,3,1,70,0,1
159092,-58.8235294117647,4,3,1,70,0,1
159648,-58.8235294117647,4,3,1,70,0,1
159981,-58.8235294117647,4,3,1,70,0,1
160648,-58.8235294117647,4,3,1,70,0,1
160870,-58.8235294117647,4,3,1,70,0,1
161203,-58.8235294117647,4,3,1,70,0,1
161426,-58.8235294117647,4,3,1,70,0,1
161759,-58.8235294117647,4,3,1,70,0,1
162315,-58.8235294117647,4,3,1,70,0,1
162648,-58.8235294117647,4,3,1,65,0,1
163537,-58.8235294117647,4,3,1,57,0,1
164426,-58.8235294117647,4,3,1,50,0,1
165537,-71.4285714285714,4,3,1,70,0,1
166203,-71.4285714285714,4,3,1,70,0,1
169315,-58.8235294117647,4,3,1,70,0,1
169537,-58.8235294117647,4,3,1,70,0,1
172203,-58.8235294117647,4,3,1,70,0,1
172537,-58.8235294117647,4,3,1,5,0,1
172648,-66.6666666666667,4,3,1,60,0,0
173315,-66.6666666666667,4,3,1,60,0,0
173759,-66.6666666666667,4,3,1,60,0,0
174203,-66.6666666666667,4,3,1,60,0,0
174648,-66.6666666666667,4,3,1,60,0,0
175759,-66.6666666666667,4,3,1,60,0,0
176092,-66.6666666666667,4,3,1,5,0,0
176203,-66.6666666666667,4,3,1,60,0,0
176870,-66.6666666666667,4,3,1,60,0,0
177315,-66.6666666666667,4,3,1,60,0,0
177759,-66.6666666666667,4,3,1,60,0,0
178203,-66.6666666666667,4,3,1,60,0,0
179315,-66.6666666666667,4,3,1,60,0,0
179648,-66.6666666666667,4,3,1,5,0,0
179759,-66.6666666666667,4,3,1,60,0,0
180426,-66.6666666666667,4,3,1,60,0,0
181315,-66.6666666666667,4,3,1,60,0,0
182203,-66.6666666666667,4,3,1,60,0,0
183315,-66.6666666666667,4,3,1,60,0,0
184426,-66.6666666666667,4,3,1,60,0,0
193981,-66.6666666666667,4,3,1,60,0,0
201315,-66.6666666666667,4,3,1,40,0,0
201537,-66.6666666666667,4,3,1,45,0,0
201759,-66.6666666666667,4,3,1,50,0,0
201981,-66.6666666666667,4,3,1,55,0,0
202203,-66.6666666666667,4,3,1,60,0,0
202426,-66.6666666666667,4,3,1,65,0,0
202648,-66.6666666666667,4,3,1,70,0,0
203092,-55.5555555555556,4,3,1,70,0,0
204648,-55.5555555555556,4,3,1,70,0,1
204981,-55.5555555555556,4,3,1,70,0,1
205315,-55.5555555555556,4,3,1,70,0,1
205870,-55.5555555555556,4,3,1,70,0,1
206203,-55.5555555555556,4,3,1,70,0,1
206870,-55.5555555555556,4,3,1,70,0,1
207092,-55.5555555555556,4,3,1,70,0,1
207426,-55.5555555555556,4,3,1,70,0,1
207648,-55.5555555555556,4,3,1,70,0,1
207981,-55.5555555555556,4,3,1,70,0,1
208537,-55.5555555555556,4,3,1,70,0,1
208870,-55.5555555555556,4,3,1,70,0,1
209426,-55.5555555555556,4,3,1,70,0,1
209759,-55.5555555555556,4,3,1,70,0,1
209981,-55.5555555555556,4,3,1,70,0,1
210981,-55.5555555555556,4,3,1,70,0,1
211759,-55.5555555555556,4,3,1,70,0,1
212203,-55.5555555555556,4,3,1,70,0,1
212426,-55.5555555555556,4,3,1,70,0,1
212759,-55.5555555555556,4,3,1,70,0,1
213315,-55.5555555555556,4,3,1,70,0,1
213981,-55.5555555555556,4,3,1,70,0,1
214315,-55.5555555555556,4,3,1,70,0,1
214870,-55.5555555555556,4,3,1,70,0,1
215092,-55.5555555555556,4,3,1,70,0,1
215759,-55.5555555555556,4,3,1,70,0,1
215981,-55.5555555555556,4,3,1,70,0,1
216648,-55.5555555555556,4,3,1,70,0,1
216870,-55.5555555555556,4,3,1,70,0,1
217537,-55.5555555555556,4,3,1,70,0,1
217981,-55.5555555555556,4,3,1,70,0,1
218203,-55.5555555555556,4,3,1,70,0,0
218870,-55.5555555555556,4,3,1,70,0,1
219203,-55.5555555555556,4,3,1,70,0,1
219537,-55.5555555555556,4,3,1,70,0,1
220092,-55.5555555555556,4,3,1,70,0,1
220426,-55.5555555555556,4,3,1,70,0,1
221092,-55.5555555555556,4,3,1,70,0,1
221315,-55.5555555555556,4,3,1,70,0,1
221648,-55.5555555555556,4,3,1,70,0,1
221870,-55.5555555555556,4,3,1,70,0,1
222203,-55.5555555555556,4,3,1,70,0,1
222759,-55.5555555555556,4,3,1,70,0,1
223092,-55.5555555555556,4,3,1,65,0,1
223981,-55.5555555555556,4,3,1,57,0,1
224870,-55.5555555555556,4,3,1,50,0,1
225981,-55.5555555555556,4,3,1,70,0,1
226648,-71.4285714285714,4,3,1,70,0,1
229759,-55.5555555555556,4,3,1,70,0,1
229981,-55.5555555555556,4,3,1,70,0,1
233092,-62.5,4,3,1,70,0,0
234648,-66.6666666666667,4,3,1,70,0,0
234870,-66.6666666666667,4,3,1,70,0,0
238426,-55.5555555555556,4,3,1,70,0,0
240203,-66.6666666666667,4,3,1,70,0,0
240870,-66.6666666666667,4,3,1,70,0,0
241092,-66.6666666666667,4,3,1,70,0,0
241759,-66.6666666666667,4,3,1,70,0,0
241981,-66.6666666666667,4,3,1,70,0,0
243537,-66.6666666666667,4,3,1,70,0,0
243759,-66.6666666666667,4,3,1,70,0,0
246648,-66.6666666666667,4,3,1,70,0,0
247537,-66.6666666666667,4,3,1,40,0,0
247981,-66.6666666666667,4,3,1,50,0,0
248426,-66.6666666666667,4,3,1,60,0,0
248648,-66.6666666666667,4,3,1,65,0,0
248870,-66.6666666666667,4,3,1,70,0,0
250648,-66.6666666666667,4,3,1,50,0,0

[Colours]
Combo1 : 128,255,128
Combo2 : 0,128,64
Combo3 : 34,160,221
Combo4 : 33,123,222

[HitObjects]
97,108,204,6,0,L|-16:84,2,100,2|2|8,2:2|2:2|0:0,0:0:0:0:
47,190,1315,1,8,0:3:0:0:
47,190,1537,2,0,L|1:179,2,37.5000014305115,8|8|4,0:0|0:0|0:0,0:0:0:0:
120,290,1981,5,4,0:1:0:0:
189,229,2203,2,0,P|254:243|307:287,1,112.500004291535,10|2,0:0|0:0,0:0:0:0:
291,268,2648,1,8,0:0:0:0:
378,202,2870,2,0,L|392:103,1,75.0000028610231,6|8,0:0|0:0,0:0:0:0:
389,128,3203,2,0,P|341:158|286:167,1,112.500004291535,2|10,0:0|0:0,0:0:0:0:
211,119,3759,6,0,P|189:76|187:26,1,75.0000028610231,4|8,0:0|0:0,0:0:0:0:
91,82,4203,2,0,P|113:125|115:175,1,75.0000028610231,6|8,0:0|0:0,0:0:0:0:
57,226,4648,2,0,L|39:325,1,75.0000028610231,4|8,0:0|0:0,0:0:0:0:
43,299,4981,2,0,P|-27:333|-37:352,2,75.0000028610231,2|2|0,0:0|0:0|0:0,0:0:0:0:
43,299,5537,6,0,L|203:331,1,150.000005722046,6|4,0:0|0:0,0:0:0:0:
272,282,6203,1,8,0:0:0:0:
344,338,6426,1,4,0:0:0:0:
426,295,6648,2,0,L|439:200,1,75.0000028610231,8|4,0:0|0:0,0:0:0:0:
457,125,7092,1,8,0:0:0:0:
457,125,7203,1,4,0:0:0:0:
457,125,7315,6,0,B|484:89|484:89|540:64,1,89.9999972534181,4|4,0:1|0:0,0:0:0:0:
360,93,7759,2,0,B|353:48|353:48|375:-8,1,89.9999972534181,4|4,0:1|0:0,0:0:0:0:
268,138,8203,2,0,B|231:111|231:111|206:55,1,89.9999972534181,4|4,0:1|0:0,0:0:0:0:
234,234,8648,2,0,P|189:240|189:240,2,44.999998626709,8|8|0,0:0|0:0|0:0,0:0:0:0:
347,300,9092,5,4,0:1:0:0:
261,347,9315,2,0,P|179:333|129:301,1,112.500004291535,8|2,0:0|0:0,0:0:0:0:
154,320,9759,1,8,0:0:0:0:
76,375,9981,2,0,L|62:289,1,75.0000028610231,4|8,0:0|0:0,0:0:0:0:
106,210,10426,2,0,L|117:156,3,37.5000014305115,4|2|8|2,0:0|0:2|0:0|0:2,0:0:0:0:
126,162,10870,5,6,0:0:0:0:
74,70,11092,1,10,0:0:0:0:
169,44,11315,1,6,0:0:0:0:
223,128,11537,2,0,P|299:122|362:63,1,150.000005722046,8|8,0:0|0:0,0:0:0:0:
442,32,12203,1,4,0:0:0:0:
442,32,12314,1,0,0:0:0:0:
442,32,12425,1,8,0:0:0:0:
491,113,12648,5,6,0:0:0:0:
461,201,12870,2,0,L|486:335,1,112.500004291535,8|2,0:0|0:0,0:0:0:0:
481,311,13315,1,8,0:0:0:0:
379,283,13537,2,0,L|354:149,1,112.500004291535,6|2,0:0|0:0,0:0:0:0:
358,172,13982,1,4,0:0:0:0:
275,256,14203,6,0,P|218:208|145:200,1,150.000005722046,4|4,0:1|0:0,0:0:0:0:
56,233,14870,1,8,0:0:0:0:
145,200,15092,1,4,0:0:0:0:
41,136,15315,5,8,0:0:0:0:
148,86,15537,2,0,L|162:0,1,75.0000028610231,4|8,0:0|0:0,0:0:0:0:
45,140,15981,5,4,0:1:0:0:
45,140,16426,5,0,1:0:0:0:
98,197,16648,1,0,1:0:0:0:
173,162,16870,1,0,1:0:0:0:
220,231,17092,1,0,1:0:0:0:
310,201,17315,1,0,1:0:0:0:
385,273,17537,2,0,L|406:214,1,37.5000014305115,0|0,1:0|1:0,0:0:0:0:
435,191,17759,2,0,L|451:248,1,37.5000014305115,0|0,1:0|1:0,0:0:0:0:
385,104,18203,6,0,B|436:72|436:72|442:71|442:71|501:36,2,134.999995880127,8|8|8,1:3|1:3|1:3,0:0:0:0:
501,36,19315,1,4,0:0:0:0:
256,64,19759,5,2,0:0:0:0:
114,151,33389,5,4,0:3:0:0:
114,151,33537,2,0,P|172:140|183:80,1,100.000003814697,8|0,0:3|2:2,0:0:0:0:
175,67,33981,5,2,0:0:0:0:
278,80,34278,1,2,0:0:0:0:
278,80,34426,1,10,0:0:0:0:
377,92,34722,1,2,0:0:0:0:
377,92,34870,1,2,0:0:0:0:
477,103,35166,1,2,0:0:0:0:
477,103,35315,1,10,0:0:0:0:
501,215,35611,6,0,L|447:225,1,50.0000019073487,2|0,0:0|0:0,0:0:0:0:
283,251,36055,1,2,0:0:0:0:
283,251,36203,1,10,0:0:0:0:
330,333,36500,1,2,0:0:0:0:
330,333,36648,1,2,0:0:0:0:
244,364,36944,1,2,0:0:0:0:
244,364,37092,1,10,0:0:0:0:
192,284,37389,1,2,0:0:0:0:
192,284,37537,6,0,P|140:284|109:335,1,100.000003814697,2|2,0:0|0:0,0:0:0:0:
110,349,37981,1,10,0:0:0:0:
19,303,38278,1,2,0:0:0:0:
19,303,38426,1,2,0:0:0:0:
0,198,38722,1,2,0:0:0:0:
0,198,38870,1,10,0:0:0:0:
39,96,39166,1,2,0:0:0:0:
79,115,39315,6,0,P|123:119|162:66,1,100.000003814697,6|8,0:0|0:3,0:0:0:0:
164,40,39759,1,4,0:3:0:0:
251,119,40055,6,0,P|295:115|328:217,1,150.000005722046,2|4,0:3|0:3,0:0:0:0:
315,231,40648,1,8,0:3:0:0:
478,162,40944,5,2,0:0:0:0:
478,162,41092,1,2,0:0:0:0:
465,257,41389,1,2,0:0:0:0:
465,257,41537,1,10,0:0:0:0:
453,351,41833,1,2,0:0:0:0:
453,351,41981,1,2,0:0:0:0:
362,300,42278,2,0,L|369:248,1,50.0000019073487,2|8,0:0|0:0,0:0:0:0:
243,339,42722,5,2,0:0:0:0:
243,339,42870,1,2,0:0:0:0:
225,246,43166,1,2,0:0:0:0:
225,246,43314,1,10,0:0:0:0:
208,149,43611,2,0,L|196:75,1,50.0000019073487,2|0,0:0|0:0,0:0:0:0:
143,316,44055,2,0,L|151:365,1,50.0000019073487,2|8,0:0|0:0,0:0:0:0:
26,166,44648,6,0,P|110:138|89:71,1,150.000005722046,2|2,0:0|0:0,0:0:0:0:
405,90,45537,2,0,P|416:159|486:166,1,150.000005722046,2|2,0:0|0:0,0:0:0:0:
256,16,46426,6,0,L|256:208,1,150.000005722046,2|8,1:2|0:3,0:0:0:0:
256,213,47018,1,4,0:3:0:0:
256,261,47166,1,4,0:3:0:0:
256,309,47315,1,8,0:3:0:0:
495,253,47611,6,0,B|410:278|470:323|382:348,1,150.000005722046,4|0,1:2|0:0,0:0:0:0:
348,333,48203,6,0,P|330:295|328:238,1,75.0000028610231,4|2,0:3|0:0,0:0:0:0:
373,178,48648,2,0,L|431:191,2,37.5000014305115,8|0|0,0:0|0:0|0:0,0:0:0:0:
314,106,49092,1,4,0:0:0:0:
373,32,49315,1,2,0:0:0:0:
277,17,49537,2,0,L|187:33,1,75.0000028610231,8|2,0:0|0:0,0:0:0:0:
113,93,49981,6,0,P|178:136|185:153,1,75.0000028610231,4|2,0:0|0:0,0:0:0:0:
120,204,50426,2,0,P|148:272|140:300,1,75.0000028610231,8|0,0:0|0:0,0:0:0:0:
148,270,50759,1,2,0:0:0:0:
148,270,50870,1,4,0:0:0:0:
80,340,51092,2,0,L|-20:323,1,75.0000028610231,0|8,0:0|0:0,0:0:0:0:
173,375,51537,1,2,0:0:0:0:
243,313,51759,5,4,0:0:0:0:
331,344,51981,1,2,0:0:0:0:
391,280,52203,2,0,P|404:239|402:188,1,75.0000028610231,8|0,0:0|0:0,0:0:0:0:
327,155,52648,2,0,P|295:134|271:106,2,75.0000028610231,4|0|8,0:0|0:0|0:0,0:0:0:0:
468,142,53315,6,0,P|498:88|505:-13,1,150.000005722046,2|2,0:0|0:0,0:0:0:0:
414,48,53981,1,8,0:0:0:0:
414,48,54092,1,2,0:0:0:0:
414,48,54203,1,2,0:0:0:0:
327,12,54426,1,4,0:0:0:0:
263,74,54648,1,2,0:0:0:0:
304,159,54870,1,8,0:0:0:0:
172,153,55092,1,2,0:0:0:0:
236,275,55315,6,0,P|192:325|116:345,1,112.500004291535,4|2,0:2|0:0,0:0:0:0:
150,342,55759,2,0,L|45:329,1,75.0000028610231,8|2,0:0|0:0,0:0:0:0:
14,258,56203,2,0,P|46:199|45:169,1,75.0000028610231,4|0,0:0|0:0,0:0:0:0:
46,192,56537,2,0,L|40:130,1,37.5000014305115,2|8,0:0|0:0,0:0:0:0:
31,13,56870,1,2,0:0:0:0:
113,81,57092,6,0,L|239:103,2,112.500004291535,4|2|2,0:0|0:0|0:0,0:0:0:0:
154,211,57981,2,0,L|248:194,1,75.0000028610231,4|0,0:0|0:0,0:0:0:0:
227,197,58315,1,4,0:0:0:0:
227,197,58426,1,12,0:0:0:0:
340,241,58648,1,4,0:0:0:0:
395,340,58870,5,4,0:2:0:0:
117,340,59759,5,2,0:0:0:0:
195,322,59981,1,0,0:0:0:0:
259,264,60203,1,0,0:0:0:0:
290,171,60426,1,0,0:0:0:0:
298,77,60648,6,0,L|375:62,1,59.9999981689454,2|0,0:0|0:0,0:0:0:0:
348,182,61092,2,0,L|290:171,1,59.9999981689454,2|0,0:0|0:0,0:0:0:0:
259,264,61537,2,0,L|321:294,1,59.9999981689454,2|0,0:0|0:0,0:0:0:0:
195,322,61981,1,2,0:0:0:0:
195,322,62092,1,2,0:0:0:0:
195,322,62203,1,4,0:0:0:0:
89,324,62426,1,4,0:1:0:0:
375,135,63018,6,0,L|313:120,2,39.9999987792969,2|2|2,0:0|0:0|0:0,0:0:0:0:
137,135,63907,2,0,L|199:120,2,39.9999987792969,2|2|2,0:0|0:0|0:0,0:0:0:0:
256,288,64648,6,0,L|256:48,1,239.999992675781,4|4,0:3|0:2,0:0:0:0:
42,127,65981,6,0,P|125:152|139:175,1,85.0000016212464,4|8,0:1|0:0,0:0:0:0:
120,147,66315,2,0,L|104:283,1,127.50000243187,2|8,0:0|0:0,0:0:0:0:
224,306,66870,2,0,L|210:207,1,85.0000016212464,6|10,0:0|0:0,0:0:0:0:
212,221,67203,2,0,P|270:166|337:168,1,127.50000243187,2|10,0:0|0:0,0:0:0:0:
406,215,67759,5,6,0:0:0:0:
461,131,67981,1,10,0:0:0:0:
373,76,68203,2,0,L|362:-11,1,85.0000016212464,6|10,0:0|0:0,0:0:0:0:
265,49,68648,1,6,0:0:0:0:
265,49,68759,2,0,P|200:35|158:-4,2,85.0000016212464,2|2|0,0:0|0:0|0:0,0:0:0:0:
265,49,69315,1,8,0:0:0:0:
299,149,69537,6,0,P|245:173|214:213,1,85.0000016212464,6|8,0:0|0:0,0:0:0:0:
227,191,69870,2,0,L|367:212,1,127.50000243187,2|10,0:0|0:0,0:0:0:0:
429,279,70426,2,0,L|447:370,1,85.0000016212464,4|8,0:0|0:0,0:0:0:0:
445,362,70759,2,0,P|399:311|305:315,1,127.50000243187,2|10,0:0|0:0,0:0:0:0:
256,352,71315,5,4,0:2:0:0:
256,32,71759,1,4,0:2:0:0:
256,224,72203,5,4,1:2:0:0:
256,224,72315,2,0,L|256:128,2,85.0000016212464,8|8|8,0:0|0:0|0:0,0:0:0:0:
256,224,72870,1,8,0:0:0:0:
169,130,73092,6,0,P|120:94|71:87,1,85.0000016212464,4|8,0:1|0:0,0:0:0:0:
29,163,73537,2,0,P|70:208|77:257,1,85.0000016212464,4|8,0:0|0:0,0:0:0:0:
38,319,73981,1,6,0:0:0:0:
38,319,74092,2,0,L|181:337,1,127.50000243187,0|4,0:0|0:0,0:0:0:0:
243,277,74648,1,8,0:0:0:0:
293,361,74870,6,0,L|379:341,1,85.0000016212464,6|8,0:0|0:0,0:0:0:0:
448,266,75315,2,0,P|400:237|367:184,1,85.0000016212464,6|8,0:0|0:0,0:0:0:0:
381,215,75648,2,0,L|401:77,1,127.50000243187,6|8,0:0|0:0,0:0:0:0:
350,10,76203,1,4,0:0:0:0:
266,63,76426,1,10,0:0:0:0:
185,14,76648,6,0,P|133:16|74:49,1,85.0000016212464,6|10,0:0|0:0,0:0:0:0:
55,111,77092,1,6,0:0:0:0:
138,157,77315,2,0,P|169:233|169:270,1,85.0000016212464,10|4,0:0|0:0,0:0:0:0:
126,327,77759,1,10,0:0:0:0:
126,327,77870,1,0,0:0:0:0:
126,327,77981,1,6,0:0:0:0:
214,362,78203,5,4,0:2:0:0:
298,22,78870,5,4,0:2:0:0:
238,270,79315,5,4,0:2:0:0:
274,114,79537,1,8,0:0:0:0:
268,196,79759,5,8,0:0:0:0:
256,192,79870,1,4,0:3:0:0:
244,188,79981,1,4,0:0:0:0:
363,159,80203,6,0,P|397:210|392:255,1,85.0000016212464,4|8,0:1|0:0,0:0:0:0:
397,231,80537,2,0,L|371:393,1,127.50000243187,2|10,0:0|0:0,0:0:0:0:
502,281,81092,2,0,L|484:186,1,85.0000016212464,4|8,0:0|0:0,0:0:0:0:
486,197,81426,2,0,P|467:120|406:64,1,127.50000243187,2|10,0:0|0:0,0:0:0:0:
358,32,81981,6,0,L|258:54,1,85.0000016212464,6|8,0:0|0:0,0:0:0:0:
209,121,82426,1,6,0:0:0:0:
130,75,82648,1,10,0:0:0:0:
68,145,82870,1,6,0:0:0:0:
68,145,82981,2,0,P|43:196|53:248,2,85.0000016212464,2|2|2,0:0|0:0|0:0,0:0:0:0:
68,145,83537,1,8,0:0:0:0:
155,237,83759,6,0,L|301:212,2,127.50000243187,4|2|4,0:0|0:0|0:1,0:0:0:0:
424,133,84870,6,0,L|307:113,2,85.0000016212464,8|4|4,0:0|0:0|0:1,0:0:0:0:
150,55,85759,5,8,0:0:0:0:
150,55,85981,2,0,L|248:35,1,85.0000016212464,4|4,0:0|0:1,0:0:0:0:
252,352,87092,5,0,0:0:0:0:
252,352,87203,1,0,0:0:0:0:
252,352,87315,1,4,0:1:0:0:
328,315,87537,1,2,0:0:0:0:
408,280,87759,1,8,0:0:0:0:
487,244,87981,6,0,L|497:170,1,69.9999978637696,2|8,0:0|0:0,0:0:0:0:
426,117,88426,2,0,L|436:43,1,69.9999978637696,2|8,0:0|0:0,0:0:0:0:
322,106,88870,6,0,L|331:175,1,69.9999978637696,2|8,0:0|0:0,0:0:0:0:
253,227,89315,2,0,L|262:296,1,69.9999978637696,2|8,0:0|0:0,0:0:0:0:
158,215,89759,6,0,L|180:43,1,139.999995727539,2|2,0:0|0:0,0:0:0:0:
103,17,90426,1,10,0:0:0:0:
33,73,90648,5,4,0:2:0:0:
72,302,91092,1,4,0:0:0:0:
155,316,91315,2,0,L|258:332,1,85.0000016212464,8|4,0:0|0:0,0:0:0:0:
238,329,91648,1,4,0:0:0:0:
238,329,91759,1,8,0:0:0:0:
325,285,91981,1,4,0:0:0:0:
325,285,92092,1,8,0:0:0:0:
325,285,92203,2,0,L|417:269,1,85.0000016212464,0|8,0:0|0:0,0:0:0:0:
475,180,92648,5,4,0:1:0:0:
376,143,92870,1,4,0:0:0:0:
489,82,93092,1,4,0:0:0:0:
391,41,93315,1,4,0:1:0:0:
391,41,93759,5,0,1:0:0:0:
489,82,93981,1,0,1:0:0:0:
218,157,94426,6,0,P|202:121|209:65,2,75.0000028610231,4|8|4,0:0|0:0|0:0,0:0:0:0:
299,200,95092,5,8,0:0:0:0:
155,269,95537,5,8,0:0:0:0:
444,299,95981,5,10,0:0:0:0:
35,374,96426,5,8,0:0:0:0:
256,192,96537,12,4,97981,2:3:0:0:
118,174,112203,6,0,P|148:138|228:171,1,100.000003814697,2|2,0:0|0:0,0:0:0:0:
223,170,112648,1,10,0:0:0:0:
285,97,112944,1,2,0:0:0:0:
285,97,113092,1,2,0:0:0:0:
373,70,113389,1,2,0:0:0:0:
373,70,113537,1,10,0:0:0:0:
463,79,113833,6,0,L|475:144,1,50.0000019073487,2|0,0:0|0:0,0:0:0:0:
410,254,114278,1,2,0:0:0:0:
410,254,114426,1,10,0:0:0:0:
327,300,114722,1,2,0:0:0:0:
327,300,114870,1,2,0:0:0:0:
233,283,115166,1,2,0:0:0:0:
233,283,115315,1,10,0:0:0:0:
154,333,115611,1,2,0:0:0:0:
154,333,115759,6,0,P|95:320|87:252,1,100.000003814697,2|2,0:0|0:0,0:0:0:0:
95,248,116203,1,10,0:0:0:0:
161,186,116500,1,2,0:0:0:0:
161,186,116648,1,2,0:0:0:0:
105,113,116944,1,2,0:0:0:0:
105,113,117092,1,10,0:0:0:0:
183,61,117389,1,2,0:0:0:0:
183,61,117537,6,0,P|201:105|249:112,1,100.000003814697,2|8,0:0|0:3,0:0:0:0:
288,99,117981,1,4,0:3:0:0:
398,41,118278,6,0,P|342:76|387:155,1,150.000005722046,4|4,0:3|0:3,0:0:0:0:
409,142,118870,2,0,P|449:194|420:235,1,100.000003814697,8|2,0:3|0:3,0:0:0:0:
401,239,119315,5,2,0:0:0:0:
191,340,119759,2,0,P|215:298|281:317,1,100.000003814697,8|2,0:0|0:0,0:0:0:0:
295,322,120203,1,2,0:0:0:0:
313,219,120500,2,0,L|322:156,1,50.0000019073487,2|8,0:0|0:0,0:0:0:0:
226,125,120944,5,2,0:0:0:0:
226,125,121092,1,2,0:0:0:0:
124,162,121389,1,2,0:0:0:0:
124,162,121537,1,8,0:0:0:0:
143,53,121833,2,0,L|79:40,1,50.0000019073487,2|0,0:0|0:0,0:0:0:0:
213,230,122278,2,0,L|261:239,1,50.0000019073487,2|10,0:0|1:2,0:0:0:0:
403,44,122870,5,2,0:0:0:0:
166,121,123315,1,10,0:0:0:0:
346,121,123759,5,2,0:0:0:0:
109,44,124204,1,10,0:0:0:0:
256,288,124648,6,0,L|256:176,1,100.000003814697,2|8,0:3|0:3,0:0:0:0:
256,160,125092,2,0,L|256:48,1,100.000003814697,8|4,0:3|0:3,0:0:0:0:
256,32,125537,1,4,0:3:0:0:
159,171,125833,6,0,B|75:143|134:111|34:82,1,150.000005722046,4|0,1:2|0:0,0:0:0:0:
6,106,126426,6,0,P|-13:165|-35:202,1,75.0000028610231,4|2,0:0|0:0,0:0:0:0:
27,255,126870,1,8,0:0:0:0:
124,251,127092,1,0,0:0:0:0:
124,251,127203,1,2,0:0:0:0:
124,251,127315,2,0,L|221:270,1,75.0000028610231,4|2,0:0|0:0,0:0:0:0:
275,320,127759,2,0,P|307:302|330:272,1,75.0000028610231,8|2,0:0|0:0,0:0:0:0:
316,179,128203,6,0,L|302:81,1,75.0000028610231,4|2,0:0|0:0,0:0:0:0:
363,38,128648,1,8,0:0:0:0:
363,38,128759,2,0,P|428:77|492:81,1,112.500004291535,2|4,0:0|0:0,0:0:0:0:
512,167,129315,2,0,L|504:217,2,37.5000014305115,0|0|8,0:0|0:0|0:0,0:0:0:0:
415,163,129759,1,2,0:0:0:0:
426,258,129981,6,0,P|445:299|466:324,1,75.0000028610231,4|2,0:0|0:0,0:0:0:0:
337,217,130426,2,0,P|306:250|291:279,1,75.0000028610231,8|0,0:0|0:0,0:0:0:0:
258,365,130870,1,4,0:0:0:0:
184,313,131092,1,0,0:0:0:0:
159,229,131315,1,8,0:0:0:0:
176,140,131537,6,0,L|200:-30,1,150.000005722046,2|2,0:0|0:0,0:0:0:0:
102,27,132203,1,8,0:0:0:0:
102,27,132315,1,2,0:0:0:0:
102,27,132426,1,2,0:0:0:0:
18,58,132648,1,4,0:0:0:0:
93,112,132870,1,2,0:0:0:0:
10,144,133092,2,0,L|-3:191,2,37.5000014305115,8|0|4,0:0|0:0|0:0,0:0:0:0:
65,249,133537,6,0,P|137:300|147:302,1,75.0000028610231,4|0,0:2|0:0,0:0:0:0:
122,295,133870,2,0,L|253:269,1,112.500004291535,2|0,0:0|0:0,0:0:0:0:
310,214,134426,2,0,P|365:243|385:280,1,75.0000028610231,4|0,0:0|0:0,0:0:0:0:
372,252,134759,2,0,L|382:307,1,37.5000014305115,2|8,0:0|0:0,0:0:0:0:
445,195,135092,1,2,0:0:0:0:
500,268,135315,6,0,L|484:385,2,112.500004291535,4|2|2,0:0|0:0|0:0,0:0:0:0:
445,195,136203,1,4,0:0:0:0:
501,121,136426,1,0,0:0:0:0:
501,121,136537,1,4,0:0:0:0:
501,121,136648,1,12,0:0:0:0:
428,57,136870,1,4,0:0:0:0:
369,131,137092,1,4,0:2:0:0:
369,131,137981,5,2,0:0:0:0:
308,178,138203,1,0,0:0:0:0:
197,193,138426,1,0,0:0:0:0:
82,157,138648,1,0,0:0:0:0:
10,59,138870,6,0,L|79:45,1,59.9999981689454,2|0,0:0|0:0,0:0:0:0:
82,157,139315,2,0,L|24:213,1,59.9999981689454,2|0,0:0|0:0,0:0:0:0:
197,193,139759,2,0,L|222:115,1,59.9999981689454,2|0,0:0|0:0,0:0:0:0:
314,190,140203,1,2,0:0:0:0:
314,190,140315,1,2,0:0:0:0:
314,190,140426,1,4,0:0:0:0:
393,120,140648,1,4,0:1:0:0:
357,278,141241,6,0,L|337:312,2,39.9999987792969,2|2|2,0:0|0:0|0:0,0:0:0:0:
155,278,142129,2,0,L|181:324,2,39.9999987792969,2|2|2,0:0|0:0|0:0,0:0:0:0:
256,128,142870,6,0,L|256:368,1,239.999992675781,0|4,0:0|0:2,0:0:0:0:
74,347,144203,6,0,P|99:276|123:251,1,85.0000016212464,4|8,0:1|0:0,0:0:0:0:
104,269,144537,2,0,P|205:251|239:222,1,127.50000243187,2|8,0:0|0:0,0:0:0:0:
245,140,145092,1,4,0:0:0:0:
342,157,145315,1,8,0:0:0:0:
342,157,145426,2,0,L|474:181,1,127.50000243187,2|8,0:0|0:0,0:0:0:0:
512,90,145981,6,0,P|486:47|439:28,1,85.0000016212464,6|8,0:0|0:0,0:0:0:0:
366,58,146426,1,6,0:0:0:0:
287,0,146648,1,10,0:0:0:0:
220,69,146870,1,6,0:0:0:0:
220,69,146981,2,0,L|106:94,1,85.0000016212464,2|2,0:0|0:0,0:0:0:0:
46,114,147426,1,2,0:0:0:0:
46,114,147537,1,10,0:3:0:0:
144,180,147759,6,0,P|129:256|102:288,1,85.0000016212464,6|8,0:0|0:0,0:0:0:0:
125,261,148092,2,0,P|194:233|257:253,1,127.50000243187,2|10,0:0|0:0,0:0:0:0:
330,305,148648,2,0,L|345:210,1,85.0000016212464,6|8,0:0|0:0,0:0:0:0:
343,221,148981,2,0,P|397:320|429:335,1,127.50000243187,2|10,0:0|0:0,0:0:0:0:
497,286,149537,5,4,0:2:0:0:
353,64,149981,1,4,0:2:0:0:
477,182,150426,5,8,0:0:0:0:
477,182,150537,2,0,P|501:96|495:66,2,85.0000016212464,8|8|0,0:0|0:0|0:0,0:0:0:0:
477,182,151092,2,0,L|416:192,1,42.5000008106232,8|4,0:0|0:3,0:0:0:0:
412,194,151315,6,0,L|294:173,1,85.0000016212464,4|8,0:1|0:0,0:0:0:0:
236,161,151759,1,4,0:0:0:0:
162,217,151981,1,8,0:0:0:0:
85,168,152203,1,4,0:0:0:0:
85,168,152315,2,0,P|103:89|149:53,1,127.50000243187,2|6,0:0|0:0,0:0:0:0:
224,33,152870,1,10,0:0:0:0:
306,75,153092,5,6,0:0:0:0:
368,13,153315,1,10,0:0:0:0:
456,49,153537,2,0,L|472:176,2,127.50000243187,6|2|8,0:0|0:0|0:0,0:0:0:0:
368,13,154426,1,4,0:0:0:0:
306,75,154648,1,10,0:0:0:0:
354,152,154870,6,0,L|337:246,1,85.0000016212464,6|10,0:0|0:0,0:0:0:0:
270,297,155315,2,0,P|230:265|172:255,1,85.0000016212464,6|8,0:0|0:0,0:0:0:0:
198,255,155648,2,0,L|56:272,1,127.50000243187,2|10,0:0|0:0,0:0:0:0:
2,207,156203,1,6,0:0:0:0:
63,138,156426,5,4,0:2:0:0:
329,357,157092,1,6,0:2:0:0:
284,122,157537,5,4,0:2:0:0:
365,223,157759,1,4,0:3:0:0:
425,92,157981,5,8,0:0:0:0:
428,108,158092,1,8,0:0:0:0:
432,122,158203,1,8,0:0:0:0:
495,39,158426,6,0,P|461:14|410:6,1,85.0000016212464,4|8,0:1|0:0,0:0:0:0:
419,5,158759,2,0,L|277:34,1,127.50000243187,2|10,0:0|0:0,0:0:0:0:
231,93,159315,2,0,P|230:135|208:170,1,85.0000016212464,6|8,0:0|0:0,0:0:0:0:
208,170,159648,2,0,L|55:148,1,127.50000243187,2|8,0:0|0:0,0:0:0:0:
10,209,160203,6,0,P|35:286|55:305,1,85.0000016212464,4|8,0:0|0:0,0:0:0:0:
128,275,160648,1,6,0:0:0:0:
172,355,160870,1,10,0:0:0:0:
261,315,161092,1,6,0:0:0:0:
261,315,161203,2,0,L|350:335,1,85.0000016212464,2|2,0:0|0:0,0:0:0:0:
438,357,161648,1,2,0:0:0:0:
438,357,161759,1,8,0:0:0:0:
482,282,161981,6,0,P|450:202|395:163,2,127.50000243187,6|2|4,0:0|0:0|0:1,0:0:0:0:
177,186,163092,6,0,P|192:122|227:79,2,85.0000016212464,8|4|4,0:0|0:0|0:1,0:0:0:0:
374,62,163981,5,8,0:0:0:0:
374,62,164203,2,0,P|347:9|295:-19,1,85.0000016212464,4|4,0:0|0:1,0:0:0:0:
85,107,165315,5,0,0:0:0:0:
85,107,165426,1,0,0:0:0:0:
85,107,165537,1,4,0:1:0:0:
115,189,165759,1,2,0:0:0:0:
187,245,165981,1,8,0:0:0:0:
274,272,166203,6,0,L|370:286,1,69.9999978637696,2|8,0:0|0:0,0:0:0:0:
421,233,166648,2,0,L|517:247,1,69.9999978637696,2|8,0:0|0:0,0:0:0:0:
419,122,167092,6,0,L|323:136,1,69.9999978637696,2|8,0:0|0:0,0:0:0:0:
272,83,167537,2,0,L|176:97,1,69.9999978637696,2|8,0:0|0:0,0:0:0:0:
138,22,167981,6,0,L|0:0,1,139.999995727539,2|2,0:0|0:0,0:0:0:0:
109,112,168648,1,8,0:0:0:0:
19,131,168870,5,4,0:2:0:0:
70,344,169315,1,4,0:3:0:0:
124,279,169537,2,0,P|164:248|228:240,1,85.0000016212464,8|4,0:0|0:3,0:0:0:0:
196,239,169870,1,4,0:3:0:0:
196,239,169981,1,8,0:0:0:0:
282,292,170203,2,0,L|292:348,2,42.5000008106232,4|4|8,0:3|0:3|0:0,0:0:0:0:
337,221,170648,1,4,0:3:0:0:
432,322,170870,5,4,0:1:0:0:
465,234,171092,1,4,0:0:0:0:
453,133,171315,1,4,0:0:0:0:
472,39,171537,1,4,0:1:0:0:
472,39,171981,5,0,1:0:0:0:
453,133,172203,1,0,1:0:0:0:
235,53,172648,6,0,L|146:37,2,75.0000028610231,4|2|10,0:2|0:0|0:0,0:0:0:0:
353,123,173315,2,0,L|186:145,1,150.000005722046,2|2,0:0|0:0,0:0:0:0:
37,252,174203,2,0,L|185:271,1,150.000005722046,2|2,0:0|0:0,0:0:0:0:
478,362,175092,2,0,L|384:381,1,75.0000028610231,2|2,0:2|0:2,0:0:0:0:
397,289,175537,2,0,L|471:275,1,75.0000028610231,2|8,0:2|0:0,0:0:0:0:
206,290,176203,6,0,L|193:364,2,75.0000028610231,4|2|10,0:2|0:0|0:0,0:0:0:0:
284,226,176870,2,0,L|306:377,1,150.000005722046,2|2,0:0|0:0,0:0:0:0:
144,119,177759,2,0,L|122:270,1,150.000005722046,2|2,0:0|0:0,0:0:0:0:
409,25,178648,2,0,L|431:176,1,150.000005722046,2|4,0:0|0:0,0:0:0:0:
506,83,179315,1,8,0:0:0:0:
445,275,179759,6,0,L|366:257,2,75.0000028610231,4|2|10,0:2|0:0|0:0,0:0:0:0:
440,161,180426,2,0,L|273:181,1,150.000005722046,2|2,0:0|0:0,0:0:0:0:
339,350,181315,2,0,L|190:332,1,150.000005722046,2|2,0:0|0:0,0:0:0:0:
244,43,182203,2,0,L|95:60,1,150.000005722046,2|4,0:0|0:0,0:0:0:0:
15,19,182870,2,0,P|-4:78|1:120,1,75.0000028610231,8|4,0:0|0:0,0:0:0:0:
35,175,183315,6,0,L|47:253,2,75.0000028610231,4|2|2,0:2|0:0|0:0,0:0:0:0:
148,211,183981,2,0,L|122:360,2,150.000005722046,2|2|2,0:0|0:0|0:0,0:0:0:0:
360,137,185315,1,0,0:0:0:0:
382,222,185537,1,8,0:0:0:0:
456,269,185759,1,2,0:0:0:0:
404,345,185981,6,0,L|329:356,1,75.0000028610231,2|2,0:0|0:0,0:0:0:0:
246,265,186426,2,0,L|171:253,1,75.0000028610231,4|6,0:3|0:3,0:0:0:0:
42,314,186870,1,4,0:3:0:0:
110,84,193981,6,0,P|92:113|89:178,1,75.0000028610231,4|2,0:2|0:0,0:0:0:0:
135,230,194426,1,8,0:0:0:0:
224,198,194648,2,0,P|305:156|381:171,1,150.000005722046,2|2,0:0|0:0,0:0:0:0:
407,243,195315,1,8,0:0:0:0:
497,226,195537,6,0,P|519:155|498:84,1,150.000005722046,2|2,0:0|0:0,0:0:0:0:
417,37,196203,1,8,0:0:0:0:
343,92,196426,2,0,L|241:74,2,75.0000028610231,2|8|2,0:0|0:0|0:0,0:0:0:0:
428,144,197092,1,8,0:0:0:0:
428,144,197315,1,4,0:3:0:0:
354,199,197537,5,4,0:2:0:0:
265,209,197759,1,2,0:0:0:0:
192,259,197981,1,8,0:0:0:0:
103,282,198203,6,0,P|56:272|22:255,1,75.0000028610231,2|8,0:0|0:0,0:0:0:0:
71,173,198648,2,0,P|48:130|39:93,1,75.0000028610231,2|8,0:0|0:0,0:0:0:0:
178,30,199092,6,0,P|159:62|148:98,1,75.0000028610231,2|8,0:0|0:0,0:0:0:0:
236,137,199537,2,0,P|260:165|289:188,1,75.0000028610231,2|8,0:0|0:0,0:0:0:0:
285,337,199981,6,0,P|309:308|338:285,1,75.0000028610231,2|8,0:0|0:0,0:0:0:0:
404,193,200426,2,0,P|470:227|483:248,1,75.0000028610231,2|8,0:0|0:0,0:0:0:0:
457,357,200870,5,4,0:2:0:0:
457,357,201315,1,0,1:0:0:0:
417,282,201537,1,0,1:0:0:0:
339,241,201759,2,0,L|323:288,2,37.5000014305115,0|0|0,1:0|1:0|1:0,0:0:0:0:
245,217,202203,1,0,1:0:0:0:
157,233,202426,2,0,L|170:292,1,37.5000014305115,0|0,1:0|1:0,0:0:0:0:
145,313,202648,2,0,L|124:277,1,37.5000014305115,0|0,1:0|1:0,0:0:0:0:
76,94,203092,6,0,B|53:154|53:154|47:157|47:157|24:217,2,134.999995880127,8|8|8,1:3|1:3|1:3,0:0:0:0:
146,34,203981,1,2,2:0:0:0:
228,86,204203,1,8,0:0:0:0:
228,86,204315,1,8,0:0:0:0:
228,86,204426,1,4,0:3:0:0:
322,31,204648,6,0,P|398:46|422:88,1,89.9999972534181,4|8,0:1|0:0,0:0:0:0:
404,52,204981,2,0,L|380:202,1,134.999995880127,2|8,0:0|0:0,0:0:0:0:
461,278,205537,1,6,0:0:0:0:
373,301,205759,1,8,0:0:0:0:
373,301,205870,2,0,L|277:322,1,89.9999972534181,2|2,0:0|0:0,0:0:0:0:
285,320,206203,1,10,0:0:0:0:
202,364,206426,6,0,P|166:315|165:261,1,89.9999972534181,6|8,0:0|0:0,0:0:0:0:
206,207,206870,1,6,0:0:0:0:
139,142,207092,1,10,0:0:0:0:
217,84,207315,1,6,0:0:0:0:
217,84,207426,1,2,0:0:0:0:
145,23,207648,2,0,L|3:52,1,134.999995880127,2|8,0:0|0:0,0:0:0:0:
6,143,208203,6,0,P|43:184|51:236,1,89.9999972534181,6|8,0:0|0:0,0:0:0:0:
51,216,208537,2,0,P|7:297|19:362,1,134.999995880127,2|10,0:0|0:0,0:0:0:0:
87,380,209092,1,6,0:0:0:0:
153,313,209315,1,8,0:0:0:0:
153,313,209426,2,0,L|290:290,1,134.999995880127,2|10,0:0|0:3,0:0:0:0:
374,324,209981,5,4,0:2:0:0:
138,60,210426,1,4,0:2:0:0:
287,228,210870,5,8,0:0:0:0:
287,228,210981,2,0,L|203:135,2,89.9999972534181,8|8|0,0:0|0:0|0:0,0:0:0:0:
287,228,211537,2,0,L|329:276,1,44.999998626709,8|0,0:0|0:0,0:0:0:0:
338,280,211759,6,0,P|393:275|427:250,1,89.9999972534181,4|8,0:1|0:0,0:0:0:0:
447,164,212203,1,6,0:0:0:0:
376,107,212426,1,10,0:0:0:0:
425,31,212648,1,6,0:0:0:0:
425,31,212759,2,0,L|325:10,1,89.9999972534181,2|2,0:0|0:0,0:0:0:0:
336,12,213092,1,4,0:0:0:0:
265,72,213315,1,10,0:0:0:0:
178,40,213537,6,0,P|111:67|89:108,1,89.9999972534181,6|8,0:0|0:0,0:0:0:0:
52,169,213981,2,0,L|66:277,1,89.9999972534181,6|8,0:0|0:0,0:0:0:0:
63,258,214315,2,0,P|167:283|201:329,1,134.999995880127,2|8,0:0|0:0,0:0:0:0:
239,384,214870,1,4,0:0:0:0:
239,384,214981,1,0,0:0:0:0:
239,384,215092,1,10,0:0:0:0:
305,319,215315,5,6,0:0:0:0:
394,348,215537,1,10,0:0:0:0:
428,257,215759,1,6,0:0:0:0:
340,233,215981,2,0,L|327:136,1,89.9999972534181,10|4,0:0|0:0,0:0:0:0:
372,64,216426,2,0,L|428:78,2,44.999998626709,10|0|6,0:0|0:0|0:0,0:0:0:0:
295,9,216870,6,0,P|211:35|168:113,1,179.999994506836,4|8,0:2|0:0,0:0:0:0:
68,134,217537,2,0,L|88:233,1,89.9999972534181,4|0,0:2|0:0,0:0:0:0:
244,178,217981,2,0,L|186:265,1,89.9999972534181,4|4,0:2|0:3,0:0:0:0:
110,338,218426,2,0,L|127:278,2,44.999998626709,8|8|4,0:0|0:0|0:0,0:0:0:0:
218,366,218870,6,0,P|270:327|321:319,1,89.9999972534181,4|8,0:1|0:0,0:0:0:0:
293,320,219203,2,0,L|432:346,1,134.999995880127,2|6,0:0|0:0,0:0:0:0:
491,277,219759,1,6,0:0:0:0:
432,210,219981,1,8,0:0:0:0:
432,210,220092,2,0,P|433:162|455:108,1,89.9999972534181,2|2,0:0|0:0,0:0:0:0:
500,49,220426,1,10,0:0:0:0:
422,0,220648,6,0,P|342:29|315:63,1,89.9999972534181,6|8,0:0|0:0,0:0:0:0:
291,108,221092,1,6,0:0:0:0:
203,80,221315,1,10,0:0:0:0:
144,151,221537,1,6,0:0:0:0:
144,151,221648,2,0,L|50:138,1,89.9999972534181,2|2,0:0|0:0,0:0:0:0:
0,218,222092,1,2,0:0:0:0:
0,218,222203,1,8,0:0:0:0:
55,286,222426,6,0,P|128:263|208:270,2,134.999995880127,6|2|4,0:0|0:0|0:1,0:0:0:0:
374,228,223537,6,0,P|324:195|280:182,2,89.9999972534181,8|4|4,0:0|0:0|0:1,0:0:0:0:
174,72,224426,5,8,0:0:0:0:
174,72,224648,2,0,P|225:34|282:25,1,89.9999972534181,4|4,0:0|0:1,0:0:0:0:
452,132,225759,5,0,0:0:0:0:
452,132,225870,1,0,0:0:0:0:
452,132,225981,1,4,0:2:0:0:
398,208,226203,1,2,0:0:0:0:
309,240,226426,1,8,0:0:0:0:
213,231,226648,6,0,L|144:167,1,69.9999978637696,2|8,0:0|0:0,0:0:0:0:
166,91,227092,2,0,L|97:27,1,69.9999978637696,2|8,0:0|0:0,0:0:0:0:
0,65,227537,6,0,L|69:129,1,69.9999978637696,2|8,0:0|0:0,0:0:0:0:
47,205,227981,2,0,L|116:269,1,69.9999978637696,2|8,0:0|0:0,0:0:0:0:
213,231,228426,6,0,L|342:331,1,139.999995727539,2|2,0:0|0:0,0:0:0:0:
408,282,229092,1,8,0:0:0:0:
445,364,229315,5,4,0:2:0:0:
452,118,229759,1,4,0:3:0:0:
370,157,229981,2,0,P|325:145|278:116,1,89.9999972534181,8|4,0:0|0:3,0:0:0:0:
287,123,230315,1,4,0:3:0:0:
287,123,230426,1,8,0:3:0:0:
244,46,230648,2,0,L|256:-14,2,44.999998626709,4|8|0,0:3|0:0|0:0,0:0:0:0:
160,92,231092,1,8,0:0:0:0:
55,46,231315,5,4,0:1:0:0:
69,144,231537,1,4,0:3:0:0:
86,235,231759,1,4,0:3:0:0:
100,335,231981,2,0,L|107:386,2,44.999998626709,8|8|8,0:0|0:0|0:0,0:0:0:0:
179,262,232426,5,4,0:3:0:0:
231,337,232648,2,0,L|238:388,2,44.999998626709,0|0|0,1:0|1:0|1:0,0:0:0:0:
310,257,233092,5,4,0:1:0:0:
370,320,233315,2,0,P|432:340|499:349,1,120,8|2,0:0|0:0,0:0:0:0:
486,348,233759,1,8,0:0:0:0:
449,250,233981,2,0,P|410:215|389:161,1,80,4|8,0:3|0:0,0:0:0:0:
396,191,234315,2,0,L|417:42,1,120,2|8,0:0|0:0,0:0:0:0:
334,20,234870,6,0,L|240:43,1,75.0000028610231,4|8,0:0|0:0,0:0:0:0:
100,72,235315,2,0,L|194:95,1,75.0000028610231,6|8,0:0|0:0,0:0:0:0:
263,136,235759,1,4,0:0:0:0:
202,214,235981,1,8,0:0:0:0:
202,214,236092,2,0,P|142:270|137:290,2,75.0000028610231,2|2|2,0:0|0:0|0:0,0:0:0:0:
202,214,236648,6,0,L|384:245,1,150.000005722046,6|4,0:0|0:0,0:0:0:0:
439,217,237315,1,8,0:0:0:0:
511,271,237537,1,4,0:0:0:0:
477,355,237759,2,0,P|437:375|382:377,1,75.0000028610231,8|4,0:0|0:0,0:0:0:0:
320,340,238203,1,8,0:0:0:0:
320,340,238315,1,4,0:0:0:0:
320,340,238426,6,0,B|274:342|274:342|213:368,1,89.9999972534181,4|4,0:1|0:0,0:0:0:0:
135,298,238870,2,0,B|118:255|118:255|75:205,1,89.9999972534181,4|4,0:1|0:0,0:0:0:0:
117,109,239315,2,0,B|153:81|153:81|187:24,1,89.9999972534181,4|4,0:1|0:0,0:0:0:0:
291,34,239759,2,0,L|329:60,2,44.999998626709,8|8|0,0:0|0:0|0:0,0:0:0:0:
239,142,240203,5,4,0:1:0:0:
319,193,240426,2,0,L|412:180,2,75.0000028610231,8|4|10,0:0|0:3|0:0,0:0:0:0:
229,251,241092,2,0,P|320:308|333:334,2,112.500004291535,4|2|8,0:0|0:0|0:0,0:0:0:0:
151,303,241981,5,6,0:0:0:0:
75,257,242203,2,0,L|64:154,1,75.0000028610231,10|6,0:0|0:0,0:0:0:0:
10,84,242648,2,0,L|174:112,1,150.000005722046,10|8,0:0|0:0,0:0:0:0:
243,64,243315,1,4,0:0:0:0:
243,64,243426,1,0,0:0:0:0:
243,64,243537,1,8,0:0:0:0:
286,140,243759,5,4,0:0:0:0:
405,97,243981,2,0,L|385:219,1,112.500004291535,8|2,0:0|0:0,0:0:0:0:
386,208,244426,1,8,0:0:0:0:
296,243,244648,2,0,L|316:365,1,112.500004291535,4|2,0:0|0:0,0:0:0:0:
314,354,245093,1,0,0:0:0:0:
214,315,245315,5,4,0:1:0:0:
50,77,245759,1,4,0:0:0:0:
128,29,245981,1,8,0:0:0:0:
173,108,246203,1,4,0:3:0:0:
91,159,246426,5,8,0:0:0:0:
159,223,246648,2,0,P|219:209|249:187,1,75.0000028610231,4|8,0:3|0:0,0:0:0:0:
256,48,247092,5,4,0:1:0:0:
200,384,247537,5,0,1:0:0:0:
266,342,247759,1,0,1:0:0:0:
244,262,247981,1,0,1:0:0:0:
321,228,248203,1,0,1:0:0:0:
307,134,248426,1,0,1:0:0:0:
391,73,248648,2,0,L|336:42,1,37.5000014305115,0|0,1:0|1:0,0:0:0:0:
318,9,248870,2,0,L|369:37,1,37.5000014305115,0|0,1:0|1:0,0:0:0:0:
117,138,249315,6,0,P|179:129|237:89,1,112.500004291535,8|8,1:3|1:3,0:0:0:0:
356,235,249981,6,0,P|302:213|278:185,1,75.0000028610231,8|8,1:3|1:3,0:0:0:0:
256,368,250648,5,2,2:2:0:0:
