osu file format v14

[General]
AudioFilename: audio.mp3
AudioLeadIn: 0
PreviewTime: 65315
Countdown: 0
SampleSet: None
StackLeniency: 0.5
Mode: 0
LetterboxInBreaks: 0
WidescreenStoryboard: 0

[Editor]
Bookmarks: 19759,33981,48203,65981,97981,112203,126426,144203,172648,186870,204648,233092
DistanceSpacing: 0.2
BeatDivisor: 4
GridSize: 4
TimelineZoom: 1

[Metadata]
Title:Omajinai
TitleUnicode:オマジナイ
Artist:*namirin
ArtistUnicode:*namirin
Creator:ibroko
Version:
Source:
Tags:
BeatmapID:1900418
BeatmapSetID:910737

[Difficulty]
HPDrainRate:6
CircleSize:4
OverallDifficulty:8
ApproachRate:9
SliderMultiplier:2
SliderTickRate:1

[Events]
//Background and Video events
0,0,"640453.jpg",0,0
//Break Periods
//Storyboard Layer 0 (Background)
//Storyboard Layer 1 (Fail)
//Storyboard Layer 2 (Pass)
//Storyboard Layer 3 (Foreground)
//Storyboard Sound Samples

[TimingPoints]
204,444.444444444444,4,2,0,100,1,0
204,-250,4,2,0,100,0,0
1981,-62.5,4,2,0,100,0,0
7759,-60.6060606060606,4,2,0,100,0,0
8203,-58.8235294117647,4,2,0,100,0,0
8648,-57.1428571428571,4,2,0,100,0,0
9092,-62.5,4,2,0,100,0,0
12648,-60.6060606060606,4,2,0,100,0,0
13537,-58.8235294117647,4,2,0,100,0,0
14203,-57.1428571428571,4,2,0,100,0,0
18203,-55.5555555555556,4,2,0,100,0,0
18537,-52.6315789473684,4,2,0,100,0,0
18870,-50,4,2,0,100,0,0

[Colours]
Combo1 : 232,201,172
Combo2 : 57,165,210
Combo3 : 128,175,118
Combo4 : 190,190,24

[HitObjects]
46,69,204,6,0,P|83:64|115:71,1,60
121,79,648,2,0,P|158:84|190:77,1,60
198,72,1092,1,0,0:0:0:0:
164,280,1315,1,0,0:0:0:0:
350,223,1537,1,0,0:0:0:0:
339,205,1648,1,0,0:0:0:0:
327,191,1759,1,0,0:0:0:0:
261,320,1981,6,0,P|356:341|466:309,1,160
397,92,2426,1,0,0:0:0:0:
323,95,2537,1,0,0:0:0:0:
255,126,2648,1,0,0:0:0:0:
429,221,2870,2,0,L|247:215,1,160
191,215,3203,2,0,P|186:154|191:125,2,80
230,281,3537,2,0,P|233:320|227:360,1,80
149,279,3759,6,0,P|80:231|54:154,1,160
62,148,4092,1,0,0:0:0:0:
136,162,4203,6,0,P|100:85|116:6,1,160
127,9,4536,1,0,0:0:0:0:
188,81,4648,6,0,B|267:43|266:118|391:68,1,160
416,45,4981,1,0,0:0:0:0:
410,124,5092,2,0,L|400:203,1,80
469,250,5315,2,0,L|483:134,1,80
488,91,5537,6,0,L|467:259,1,160
444,324,5870,1,0,0:0:0:0:
371,361,5981,2,0,P|354:291|356:270,1,80
374,209,6203,2,0,P|387:172|390:132,1,80
310,135,6426,2,0,P|276:112|251:82,1,80
348,66,6648,2,0,P|384:49|423:43,1,80
389,131,6870,1,0,0:0:0:0:
344,210,6981,1,0,0:0:0:0:
273,259,7092,1,0,0:0:0:0:
185,275,7203,1,0,0:0:0:0:
97,264,7315,6,0,P|89:171|137:81,1,160
301,112,7759,6,0,P|329:190|318:273,1,165.000001573563
107,33,8203,6,0,P|199:15|294:53,1,170.000003242493
252,320,8648,5,0,0:0:0:0:
162,325,8759,1,0,0:0:0:0:
77,293,8870,1,0,0:0:0:0:
480,197,9092,6,0,P|402:181|325:199,1,160
114,362,9537,2,0,P|179:344|211:346,1,80
270,344,9759,2,0,P|289:285|289:259,1,80
252,201,9981,2,0,P|226:147|238:26,1,160
243,43,10315,1,0,0:0:0:0:
274,109,10426,2,0,L|354:100,1,80
418,170,10648,2,0,L|339:180,1,80
252,201,10870,5,0,0:0:0:0:
153,346,11092,1,0,0:0:0:0:
349,339,11315,1,0,0:0:0:0:
37,287,11537,1,0,0:0:0:0:
37,287,11759,2,0,P|27:209|33:181,1,80
62,135,11981,2,0,P|82:100|110:72,1,80
188,57,12203,2,0,L|186:147,1,80
264,213,12426,2,0,L|265:133,1,80
172,233,12648,5,0,0:0:0:0:
172,233,12870,2,0,P|203:278|256:303,1,82.5000007867813
306,296,13092,2,0,P|351:265|376:212,1,82.5000007867813
357,162,13315,2,0,L|348:62,1,82.5000007867813
340,6,13537,1,0,0:0:0:0:
340,6,13759,2,0,L|235:13,1,85.0000016212464
190,93,13981,2,0,L|274:87,1,85.0000016212464
349,79,14203,1,0,0:0:0:0:
349,79,14426,5,0,0:0:0:0:
429,250,14648,1,0,0:0:0:0:
239,240,14870,2,0,L|253:332,2,87.500000834465
204,52,15315,1,0,0:0:0:0:
392,123,15537,1,0,0:0:0:0:
240,237,15759,1,0,0:0:0:0:
240,237,15981,6,0,P|138:235|252:319,1,350.00000333786
357,118,16648,1,0,0:0:0:0:
141,141,16870,1,0,0:0:0:0:
269,316,17092,1,0,0:0:0:0:
269,67,17315,1,0,0:0:0:0:
141,242,17537,2,0,L|235:221,1,87.500000834465
306,219,17759,2,0,L|399:240,2,87.500000834465
265,151,18203,6,0,P|212:85|94:81,1,179.999994506836
243,151,18537,6,0,P|164:121|60:176,1,189.999994926453
224,163,18870,6,0,P|141:176|78:276,1,200
96,278,19203,1,0,0:0:0:0:
112,289,19315,1,0,0:0:0:0:
