osu file format v14

[General]
AudioFilename: audio.mp3
AudioLeadIn: 0
PreviewTime: 65092
Countdown: 0
SampleSet: Normal
StackLeniency: 0.7
Mode: 1
LetterboxInBreaks: 0
WidescreenStoryboard: 0

[Editor]
DistanceSpacing: 0.4
BeatDivisor: 4
GridSize: 32
TimelineZoom: 1.5

[Metadata]
Title:Omajinai
TitleUnicode:オマジナイ
Artist:*namirin
ArtistUnicode:*なみりん
Creator:Ph0eNiiXZ
Version:Inner Oni
Source:osu!
Tags:phoenix phoeniixz japanese jpop j-pop *なみりん なみりん feat. ft. Mitsukiyo ミツキヨ shnva シノバ kasokaso かそかそ おまじない Koishiteiku Planet コイシテイク プラネット コイシテイク・プラネット featured artist fa
BeatmapID:2683403
BeatmapSetID:1293085

[Difficulty]
HPDrainRate:5
CircleSize:2
OverallDifficulty:5
ApproachRate:10
SliderMultiplier:1.4
SliderTickRate:1

[Events]
//Background and Video events
0,0,"omacrop.png",0,66
//Break Periods
//Storyboard Layer 0 (Background)
//Storyboard Layer 1 (Fail)
//Storyboard Layer 2 (Pass)
//Storyboard Layer 3 (Foreground)
//Storyboard Layer 4 (Overlay)
//Storyboard Sound Samples

[TimingPoints]
204,444.444444444444,4,1,0,75,1,0
1870,-100,4,1,0,100,0,0
1981,-83.3333333333333,4,1,0,100,0,0
14648,-84.0336134453781,4,1,0,100,0,0
14870,-84.7457627118644,4,1,0,100,0,0
15092,-85.4700854700855,4,1,0,100,0,0
15203,-85.8369098712446,4,1,0,100,0,0
15315,-86.2068965517241,4,1,0,100,0,0
15537,-86.9565217391304,4,1,0,100,0,0
15759,-87.719298245614,4,1,0,100,0,0
15981,-88.4955752212389,4,1,0,100,0,0
16203,-111.111111111111,4,1,0,100,0,0
16426,-105.263157894737,4,1,0,100,0,0
16648,-102.040816326531,4,1,0,100,0,0
16870,-99.009900990099,4,1,0,100,0,0
17092,-95.2380952380952,4,1,0,100,0,0
17315,-90.0900900900901,4,1,0,100,0,0
17537,-84.7457627118644,4,1,0,100,0,0
17648,-81.9672131147541,4,1,0,100,0,0
17759,-79.3650793650794,4,1,0,100,0,0
17981,-74.0740740740741,4,1,0,100,0,0
18203,-68.9655172413793,4,1,0,100,0,0
18426,-71.9424460431655,4,1,0,100,0,0
18537,-68.9655172413793,4,1,0,100,0,0
18759,-71.9424460431655,4,1,0,100,0,0
18870,-68.9655172413793,4,1,0,100,0,0
18981,-68.9655172413793,4,1,0,80,0,0
19092,-78.125,4,1,0,80,0,0
19203,-80.6451612903226,4,1,0,80,0,0
19315,-83.3333333333333,4,1,0,80,0,0
19648,-100,4,1,0,65,0,0
33203,-100,4,1,0,70,0,0
33389,-97.0873786407767,4,1,0,70,0,0
33537,-95.2380952380952,4,1,0,70,0,0
47870,-95.2380952380952,4,1,0,90,0,0
47981,-86.9565217391304,4,1,0,90,0,0
48055,-83.3333333333333,4,1,0,90,0,0
48129,-80,4,1,0,90,0,0
48203,-76.9230769230769,4,1,0,90,0,0
59648,-111.111111111111,4,1,0,60,0,0
59870,-108.695652173913,4,1,0,67,0,0
60092,-106.382978723404,4,1,0,75,0,0
60315,-104.166666666667,4,1,0,80,0,0
60537,-101.010101010101,4,1,0,85,0,0
60870,-98.0392156862745,4,1,0,85,0,0
61092,-95.2380952380952,4,1,0,85,0,0
61315,-91.743119266055,4,1,0,85,0,0
61537,-88.4955752212389,4,1,0,85,0,0
61759,-85.4700854700855,4,1,0,85,0,0
61981,-82.6446280991736,4,1,0,85,0,0
62092,-80.6451612903226,4,1,0,85,0,0
62203,-78.125,4,1,0,85,0,0
62426,-72.463768115942,4,1,0,85,0,0
62870,-100,4,1,0,85,0,0
65203,-125,4,1,0,92,0,0
65870,-125,4,1,0,100,0,0
65981,-76.9230769230769,4,1,0,100,0,1
94426,-76.9230769230769,4,1,0,100,0,0
96759,-76.9230769230769,4,1,0,85,0,0
96944,-92.5925925925926,4,1,0,85,0,0
97092,-95.2380952380952,4,1,0,85,0,0
97389,-101.010101010101,4,1,0,85,0,0
97537,-104.166666666667,4,1,0,85,0,0
97685,-106.382978723404,4,1,0,85,0,0
97833,-108.695652173913,4,1,0,85,0,0
97870,-111.111111111111,4,1,0,70,0,0
126092,-111.111111111111,4,1,0,90,0,0
126203,-86.9565217391304,4,1,0,90,0,0
126277,-83.3333333333333,4,1,0,90,0,0
126351,-80,4,1,0,90,0,0
126425,-76.9230769230769,4,1,0,90,0,0
137870,-76.9230769230769,4,1,0,60,0,0
137981,-111.111111111111,4,1,0,60,0,0
138092,-111.111111111111,4,1,0,67,0,0
138203,-108.695652173913,4,1,0,67,0,0
138315,-108.695652173913,4,1,0,75,0,0
138425,-106.382978723404,4,1,0,75,0,0
138537,-106.382978723404,4,1,0,80,0,0
138648,-104.166666666667,4,1,0,80,0,0
138759,-104.166666666667,4,1,0,85,0,0
138870,-101.010101010101,4,1,0,85,0,0
139092,-98.0392156862745,4,1,0,85,0,0
139314,-95.2380952380952,4,1,0,85,0,0
139537,-91.743119266055,4,1,0,85,0,0
139759,-88.4955752212389,4,1,0,85,0,0
139981,-85.4700854700855,4,1,0,85,0,0
140203,-82.6446280991736,4,1,0,85,0,0
140314,-80.6451612903226,4,1,0,85,0,0
140425,-78.125,4,1,0,85,0,0
140648,-72.463768115942,4,1,0,85,0,0
141092,-100,4,1,0,85,0,0
143426,-100,4,1,0,92,0,0
143537,-125,4,1,0,92,0,0
144092,-125,4,1,0,100,0,0
144203,-76.9230769230769,4,1,0,100,0,1
172648,-80,4,1,0,100,0,0
185092,-81.9672131147541,4,1,0,87,0,0
185203,-81.9672131147541,4,1,0,82,0,0
185315,-84.0336134453781,4,1,0,82,0,0
185537,-86.2068965517241,4,1,0,82,0,0
185759,-88.4955752212389,4,1,0,82,0,0
185870,-90.0900900900901,4,1,0,82,0,0
185981,-91.743119266055,4,1,0,82,0,0
186203,-94.3396226415094,4,1,0,82,0,0
186426,-97.0873786407767,4,1,0,82,0,0
186759,-97.0873786407767,4,1,0,75,0,0
186870,-100,4,1,0,75,0,0
192426,-100,4,1,0,75,0,0
192648,-99.009900990099,4,1,0,75,0,0
192870,-98.0392156862745,4,1,0,75,0,0
193092,-97.0873786407767,4,1,0,75,0,0
193315,-96.1538461538461,4,1,0,75,0,0
193426,-95.6937799043062,4,1,0,75,0,0
193537,-95.2380952380952,4,1,0,75,0,0
193759,-94.3396226415094,4,1,0,75,0,0
193870,-93.8967136150235,4,1,0,75,0,0
193981,-93.4579439252336,4,1,0,85,0,0
201092,-100,4,1,0,85,0,0
201315,-98.6878463943409,4,1,0,85,0,0
201537,-97.4095868567193,4,1,0,85,0,0
201759,-96.16410982326,4,1,0,85,0,0
201870,-95.5532389203631,4,1,0,85,0,0
201981,-94.9499898403511,4,1,0,85,0,0
202203,-93.7662332791365,4,1,0,85,0,0
202426,-92.6116294275305,4,1,0,85,0,0
202537,-92.0448405645294,4,1,0,85,0,0
202648,-91.4850307618416,4,1,0,85,0,0
202759,-90.9319892372898,4,1,0,85,0,0
202870,-90.3855939824887,4,1,0,85,0,0
202981,-93.4579439252336,4,1,0,90,0,0
203092,-89.3121889703019,4,1,0,90,0,0
203315,-88.2640578164884,4,1,0,90,0,0
203426,-87.7491637504695,4,1,0,90,0,0
203648,-86.7371145511051,4,1,0,90,0,0
203759,-86.2398312458982,4,1,0,90,0,0
203981,-85.2621769309538,4,1,0,90,0,0
204203,-84.3063693462041,4,1,0,90,0,0
204315,-83.8364920128974,4,1,0,90,0,0
204426,-83.3718233251018,4,1,0,90,0,0
204537,-76.9230769230769,4,1,0,100,0,0
204648,-76.9230769230769,4,1,0,100,0,1
233092,-76.9230769230769,4,1,0,100,0,0
233315,-83.3333333333333,4,1,0,100,0,0
247314,-107.52688172043,4,1,0,100,0,0
247426,-107.52688172043,4,1,0,60,0,0
247537,-105.263157894737,4,1,0,60,0,0
247648,-105.263157894737,4,1,0,67,0,0
247759,-103.092783505155,4,1,0,67,0,0
247870,-103.092783505155,4,1,0,75,0,0
247981,-101.010101010101,4,1,0,75,0,0
248092,-101.010101010101,4,1,0,80,0,0
248203,-99.009900990099,4,1,0,80,0,0
248315,-99.009900990099,4,1,0,85,0,0
248426,-97.0873786407767,4,1,0,85,0,0
248537,-96.1538461538461,4,1,0,85,0,0
248648,-95.2380952380952,4,1,0,85,0,0
248759,-94.3396226415094,4,1,0,85,0,0
248870,-93.4579439252336,4,1,0,85,0,0
249092,-90.0900900900901,4,1,0,85,0,0
249315,-83.3333333333333,4,1,0,85,0,0
249537,-84.0336134453781,4,1,0,85,0,0
249648,-79.3650793650794,4,1,0,85,0,0
249870,-78.7401574803149,4,1,0,85,0,0
249981,-74.0740740740741,4,1,0,85,0,0
250203,-71.4285714285714,4,1,0,85,0,0
250426,-71.4285714285714,4,1,0,40,0,0
250648,-66.6666666666667,4,1,0,40,0,0
251315,-66.6666666666667,4,1,0,35,0,0
251759,-66.6666666666667,4,1,0,30,0,0
252203,-66.6666666666667,4,1,0,25,0,0
252648,-66.6666666666667,4,1,0,20,0,0
253092,-66.6666666666667,4,1,0,15,0,0
253537,-66.6666666666667,4,1,0,10,0,0
253981,-66.6666666666667,4,1,0,5,0,0

[HitObjects]
256,192,204,5,8,0:0:0:0:
256,192,648,1,8,0:0:0:0:
256,192,981,1,0,0:0:0:0:
256,192,1092,1,8,0:0:0:0:
256,192,1315,1,0,0:0:0:0:
256,192,1537,1,8,0:0:0:0:
256,192,1648,1,0,0:0:0:0:
256,192,1759,1,0,0:0:0:0:
256,192,1981,1,4,0:0:0:0:
256,192,2203,1,8,0:0:0:0:
256,192,2426,1,0,0:0:0:0:
256,192,2537,1,8,0:0:0:0:
256,192,2648,1,0,0:0:0:0:
256,192,2759,1,0,0:0:0:0:
256,192,2870,1,8,0:0:0:0:
256,192,3092,1,8,0:0:0:0:
256,192,3203,1,8,0:0:0:0:
256,192,3315,1,0,0:0:0:0:
256,192,3426,1,0,0:0:0:0:
256,192,3537,1,8,0:0:0:0:
256,192,3759,1,0,0:0:0:0:
256,192,3981,1,8,0:0:0:0:
256,192,4203,1,0,0:0:0:0:
256,192,4315,1,0,0:0:0:0:
256,192,4426,1,8,0:0:0:0:
256,192,4537,1,0,0:0:0:0:
256,192,4648,1,8,0:0:0:0:
256,192,4870,1,8,0:0:0:0:
256,192,4981,1,0,0:0:0:0:
256,192,5092,1,0,0:0:0:0:
256,192,5203,1,0,0:0:0:0:
256,192,5315,1,8,0:0:0:0:
256,192,5426,1,8,0:0:0:0:
256,192,5537,1,0,0:0:0:0:
256,192,5759,1,8,0:0:0:0:
256,192,5981,1,0,0:0:0:0:
256,192,6092,1,0,0:0:0:0:
256,192,6203,1,8,0:0:0:0:
256,192,6426,1,0,0:0:0:0:
256,192,6648,1,8,0:0:0:0:
256,192,6870,1,0,0:0:0:0:
256,192,6981,1,8,0:0:0:0:
256,192,7092,1,0,0:0:0:0:
256,192,7203,1,0,0:0:0:0:
256,192,7315,1,12,0:0:0:0:
256,192,7537,1,0,0:0:0:0:
256,192,7759,1,12,0:0:0:0:
256,192,7981,1,0,0:0:0:0:
256,192,8203,1,12,0:0:0:0:
256,192,8426,1,0,0:0:0:0:
256,192,8648,1,8,0:0:0:0:
256,192,8759,1,8,0:0:0:0:
256,192,8870,1,0,0:0:0:0:
256,192,9092,1,4,0:0:0:0:
256,192,9315,1,8,0:0:0:0:
256,192,9537,1,0,0:0:0:0:
256,192,9648,1,0,0:0:0:0:
256,192,9759,1,8,0:0:0:0:
256,192,9870,1,8,0:0:0:0:
256,192,9981,1,0,0:0:0:0:
256,192,10203,1,8,0:0:0:0:
256,192,10315,1,8,0:0:0:0:
256,192,10426,1,0,0:0:0:0:
256,192,10537,1,8,0:0:0:0:
256,192,10648,1,0,0:0:0:0:
256,192,10759,1,0,0:0:0:0:
256,192,10870,1,8,0:0:0:0:
256,192,11092,1,8,0:0:0:0:
256,192,11315,1,0,0:0:0:0:
256,192,11426,1,0,0:0:0:0:
256,192,11537,1,8,0:0:0:0:
256,192,11759,1,0,0:0:0:0:
256,192,11981,1,8,0:0:0:0:
256,192,12092,1,0,0:0:0:0:
256,192,12203,1,0,0:0:0:0:
256,192,12315,1,0,0:0:0:0:
256,192,12426,1,8,0:0:0:0:
256,192,12648,1,0,0:0:0:0:
256,192,12870,1,8,0:0:0:0:
256,192,13092,1,0,0:0:0:0:
256,192,13203,1,8,0:0:0:0:
256,192,13315,1,0,0:0:0:0:
256,192,13537,1,8,0:0:0:0:
256,192,13648,1,8,0:0:0:0:
256,192,13759,1,0,0:0:0:0:
256,192,13870,1,8,0:0:0:0:
256,192,13981,1,0,0:0:0:0:
256,192,14092,1,0,0:0:0:0:
256,192,14203,1,12,0:0:0:0:
256,192,14648,1,0,0:0:0:0:
256,192,14870,1,8,0:0:0:0:
256,192,15092,1,0,0:0:0:0:
256,192,15203,1,0,0:0:0:0:
256,192,15315,1,8,0:0:0:0:
256,192,15537,1,8,0:0:0:0:
256,192,15759,1,0,0:0:0:0:
256,192,15981,1,12,0:0:0:0:
256,192,16426,1,8,0:0:0:0:
256,192,16648,1,8,0:0:0:0:
256,192,16870,1,0,0:0:0:0:
256,192,17092,1,0,0:0:0:0:
256,192,17315,1,8,0:0:0:0:
256,192,17537,1,8,0:0:0:0:
256,192,17648,1,0,0:0:0:0:
256,192,17759,1,8,0:0:0:0:
256,192,17981,1,0,0:0:0:0:
256,192,18203,1,12,0:0:0:0:
256,192,18426,1,0,0:0:0:0:
256,192,18537,1,12,0:0:0:0:
256,192,18759,1,0,0:0:0:0:
256,192,18870,1,12,0:0:0:0:
256,192,19092,1,0,0:0:0:0:
256,192,19203,1,0,0:0:0:0:
256,192,19315,1,0,0:0:0:0:
256,192,19759,1,0,0:0:0:0:
256,192,20055,1,8,0:0:0:0:
256,192,20203,1,0,0:0:0:0:
256,192,20500,1,0,0:0:0:0:
256,192,20648,1,8,0:0:0:0:
256,192,20944,1,0,0:0:0:0:
256,192,21092,1,0,0:0:0:0:
256,192,21389,1,8,0:0:0:0:
256,192,21537,1,0,0:0:0:0:
256,192,21833,1,8,0:0:0:0:
256,192,21981,1,0,0:0:0:0:
256,192,22278,1,8,0:0:0:0:
256,192,22722,1,0,0:0:0:0:
256,192,22870,1,8,0:0:0:0:
256,192,23315,1,0,0:0:0:0:
256,192,23611,1,8,0:0:0:0:
256,192,23759,1,0,0:0:0:0:
256,192,24055,1,0,0:0:0:0:
256,192,24203,1,8,0:0:0:0:
256,192,24500,1,0,0:0:0:0:
256,192,24648,1,8,0:0:0:0:
256,192,24944,1,0,0:0:0:0:
256,192,25092,1,0,0:0:0:0:
256,192,25389,1,8,0:0:0:0:
256,192,25833,1,0,0:0:0:0:
256,192,26278,1,0,0:0:0:0:
256,192,26426,1,8,0:0:0:0:
256,192,26722,1,8,0:0:0:0:
256,192,26870,1,0,0:0:0:0:
256,192,27166,1,0,0:0:0:0:
256,192,27315,1,8,0:0:0:0:
256,192,27611,1,0,0:0:0:0:
256,192,27759,1,8,0:0:0:0:
256,192,28055,1,8,0:0:0:0:
256,192,28203,1,8,0:0:0:0:
256,192,28500,1,8,0:0:0:0:
256,192,28648,1,0,0:0:0:0:
256,192,28944,1,0,0:0:0:0:
256,192,29092,1,8,0:0:0:0:
256,192,29389,1,0,0:0:0:0:
256,192,29833,1,0,0:0:0:0:
256,192,29981,1,8,0:0:0:0:
256,192,30278,1,8,0:0:0:0:
256,192,30426,1,0,0:0:0:0:
256,192,30722,1,0,0:0:0:0:
256,192,30870,1,8,0:0:0:0:
256,192,31166,1,0,0:0:0:0:
256,192,31315,1,0,0:0:0:0:
256,192,31611,1,0,0:0:0:0:
256,192,31759,1,8,0:0:0:0:
256,192,32055,1,8,0:0:0:0:
256,192,32500,1,0,0:0:0:0:
256,192,32648,1,8,0:0:0:0:
256,192,32944,1,8,0:0:0:0:
256,192,33389,1,0,0:0:0:0:
256,192,33537,1,12,0:0:0:0:
256,192,33833,1,8,0:0:0:0:
256,192,33907,1,8,0:0:0:0:
256,192,33981,1,0,0:0:0:0:
256,192,34278,1,0,0:0:0:0:
256,192,34426,1,8,0:0:0:0:
256,192,34722,1,0,0:0:0:0:
256,192,34870,1,0,0:0:0:0:
256,192,35166,1,0,0:0:0:0:
256,192,35315,1,8,0:0:0:0:
256,192,35611,1,8,0:0:0:0:
256,192,35759,1,8,0:0:0:0:
256,192,36055,1,0,0:0:0:0:
256,192,36203,1,8,0:0:0:0:
256,192,36500,1,0,0:0:0:0:
256,192,36648,1,0,0:0:0:0:
256,192,36944,1,0,0:0:0:0:
256,192,37092,1,8,0:0:0:0:
256,192,37389,1,8,0:0:0:0:
256,192,37537,1,8,0:0:0:0:
256,192,37833,1,0,0:0:0:0:
256,192,37981,1,8,0:0:0:0:
256,192,38278,1,0,0:0:0:0:
256,192,38426,1,0,0:0:0:0:
256,192,38722,1,0,0:0:0:0:
256,192,38870,1,8,0:0:0:0:
256,192,39166,1,0,0:0:0:0:
256,192,39315,1,12,0:0:0:0:
256,192,39611,1,8,0:0:0:0:
256,192,39759,1,0,0:0:0:0:
256,192,40055,1,0,0:0:0:0:
256,192,40500,1,0,0:0:0:0:
256,192,40648,1,8,0:0:0:0:
256,192,40944,1,8,0:0:0:0:
256,192,41092,1,0,0:0:0:0:
256,192,41389,1,0,0:0:0:0:
256,192,41537,1,8,0:0:0:0:
256,192,41833,1,0,0:0:0:0:
256,192,41981,1,0,0:0:0:0:
256,192,42278,1,0,0:0:0:0:
256,192,42426,1,8,0:0:0:0:
256,192,42722,1,8,0:0:0:0:
256,192,42870,1,0,0:0:0:0:
256,192,43166,1,0,0:0:0:0:
256,192,43315,1,8,0:0:0:0:
256,192,43611,1,0,0:0:0:0:
256,192,44055,1,0,0:0:0:0:
256,192,44203,1,8,0:0:0:0:
256,192,44648,1,8,0:0:0:0:
256,192,44944,1,0,0:0:0:0:
256,192,45092,1,8,0:0:0:0:
256,192,45389,1,0,0:0:0:0:
256,192,45537,1,8,0:0:0:0:
256,192,45833,1,0,0:0:0:0:
256,192,45981,1,8,0:0:0:0:
256,192,46278,1,8,0:0:0:0:
256,192,46426,1,8,0:0:0:0:
256,192,46722,1,0,0:0:0:0:
256,192,46870,1,8,0:0:0:0:
256,192,47018,1,0,0:0:0:0:
256,192,47166,1,8,0:0:0:0:
256,192,47315,1,8,0:0:0:0:
256,192,47611,1,12,0:0:0:0:
256,192,47981,1,8,0:0:0:0:
256,192,48055,1,8,0:0:0:0:
256,192,48129,1,8,0:0:0:0:
256,192,48203,1,0,0:0:0:0:
256,192,48426,1,8,0:0:0:0:
256,192,48537,1,8,0:0:0:0:
256,192,48648,1,0,0:0:0:0:
256,192,48870,1,0,0:0:0:0:
256,192,48981,1,8,0:0:0:0:
256,192,49092,1,0,0:0:0:0:
256,192,49203,1,8,0:0:0:0:
256,192,49315,1,0,0:0:0:0:
256,192,49426,1,0,0:0:0:0:
256,192,49537,1,8,0:0:0:0:
256,192,49759,1,8,0:0:0:0:
256,192,49981,1,0,0:0:0:0:
256,192,50203,1,0,0:0:0:0:
256,192,50315,1,0,0:0:0:0:
256,192,50426,1,8,0:0:0:0:
256,192,50648,1,0,0:0:0:0:
256,192,50759,1,8,0:0:0:0:
256,192,50870,1,0,0:0:0:0:
256,192,50981,1,8,0:0:0:0:
256,192,51092,1,8,0:0:0:0:
256,192,51203,1,0,0:0:0:0:
256,192,51315,1,8,0:0:0:0:
256,192,51537,1,8,0:0:0:0:
256,192,51648,1,8,0:0:0:0:
256,192,51759,1,0,0:0:0:0:
256,192,51981,1,0,0:0:0:0:
256,192,52092,1,0,0:0:0:0:
256,192,52203,1,8,0:0:0:0:
256,192,52426,1,0,0:0:0:0:
256,192,52537,1,8,0:0:0:0:
256,192,52648,1,0,0:0:0:0:
256,192,52759,1,0,0:0:0:0:
256,192,52870,1,8,0:0:0:0:
256,192,52981,1,0,0:0:0:0:
256,192,53092,1,8,0:0:0:0:
256,192,53315,1,8,0:0:0:0:
256,192,53426,1,0,0:0:0:0:
256,192,53537,1,0,0:0:0:0:
256,192,53759,1,8,0:0:0:0:
256,192,53981,1,8,0:0:0:0:
256,192,54092,1,8,0:0:0:0:
256,192,54203,1,0,0:0:0:0:
256,192,54315,1,8,0:0:0:0:
256,192,54537,1,8,0:0:0:0:
256,192,54648,1,0,0:0:0:0:
256,192,54759,1,8,0:0:0:0:
256,192,54870,1,8,0:0:0:0:
256,192,55092,1,8,0:0:0:0:
256,192,55315,1,4,0:0:0:0:
256,192,55537,1,0,0:0:0:0:
256,192,55648,1,8,0:0:0:0:
256,192,55759,1,8,0:0:0:0:
256,192,55981,1,0,0:0:0:0:
256,192,56092,1,8,0:0:0:0:
256,192,56203,1,0,0:0:0:0:
256,192,56315,1,8,0:0:0:0:
256,192,56426,1,0,0:0:0:0:
256,192,56537,1,0,0:0:0:0:
256,192,56648,1,8,0:0:0:0:
256,192,56870,1,8,0:0:0:0:
256,192,57092,1,0,0:0:0:0:
256,192,57315,1,0,0:0:0:0:
256,192,57426,1,0,0:0:0:0:
256,192,57537,1,8,0:0:0:0:
256,192,57759,1,0,0:0:0:0:
256,192,57870,1,8,0:0:0:0:
256,192,57981,1,8,0:0:0:0:
256,192,58092,1,8,0:0:0:0:
256,192,58203,1,0,0:0:0:0:
256,192,58315,1,0,0:0:0:0:
256,192,58426,1,8,0:0:0:0:
256,192,58648,1,0,0:0:0:0:
256,192,58870,1,12,0:0:0:0:
256,192,59759,1,8,0:0:0:0:
256,192,59981,1,0,0:0:0:0:
256,192,60203,1,0,0:0:0:0:
256,192,60426,1,0,0:0:0:0:
256,192,60648,1,8,0:0:0:0:
256,192,60870,1,0,0:0:0:0:
256,192,61092,1,8,0:0:0:0:
256,192,61315,1,0,0:0:0:0:
256,192,61537,1,8,0:0:0:0:
256,192,61759,1,0,0:0:0:0:
256,192,61981,1,8,0:0:0:0:
256,192,62092,1,8,0:0:0:0:
256,192,62203,1,0,0:0:0:0:
256,192,62426,1,12,0:0:0:0:
256,192,63018,1,8,0:0:0:0:
256,192,63166,1,8,0:0:0:0:
256,192,63315,1,0,0:0:0:0:
256,192,63907,1,8,0:0:0:0:
256,192,64055,1,0,0:0:0:0:
256,192,64203,1,0,0:0:0:0:
256,192,64500,1,0,0:0:0:0:
256,192,64574,1,0,0:0:0:0:
256,192,64648,1,8,0:0:0:0:
256,192,65315,1,0,0:0:0:0:
256,192,65537,1,12,0:0:0:0:
256,192,65981,1,4,0:0:0:0:
256,192,66203,1,8,0:0:0:0:
256,192,66315,1,8,0:0:0:0:
256,192,66537,1,8,0:0:0:0:
256,192,66648,1,0,0:0:0:0:
256,192,66759,1,0,0:0:0:0:
256,192,66870,1,8,0:0:0:0:
256,192,67092,1,8,0:0:0:0:
256,192,67203,1,0,0:0:0:0:
256,192,67426,1,0,0:0:0:0:
256,192,67537,1,8,0:0:0:0:
256,192,67759,1,8,0:0:0:0:
256,192,67981,1,0,0:0:0:0:
256,192,68203,1,8,0:0:0:0:
256,192,68315,1,0,0:0:0:0:
256,192,68426,1,8,0:0:0:0:
256,192,68648,1,0,0:0:0:0:
256,192,68759,1,0,0:0:0:0:
256,192,68981,1,8,0:0:0:0:
256,192,69092,1,0,0:0:0:0:
256,192,69203,1,0,0:0:0:0:
256,192,69315,1,8,0:0:0:0:
256,192,69537,1,8,0:0:0:0:
256,192,69759,1,0,0:0:0:0:
256,192,69870,1,8,0:0:0:0:
256,192,69981,1,0,0:0:0:0:
256,192,70092,1,0,0:0:0:0:
256,192,70203,1,8,0:0:0:0:
256,192,70426,1,8,0:0:0:0:
256,192,70648,1,0,0:0:0:0:
256,192,70759,1,0,0:0:0:0:
256,192,70870,1,8,0:0:0:0:
256,192,70981,1,8,0:0:0:0:
256,192,71092,1,0,0:0:0:0:
256,192,71315,1,12,0:0:0:0:
256,192,71537,1,0,0:0:0:0:
256,192,71759,1,12,0:0:0:0:
256,192,71981,1,0,0:0:0:0:
256,192,72203,1,8,0:0:0:0:
256,192,72315,1,0,0:0:0:0:
256,192,72537,1,8,0:0:0:0:
256,192,72648,1,0,0:0:0:0:
256,192,72759,1,0,0:0:0:0:
256,192,72870,1,8,0:0:0:0:
256,192,73092,1,4,0:0:0:0:
256,192,73315,1,8,0:0:0:0:
256,192,73537,1,0,0:0:0:0:
256,192,73648,1,0,0:0:0:0:
256,192,73759,1,8,0:0:0:0:
256,192,73981,1,0,0:0:0:0:
256,192,74203,1,8,0:0:0:0:
256,192,74315,1,0,0:0:0:0:
256,192,74537,1,0,0:0:0:0:
256,192,74648,1,8,0:0:0:0:
256,192,74870,1,0,0:0:0:0:
256,192,75092,1,8,0:0:0:0:
256,192,75315,1,0,0:0:0:0:
256,192,75537,1,8,0:0:0:0:
256,192,75648,1,0,0:0:0:0:
256,192,75870,1,0,0:0:0:0:
256,192,75981,1,8,0:0:0:0:
256,192,76203,1,0,0:0:0:0:
256,192,76315,1,0,0:0:0:0:
256,192,76426,1,8,0:0:0:0:
256,192,76648,1,0,0:0:0:0:
256,192,76870,1,8,0:0:0:0:
256,192,77092,1,8,0:0:0:0:
256,192,77203,1,0,0:0:0:0:
256,192,77315,1,8,0:0:0:0:
256,192,77537,1,0,0:0:0:0:
256,192,77759,1,8,0:0:0:0:
256,192,77870,1,8,0:0:0:0:
256,192,77981,1,0,0:0:0:0:
256,192,78203,1,12,0:0:0:0:
256,192,78426,1,0,0:0:0:0:
256,192,78648,1,8,0:0:0:0:
256,192,78870,1,8,0:0:0:0:
256,192,78981,1,0,0:0:0:0:
256,192,79092,1,8,0:0:0:0:
256,192,79315,1,4,0:0:0:0:
256,192,79537,1,8,0:0:0:0:
256,192,79759,1,8,0:0:0:0:
256,192,79870,1,8,0:0:0:0:
256,192,79981,1,0,0:0:0:0:
256,192,80203,1,12,0:0:0:0:
256,192,80426,1,8,0:0:0:0:
256,192,80537,1,0,0:0:0:0:
256,192,80759,1,0,0:0:0:0:
256,192,80870,1,8,0:0:0:0:
256,192,80981,1,0,0:0:0:0:
256,192,81092,1,8,0:0:0:0:
256,192,81315,1,0,0:0:0:0:
256,192,81426,1,8,0:0:0:0:
256,192,81648,1,0,0:0:0:0:
256,192,81759,1,8,0:0:0:0:
256,192,81870,1,8,0:0:0:0:
256,192,81981,1,0,0:0:0:0:
256,192,82203,1,8,0:0:0:0:
256,192,82426,1,0,0:0:0:0:
256,192,82537,1,0,0:0:0:0:
256,192,82648,1,8,0:0:0:0:
256,192,82870,1,8,0:0:0:0:
256,192,82981,1,0,0:0:0:0:
256,192,83092,1,0,0:0:0:0:
256,192,83203,1,8,0:0:0:0:
256,192,83426,1,0,0:0:0:0:
256,192,83537,1,0,0:0:0:0:
256,192,83759,1,8,0:0:0:0:
256,192,83981,1,0,0:0:0:0:
256,192,84092,1,0,0:0:0:0:
256,192,84203,1,8,0:0:0:0:
256,192,84426,1,12,0:0:0:0:
256,192,84870,1,8,0:0:0:0:
256,192,85092,1,8,0:0:0:0:
256,192,85315,1,12,0:0:0:0:
256,192,85759,1,8,0:0:0:0:
256,192,85981,1,0,0:0:0:0:
256,192,86203,1,12,0:0:0:0:
256,192,86648,1,0,0:0:0:0:
256,192,86870,1,8,0:0:0:0:
256,192,87092,1,0,0:0:0:0:
256,192,87203,1,0,0:0:0:0:
256,192,87315,1,8,0:0:0:0:
256,192,87537,1,0,0:0:0:0:
256,192,87759,1,8,0:0:0:0:
256,192,87981,1,8,0:0:0:0:
256,192,88203,1,0,0:0:0:0:
256,192,88426,1,8,0:0:0:0:
256,192,88648,1,0,0:0:0:0:
256,192,88870,1,8,0:0:0:0:
256,192,89092,1,8,0:0:0:0:
256,192,89315,1,0,0:0:0:0:
256,192,89537,1,0,0:0:0:0:
256,192,89759,1,8,0:0:0:0:
256,192,89981,1,0,0:0:0:0:
256,192,90203,1,0,0:0:0:0:
256,192,90426,1,8,0:0:0:0:
256,192,90648,1,0,0:0:0:0:
256,192,91092,1,0,0:0:0:0:
256,192,91315,1,8,0:0:0:0:
256,192,91537,1,0,0:0:0:0:
256,192,91759,1,8,0:0:0:0:
256,192,91981,1,8,0:0:0:0:
256,192,92203,1,8,0:0:0:0:
256,192,92426,1,0,0:0:0:0:
256,192,92648,1,8,0:0:0:0:
256,192,92870,1,0,0:0:0:0:
256,192,93092,1,8,0:0:0:0:
256,192,93315,1,8,0:0:0:0:
256,192,93759,1,0,0:0:0:0:
256,192,93981,1,8,0:0:0:0:
256,192,94426,1,4,0:0:0:0:
256,192,94648,1,8,0:0:0:0:
256,192,94870,1,0,0:0:0:0:
256,192,95092,1,12,0:0:0:0:
256,192,95537,1,12,0:0:0:0:
256,192,95759,1,0,0:0:0:0:
256,192,95981,1,12,0:0:0:0:
256,192,96426,1,12,0:0:0:0:
256,192,96944,1,0,0:0:0:0:
256,192,97092,1,0,0:0:0:0:
256,192,97389,1,8,0:0:0:0:
256,192,97537,1,8,0:0:0:0:
256,192,97685,1,8,0:0:0:0:
256,192,97833,1,0,0:0:0:0:
256,192,97981,1,0,0:0:0:0:
256,192,98278,1,0,0:0:0:0:
256,192,98426,1,8,0:0:0:0:
256,192,98722,1,0,0:0:0:0:
256,192,98870,1,0,0:0:0:0:
256,192,99166,1,0,0:0:0:0:
256,192,99315,1,8,0:0:0:0:
256,192,99611,1,8,0:0:0:0:
256,192,99759,1,8,0:0:0:0:
256,192,100055,1,0,0:0:0:0:
256,192,100203,1,8,0:0:0:0:
256,192,100500,1,0,0:0:0:0:
256,192,100648,1,8,0:0:0:0:
256,192,100796,1,8,0:0:0:0:
256,192,100944,1,0,0:0:0:0:
256,192,101092,1,8,0:0:0:0:
256,192,101389,1,8,0:0:0:0:
256,192,101537,1,0,0:0:0:0:
256,192,101833,1,0,0:0:0:0:
256,192,101981,1,8,0:0:0:0:
256,192,102278,1,0,0:0:0:0:
256,192,102426,1,0,0:0:0:0:
256,192,102722,1,0,0:0:0:0:
256,192,102870,1,8,0:0:0:0:
256,192,103166,1,8,0:0:0:0:
256,192,103315,1,4,0:0:0:0:
256,192,103611,1,8,0:0:0:0:
256,192,103759,1,8,0:0:0:0:
256,192,104055,1,0,0:0:0:0:
256,192,104203,1,0,0:0:0:0:
256,192,104352,1,8,0:0:0:0:
256,192,104500,1,0,0:0:0:0:
256,192,104648,1,8,0:0:0:0:
256,192,104944,1,8,0:0:0:0:
256,192,105092,1,8,0:0:0:0:
256,192,105389,1,0,0:0:0:0:
256,192,105537,1,8,0:0:0:0:
256,192,105833,1,8,0:0:0:0:
256,192,105981,1,0,0:0:0:0:
256,192,106278,1,0,0:0:0:0:
256,192,106426,1,8,0:0:0:0:
256,192,106722,1,8,0:0:0:0:
256,192,106870,1,0,0:0:0:0:
256,192,107166,1,0,0:0:0:0:
256,192,107315,1,8,0:0:0:0:
256,192,107611,1,0,0:0:0:0:
256,192,107759,1,0,0:0:0:0:
256,192,108055,1,0,0:0:0:0:
256,192,108203,1,8,0:0:0:0:
256,192,108500,1,8,0:0:0:0:
256,192,108648,1,0,0:0:0:0:
256,192,109092,1,8,0:0:0:0:
256,192,109389,1,0,0:0:0:0:
256,192,109537,1,0,0:0:0:0:
256,192,109833,1,0,0:0:0:0:
256,192,109981,1,8,0:0:0:0:
256,192,110278,1,12,0:0:0:0:
256,192,110722,1,8,0:0:0:0:
256,192,110870,1,0,0:0:0:0:
256,192,111166,1,8,0:0:0:0:
256,192,111611,1,0,0:0:0:0:
256,192,111759,1,8,0:0:0:0:
256,192,112055,1,0,0:0:0:0:
256,192,112203,1,0,0:0:0:0:
256,192,112500,1,0,0:0:0:0:
256,192,112648,1,8,0:0:0:0:
256,192,112944,1,0,0:0:0:0:
256,192,113092,1,0,0:0:0:0:
256,192,113389,1,0,0:0:0:0:
256,192,113537,1,8,0:0:0:0:
256,192,113833,1,8,0:0:0:0:
256,192,113981,1,8,0:0:0:0:
256,192,114278,1,0,0:0:0:0:
256,192,114426,1,8,0:0:0:0:
256,192,114722,1,8,0:0:0:0:
256,192,114870,1,8,0:0:0:0:
256,192,115018,1,8,0:0:0:0:
256,192,115166,1,0,0:0:0:0:
256,192,115315,1,8,0:0:0:0:
256,192,115611,1,8,0:0:0:0:
256,192,115759,1,8,0:0:0:0:
256,192,116055,1,0,0:0:0:0:
256,192,116203,1,8,0:0:0:0:
256,192,116500,1,0,0:0:0:0:
256,192,116648,1,0,0:0:0:0:
256,192,116944,1,0,0:0:0:0:
256,192,117092,1,8,0:0:0:0:
256,192,117389,1,8,0:0:0:0:
256,192,117537,1,8,0:0:0:0:
256,192,117833,1,0,0:0:0:0:
256,192,117981,1,8,0:0:0:0:
256,192,118278,1,8,0:0:0:0:
256,192,118722,1,8,0:0:0:0:
256,192,118870,1,8,0:0:0:0:
256,192,119018,1,0,0:0:0:0:
256,192,119166,1,0,0:0:0:0:
256,192,119315,1,8,0:0:0:0:
256,192,119611,1,0,0:0:0:0:
256,192,119759,1,8,0:0:0:0:
256,192,120055,1,0,0:0:0:0:
256,192,120203,1,0,0:0:0:0:
256,192,120500,1,0,0:0:0:0:
256,192,120648,1,8,0:0:0:0:
256,192,120944,1,0,0:0:0:0:
256,192,121092,1,8,0:0:0:0:
256,192,121241,1,0,0:0:0:0:
256,192,121389,1,0,0:0:0:0:
256,192,121537,1,8,0:0:0:0:
256,192,121833,1,8,0:0:0:0:
256,192,121981,1,0,0:0:0:0:
256,192,122278,1,0,0:0:0:0:
256,192,122426,1,8,0:0:0:0:
256,192,122870,1,8,0:0:0:0:
256,192,123166,1,0,0:0:0:0:
256,192,123315,1,8,0:0:0:0:
256,192,123611,1,0,0:0:0:0:
256,192,123759,1,8,0:0:0:0:
256,192,124055,1,0,0:0:0:0:
256,192,124203,1,0,0:0:0:0:
256,192,124500,1,0,0:0:0:0:
256,192,124648,1,8,0:0:0:0:
256,192,124944,1,8,0:0:0:0:
256,192,125092,1,0,0:0:0:0:
256,192,125389,1,0,0:0:0:0:
256,192,125463,1,0,0:0:0:0:
256,192,125537,1,0,0:0:0:0:
256,192,125833,1,12,0:0:0:0:
256,192,126203,1,8,0:0:0:0:
256,192,126278,1,8,0:0:0:0:
256,192,126352,1,8,0:0:0:0:
256,192,126426,1,0,0:0:0:0:
256,192,126648,1,8,0:0:0:0:
256,192,126759,1,0,0:0:0:0:
256,192,126870,1,8,0:0:0:0:
256,192,127092,1,8,0:0:0:0:
256,192,127203,1,0,0:0:0:0:
256,192,127315,1,8,0:0:0:0:
256,192,127426,1,0,0:0:0:0:
256,192,127537,1,0,0:0:0:0:
256,192,127648,1,0,0:0:0:0:
256,192,127759,1,8,0:0:0:0:
256,192,127981,1,8,0:0:0:0:
256,192,128203,1,0,0:0:0:0:
256,192,128426,1,8,0:0:0:0:
256,192,128537,1,0,0:0:0:0:
256,192,128648,1,8,0:0:0:0:
256,192,128759,1,8,0:0:0:0:
256,192,128870,1,0,0:0:0:0:
256,192,128981,1,8,0:0:0:0:
256,192,129203,1,8,0:0:0:0:
256,192,129315,1,0,0:0:0:0:
256,192,129426,1,0,0:0:0:0:
256,192,129537,1,8,0:0:0:0:
256,192,129648,1,8,0:0:0:0:
256,192,129759,1,0,0:0:0:0:
256,192,129870,1,8,0:0:0:0:
256,192,129981,1,0,0:0:0:0:
256,192,130203,1,8,0:0:0:0:
256,192,130315,1,0,0:0:0:0:
256,192,130426,1,8,0:0:0:0:
256,192,130537,1,8,0:0:0:0:
256,192,130648,1,0,0:0:0:0:
256,192,130759,1,8,0:0:0:0:
256,192,130981,1,0,0:0:0:0:
256,192,131092,1,8,0:0:0:0:
256,192,131203,1,0,0:0:0:0:
256,192,131315,1,8,0:0:0:0:
256,192,131537,1,0,0:0:0:0:
256,192,131759,1,0,0:0:0:0:
256,192,131981,1,8,0:0:0:0:
256,192,132203,1,8,0:0:0:0:
256,192,132315,1,8,0:0:0:0:
256,192,132426,1,0,0:0:0:0:
256,192,132537,1,8,0:0:0:0:
256,192,132759,1,8,0:0:0:0:
256,192,132870,1,0,0:0:0:0:
256,192,132981,1,8,0:0:0:0:
256,192,133092,1,8,0:0:0:0:
256,192,133315,1,8,0:0:0:0:
256,192,133537,1,4,0:0:0:0:
256,192,133759,1,8,0:0:0:0:
256,192,133981,1,0,0:0:0:0:
256,192,134092,1,0,0:0:0:0:
256,192,134203,1,8,0:0:0:0:
256,192,134315,1,0,0:0:0:0:
256,192,134426,1,0,0:0:0:0:
256,192,134648,1,8,0:0:0:0:
256,192,134759,1,0,0:0:0:0:
256,192,134870,1,0,0:0:0:0:
256,192,135092,1,8,0:0:0:0:
256,192,135315,1,0,0:0:0:0:
256,192,135537,1,8,0:0:0:0:
256,192,135648,1,0,0:0:0:0:
256,192,135759,1,0,0:0:0:0:
256,192,135870,1,0,0:0:0:0:
256,192,135981,1,8,0:0:0:0:
256,192,136092,1,8,0:0:0:0:
256,192,136203,1,0,0:0:0:0:
256,192,136426,1,8,0:0:0:0:
256,192,136537,1,0,0:0:0:0:
256,192,136648,1,8,0:0:0:0:
256,192,136870,1,0,0:0:0:0:
256,192,137092,1,12,0:0:0:0:
256,192,137981,1,8,0:0:0:0:
256,192,138203,1,0,0:0:0:0:
256,192,138426,1,0,0:0:0:0:
256,192,138648,1,0,0:0:0:0:
256,192,138870,1,8,0:0:0:0:
256,192,139092,1,0,0:0:0:0:
256,192,139315,1,8,0:0:0:0:
256,192,139537,1,0,0:0:0:0:
256,192,139759,1,8,0:0:0:0:
256,192,139981,1,0,0:0:0:0:
256,192,140203,1,8,0:0:0:0:
256,192,140315,1,8,0:0:0:0:
256,192,140426,1,0,0:0:0:0:
256,192,140648,1,12,0:0:0:0:
256,192,141241,1,8,0:0:0:0:
256,192,141389,1,8,0:0:0:0:
256,192,141537,1,0,0:0:0:0:
256,192,142129,1,8,0:0:0:0:
256,192,142278,1,0,0:0:0:0:
256,192,142426,1,0,0:0:0:0:
256,192,142722,1,0,0:0:0:0:
256,192,142796,1,0,0:0:0:0:
256,192,142870,1,8,0:0:0:0:
256,192,143537,1,0,0:0:0:0:
256,192,143759,1,12,0:0:0:0:
256,192,144203,1,4,0:0:0:0:
256,192,144426,1,8,0:0:0:0:
256,192,144648,1,0,0:0:0:0:
256,192,144759,1,8,0:0:0:0:
256,192,144870,1,8,0:0:0:0:
256,192,144981,1,0,0:0:0:0:
256,192,145092,1,0,0:0:0:0:
256,192,145315,1,8,0:0:0:0:
256,192,145426,1,0,0:0:0:0:
256,192,145648,1,0,0:0:0:0:
256,192,145759,1,8,0:0:0:0:
256,192,145981,1,8,0:0:0:0:
256,192,146203,1,0,0:0:0:0:
256,192,146426,1,8,0:0:0:0:
256,192,146537,1,0,0:0:0:0:
256,192,146648,1,8,0:0:0:0:
256,192,146759,1,8,0:0:0:0:
256,192,146870,1,0,0:0:0:0:
256,192,146981,1,8,0:0:0:0:
256,192,147203,1,8,0:0:0:0:
256,192,147426,1,0,0:0:0:0:
256,192,147537,1,8,0:0:0:0:
256,192,147648,1,8,0:0:0:0:
256,192,147759,1,0,0:0:0:0:
256,192,147981,1,8,0:0:0:0:
256,192,148092,1,0,0:0:0:0:
256,192,148203,1,8,0:0:0:0:
256,192,148315,1,8,0:0:0:0:
256,192,148426,1,0,0:0:0:0:
256,192,148537,1,0,0:0:0:0:
256,192,148648,1,8,0:0:0:0:
256,192,148870,1,0,0:0:0:0:
256,192,148981,1,8,0:0:0:0:
256,192,149203,1,0,0:0:0:0:
256,192,149315,1,8,0:0:0:0:
256,192,149537,1,12,0:0:0:0:
256,192,149759,1,0,0:0:0:0:
256,192,149981,1,12,0:0:0:0:
256,192,150203,1,0,0:0:0:0:
256,192,150426,1,8,0:0:0:0:
256,192,150537,1,8,0:0:0:0:
256,192,150648,1,0,0:0:0:0:
256,192,150759,1,8,0:0:0:0:
256,192,150870,1,0,0:0:0:0:
256,192,150981,1,0,0:0:0:0:
256,192,151092,1,8,0:0:0:0:
256,192,151203,1,0,0:0:0:0:
256,192,151315,1,8,0:0:0:0:
256,192,151537,1,0,0:0:0:0:
256,192,151648,1,8,0:0:0:0:
256,192,151759,1,0,0:0:0:0:
256,192,151981,1,8,0:0:0:0:
256,192,152203,1,0,0:0:0:0:
256,192,152426,1,8,0:0:0:0:
256,192,152537,1,0,0:0:0:0:
256,192,152759,1,0,0:0:0:0:
256,192,152870,1,8,0:0:0:0:
256,192,153092,1,0,0:0:0:0:
256,192,153315,1,8,0:0:0:0:
256,192,153537,1,0,0:0:0:0:
256,192,153759,1,8,0:0:0:0:
256,192,153870,1,0,0:0:0:0:
256,192,154092,1,0,0:0:0:0:
256,192,154203,1,8,0:0:0:0:
256,192,154315,1,0,0:0:0:0:
256,192,154426,1,0,0:0:0:0:
256,192,154537,1,0,0:0:0:0:
256,192,154648,1,8,0:0:0:0:
256,192,154870,1,0,0:0:0:0:
256,192,155092,1,8,0:0:0:0:
256,192,155315,1,0,0:0:0:0:
256,192,155426,1,0,0:0:0:0:
256,192,155537,1,8,0:0:0:0:
256,192,155648,1,0,0:0:0:0:
256,192,155870,1,0,0:0:0:0:
256,192,155981,1,8,0:0:0:0:
256,192,156092,1,8,0:0:0:0:
256,192,156203,1,0,0:0:0:0:
256,192,156426,1,8,0:0:0:0:
256,192,156648,1,4,0:0:0:0:
256,192,156870,1,8,0:0:0:0:
256,192,157092,1,8,0:0:0:0:
256,192,157203,1,0,0:0:0:0:
256,192,157315,1,8,0:0:0:0:
256,192,157537,1,4,0:0:0:0:
256,192,157759,1,8,0:0:0:0:
256,192,157981,1,8,0:0:0:0:
256,192,158092,1,8,0:0:0:0:
256,192,158203,1,0,0:0:0:0:
256,192,158426,1,12,0:0:0:0:
256,192,158648,1,8,0:0:0:0:
256,192,158759,1,0,0:0:0:0:
256,192,158981,1,0,0:0:0:0:
256,192,159092,1,8,0:0:0:0:
256,192,159203,1,8,0:0:0:0:
256,192,159315,1,0,0:0:0:0:
256,192,159537,1,8,0:0:0:0:
256,192,159648,1,0,0:0:0:0:
256,192,159870,1,0,0:0:0:0:
256,192,159981,1,8,0:0:0:0:
256,192,160092,1,0,0:0:0:0:
256,192,160203,1,8,0:0:0:0:
256,192,160426,1,0,0:0:0:0:
256,192,160648,1,8,0:0:0:0:
256,192,160759,1,8,0:0:0:0:
256,192,160870,1,0,0:0:0:0:
256,192,160981,1,8,0:0:0:0:
256,192,161092,1,0,0:0:0:0:
256,192,161203,1,8,0:0:0:0:
256,192,161426,1,8,0:0:0:0:
256,192,161537,1,0,0:0:0:0:
256,192,161648,1,0,0:0:0:0:
256,192,161759,1,8,0:0:0:0:
256,192,161870,1,8,0:0:0:0:
256,192,161981,1,0,0:0:0:0:
256,192,162203,1,8,0:0:0:0:
256,192,162315,1,0,0:0:0:0:
256,192,162426,1,0,0:0:0:0:
256,192,162648,1,12,0:0:0:0:
256,192,163092,1,8,0:0:0:0:
256,192,163315,1,8,0:0:0:0:
256,192,163537,1,12,0:0:0:0:
256,192,163981,1,8,0:0:0:0:
256,192,164203,1,0,0:0:0:0:
256,192,164426,1,12,0:0:0:0:
256,192,164870,1,0,0:0:0:0:
256,192,165092,1,8,0:0:0:0:
256,192,165315,1,0,0:0:0:0:
256,192,165426,1,0,0:0:0:0:
256,192,165537,1,8,0:0:0:0:
256,192,165759,1,0,0:0:0:0:
256,192,165981,1,8,0:0:0:0:
256,192,166203,1,8,0:0:0:0:
256,192,166315,1,0,0:0:0:0:
256,192,166426,1,8,0:0:0:0:
256,192,166648,1,0,0:0:0:0:
256,192,166870,1,8,0:0:0:0:
256,192,167092,1,0,0:0:0:0:
256,192,167203,1,0,0:0:0:0:
256,192,167315,1,8,0:0:0:0:
256,192,167537,1,0,0:0:0:0:
256,192,167759,1,8,0:0:0:0:
256,192,167981,1,8,0:0:0:0:
256,192,168426,1,0,0:0:0:0:
256,192,168648,1,8,0:0:0:0:
256,192,168870,1,0,0:0:0:0:
256,192,169315,1,0,0:0:0:0:
256,192,169537,1,8,0:0:0:0:
256,192,169759,1,0,0:0:0:0:
256,192,169981,1,8,0:0:0:0:
256,192,170203,1,0,0:0:0:0:
256,192,170315,1,8,0:0:0:0:
256,192,170426,1,0,0:0:0:0:
256,192,170648,1,0,0:0:0:0:
256,192,170870,1,8,0:0:0:0:
256,192,171092,1,0,0:0:0:0:
256,192,171315,1,8,0:0:0:0:
256,192,171537,1,8,0:0:0:0:
256,192,171981,1,0,0:0:0:0:
256,192,172203,1,8,0:0:0:0:
256,192,172648,1,4,0:0:0:0:
256,192,172870,1,0,0:0:0:0:
256,192,173092,1,8,0:0:0:0:
256,192,173315,1,0,0:0:0:0:
249,191,173537,1,0,0:0:0:0:
256,192,173759,1,0,0:0:0:0:
256,192,173870,1,0,0:0:0:0:
256,192,173981,1,8,0:0:0:0:
256,192,174203,1,0,0:0:0:0:
256,192,174648,1,0,0:0:0:0:
256,192,174759,1,0,0:0:0:0:
256,192,174870,1,8,0:0:0:0:
256,192,175092,1,0,0:0:0:0:
249,191,175315,1,0,0:0:0:0:
256,192,175537,1,8,0:0:0:0:
256,192,175648,1,0,0:0:0:0:
256,192,175759,1,8,0:0:0:0:
256,192,175981,1,0,0:0:0:0:
256,192,176203,1,12,0:0:0:0:
256,192,176426,1,0,0:0:0:0:
256,192,176648,1,8,0:0:0:0:
256,192,176870,1,8,0:0:0:0:
248,192,177092,1,0,0:0:0:0:
256,192,177315,1,0,0:0:0:0:
256,192,177426,1,0,0:0:0:0:
256,192,177537,1,8,0:0:0:0:
256,192,177759,1,0,0:0:0:0:
256,192,178203,1,0,0:0:0:0:
256,192,178315,1,0,0:0:0:0:
256,192,178426,1,8,0:0:0:0:
256,192,178648,1,0,0:0:0:0:
248,192,178870,1,0,0:0:0:0:
256,192,179092,1,0,0:0:0:0:
256,192,179203,1,0,0:0:0:0:
256,192,179315,1,8,0:0:0:0:
256,192,179426,1,8,0:0:0:0:
256,192,179537,1,0,0:0:0:0:
256,192,179759,1,12,0:0:0:0:
256,192,179981,1,8,0:0:0:0:
256,192,180203,1,0,0:0:0:0:
256,192,180426,1,8,0:0:0:0:
256,192,180870,1,0,0:0:0:0:
256,192,181092,1,8,0:0:0:0:
256,192,181315,1,8,0:0:0:0:
256,192,181759,1,0,0:0:0:0:
256,192,181981,1,8,0:0:0:0:
256,192,182203,1,12,0:0:0:0:
256,192,182648,1,0,0:0:0:0:
256,192,182759,1,0,0:0:0:0:
256,192,182870,1,8,0:0:0:0:
256,192,183092,1,0,0:0:0:0:
256,192,183315,1,12,0:0:0:0:
256,192,183537,1,0,0:0:0:0:
256,192,183759,1,8,0:0:0:0:
256,192,183981,1,0,0:0:0:0:
256,192,184426,1,8,0:0:0:0:
256,192,184648,1,0,0:0:0:0:
256,192,184870,1,8,0:0:0:0:
256,192,185315,1,0,0:0:0:0:
256,192,185537,1,8,0:0:0:0:
256,192,185759,1,0,0:0:0:0:
256,192,185870,1,8,0:0:0:0:
256,192,185981,1,8,0:0:0:0:
256,192,186203,1,0,0:0:0:0:
256,192,186426,1,0,0:0:0:0:
256,192,186870,1,8,0:0:0:0:
256,192,187315,1,0,0:0:0:0:
256,192,187537,1,0,0:0:0:0:
256,192,187759,1,8,0:0:0:0:
256,192,187981,1,0,0:0:0:0:
256,192,188426,1,8,0:0:0:0:
256,192,188870,1,8,0:0:0:0:
256,192,189092,1,0,0:0:0:0:
256,192,189315,1,0,0:0:0:0:
256,192,189537,1,8,0:0:0:0:
256,192,190203,1,8,0:0:0:0:
256,192,190315,1,8,0:0:0:0:
256,192,190426,1,0,0:0:0:0:
256,192,190648,1,8,0:0:0:0:
256,192,190870,1,0,0:0:0:0:
256,192,191092,1,0,0:0:0:0:
256,192,191315,1,8,0:0:0:0:
256,192,191759,1,0,0:0:0:0:
256,192,191981,1,8,0:0:0:0:
256,192,192426,1,8,0:0:0:0:
256,192,192648,1,8,0:0:0:0:
256,192,192870,1,0,0:0:0:0:
256,192,193092,1,8,0:0:0:0:
256,192,193315,1,0,0:0:0:0:
256,192,193426,1,8,0:0:0:0:
256,192,193537,1,8,0:0:0:0:
256,192,193759,1,0,0:0:0:0:
256,192,193870,1,0,0:0:0:0:
256,192,193981,1,12,0:0:0:0:
256,192,194203,1,0,0:0:0:0:
256,192,194426,1,8,0:0:0:0:
256,192,194648,1,0,0:0:0:0:
256,192,194759,1,0,0:0:0:0:
256,192,194870,1,8,0:0:0:0:
256,192,195092,1,0,0:0:0:0:
256,192,195315,1,8,0:0:0:0:
256,192,195537,1,0,0:0:0:0:
256,192,195648,1,0,0:0:0:0:
256,192,195759,1,8,0:0:0:0:
256,192,195981,1,0,0:0:0:0:
256,192,196203,1,8,0:0:0:0:
256,192,196426,1,0,0:0:0:0:
256,192,196537,1,0,0:0:0:0:
256,192,196648,1,8,0:0:0:0:
256,192,196759,1,8,0:0:0:0:
256,192,196870,1,0,0:0:0:0:
256,192,197092,1,4,0:0:0:0:
256,192,197315,1,0,0:0:0:0:
256,192,197537,1,12,0:0:0:0:
256,192,197759,1,0,0:0:0:0:
256,192,197870,1,0,0:0:0:0:
256,192,197981,1,8,0:0:0:0:
256,192,198203,1,8,0:0:0:0:
256,192,198648,1,0,0:0:0:0:
256,192,198870,1,8,0:0:0:0:
256,192,199092,1,0,0:0:0:0:
256,192,199537,1,0,0:0:0:0:
256,192,199759,1,8,0:0:0:0:
256,192,199981,1,8,0:0:0:0:
256,192,200426,1,8,0:0:0:0:
256,192,200648,1,8,0:0:0:0:
256,192,200870,1,4,0:0:0:0:
256,192,201315,1,0,0:0:0:0:
256,192,201537,1,0,0:0:0:0:
256,192,201759,1,8,0:0:0:0:
256,192,201870,1,8,0:0:0:0:
256,192,201981,1,0,0:0:0:0:
256,192,202203,1,8,0:0:0:0:
256,192,202426,1,8,0:0:0:0:
256,192,202537,1,0,0:0:0:0:
256,192,202648,1,0,0:0:0:0:
256,192,202759,1,8,0:0:0:0:
256,192,202870,1,0,0:0:0:0:
256,192,203092,1,12,0:0:0:0:
256,192,203315,1,0,0:0:0:0:
256,192,203426,1,12,0:0:0:0:
256,192,203648,1,0,0:0:0:0:
256,192,203759,1,12,0:0:0:0:
256,192,203981,1,8,0:0:0:0:
256,192,204203,1,8,0:0:0:0:
256,192,204315,1,8,0:0:0:0:
256,192,204426,1,0,0:0:0:0:
256,192,204648,1,4,0:0:0:0:
256,192,204870,1,8,0:0:0:0:
256,192,204981,1,0,0:0:0:0:
256,192,205092,1,8,0:0:0:0:
256,192,205203,1,8,0:0:0:0:
256,192,205315,1,0,0:0:0:0:
256,192,205426,1,0,0:0:0:0:
256,192,205537,1,8,0:0:0:0:
256,192,205759,1,0,0:0:0:0:
256,192,205870,1,8,0:0:0:0:
256,192,206092,1,0,0:0:0:0:
256,192,206203,1,8,0:0:0:0:
256,192,206315,1,0,0:0:0:0:
256,192,206426,1,8,0:0:0:0:
256,192,206648,1,0,0:0:0:0:
256,192,206759,1,0,0:0:0:0:
256,192,206870,1,8,0:0:0:0:
256,192,206981,1,0,0:0:0:0:
256,192,207092,1,8,0:0:0:0:
256,192,207203,1,8,0:0:0:0:
256,192,207315,1,8,0:0:0:0:
256,192,207426,1,0,0:0:0:0:
256,192,207648,1,8,0:0:0:0:
256,192,207870,1,0,0:0:0:0:
256,192,207981,1,8,0:0:0:0:
256,192,208092,1,8,0:0:0:0:
256,192,208203,1,0,0:0:0:0:
256,192,208426,1,0,0:0:0:0:
256,192,208537,1,8,0:0:0:0:
256,192,208759,1,0,0:0:0:0:
256,192,208870,1,8,0:0:0:0:
256,192,209092,1,8,0:0:0:0:
256,192,209315,1,8,0:0:0:0:
256,192,209426,1,8,0:0:0:0:
256,192,209648,1,0,0:0:0:0:
256,192,209759,1,8,0:0:0:0:
256,192,209981,1,12,0:0:0:0:
256,192,210203,1,0,0:0:0:0:
256,192,210426,1,12,0:0:0:0:
256,192,210648,1,0,0:0:0:0:
256,192,210870,1,8,0:0:0:0:
256,192,210981,1,8,0:0:0:0:
256,192,211092,1,0,0:0:0:0:
256,192,211203,1,8,0:0:0:0:
256,192,211315,1,0,0:0:0:0:
256,192,211426,1,0,0:0:0:0:
256,192,211537,1,8,0:0:0:0:
256,192,211648,1,8,0:0:0:0:
256,192,211759,1,4,0:0:0:0:
256,192,211981,1,8,0:0:0:0:
256,192,212203,1,0,0:0:0:0:
256,192,212315,1,0,0:0:0:0:
256,192,212426,1,8,0:0:0:0:
256,192,212648,1,0,0:0:0:0:
256,192,212870,1,8,0:0:0:0:
256,192,212981,1,0,0:0:0:0:
256,192,213203,1,0,0:0:0:0:
256,192,213315,1,8,0:0:0:0:
256,192,213537,1,0,0:0:0:0:
256,192,213759,1,8,0:0:0:0:
256,192,213981,1,0,0:0:0:0:
256,192,214092,1,8,0:0:0:0:
256,192,214203,1,0,0:0:0:0:
256,192,214315,1,8,0:0:0:0:
256,192,214537,1,0,0:0:0:0:
256,192,214648,1,8,0:0:0:0:
256,192,214759,1,0,0:0:0:0:
256,192,214870,1,0,0:0:0:0:
256,192,214981,1,0,0:0:0:0:
256,192,215092,1,8,0:0:0:0:
256,192,215315,1,0,0:0:0:0:
256,192,215537,1,8,0:0:0:0:
256,192,215648,1,8,0:0:0:0:
256,192,215759,1,0,0:0:0:0:
256,192,215870,1,8,0:0:0:0:
256,192,215981,1,0,0:0:0:0:
256,192,216092,1,0,0:0:0:0:
256,192,216203,1,8,0:0:0:0:
256,192,216426,1,8,0:0:0:0:
256,192,216537,1,0,0:0:0:0:
256,192,216759,1,0,0:0:0:0:
256,192,216870,1,8,0:0:0:0:
256,192,217092,1,4,0:0:0:0:
256,192,217315,1,8,0:0:0:0:
256,192,217537,1,0,0:0:0:0:
256,192,217648,1,8,0:0:0:0:
256,192,217759,1,0,0:0:0:0:
256,192,217981,1,4,0:0:0:0:
256,192,218203,1,8,0:0:0:0:
256,192,218426,1,8,0:0:0:0:
256,192,218537,1,0,0:0:0:0:
256,192,218648,1,8,0:0:0:0:
256,192,218870,1,12,0:0:0:0:
256,192,219092,1,8,0:0:0:0:
256,192,219203,1,8,0:0:0:0:
256,192,219315,1,0,0:0:0:0:
256,192,219426,1,0,0:0:0:0:
256,192,219537,1,8,0:0:0:0:
256,192,219759,1,0,0:0:0:0:
256,192,219981,1,8,0:0:0:0:
256,192,220092,1,0,0:0:0:0:
256,192,220315,1,0,0:0:0:0:
256,192,220426,1,8,0:0:0:0:
256,192,220648,1,0,0:0:0:0:
256,192,220870,1,8,0:0:0:0:
256,192,221092,1,0,0:0:0:0:
256,192,221203,1,0,0:0:0:0:
256,192,221315,1,8,0:0:0:0:
256,192,221426,1,0,0:0:0:0:
256,192,221537,1,8,0:0:0:0:
256,192,221648,1,8,0:0:0:0:
256,192,221870,1,8,0:0:0:0:
256,192,221981,1,8,0:0:0:0:
256,192,222092,1,0,0:0:0:0:
256,192,222203,1,0,0:0:0:0:
256,192,222426,1,8,0:0:0:0:
256,192,222648,1,0,0:0:0:0:
256,192,222759,1,0,0:0:0:0:
256,192,222870,1,8,0:0:0:0:
256,192,223092,1,4,0:0:0:0:
256,192,223537,1,8,0:0:0:0:
256,192,223759,1,0,0:0:0:0:
256,192,223981,1,4,0:0:0:0:
256,192,224426,1,8,0:0:0:0:
256,192,224648,1,0,0:0:0:0:
256,192,224870,1,12,0:0:0:0:
256,192,225315,1,0,0:0:0:0:
256,192,225537,1,8,0:0:0:0:
256,192,225759,1,0,0:0:0:0:
256,192,225870,1,0,0:0:0:0:
256,192,225981,1,8,0:0:0:0:
256,192,226203,1,8,0:0:0:0:
256,192,226426,1,0,0:0:0:0:
256,192,226648,1,8,0:0:0:0:
256,192,226759,1,8,0:0:0:0:
256,192,226870,1,8,0:0:0:0:
256,192,227092,1,0,0:0:0:0:
256,192,227315,1,8,0:0:0:0:
256,192,227537,1,8,0:0:0:0:
256,192,227759,1,0,0:0:0:0:
256,192,227981,1,0,0:0:0:0:
256,192,228092,1,0,0:0:0:0:
256,192,228203,1,8,0:0:0:0:
256,192,228426,1,8,0:0:0:0:
256,192,228648,1,0,0:0:0:0:
256,192,228759,1,0,0:0:0:0:
256,192,228870,1,0,0:0:0:0:
256,192,229092,1,8,0:0:0:0:
256,192,229315,1,0,0:0:0:0:
256,192,229759,1,0,0:0:0:0:
256,192,229981,1,8,0:0:0:0:
256,192,230203,1,0,0:0:0:0:
256,192,230426,1,8,0:0:0:0:
256,192,230648,1,0,0:0:0:0:
256,192,230759,1,8,0:0:0:0:
256,192,230870,1,0,0:0:0:0:
256,192,231092,1,0,0:0:0:0:
256,192,231315,1,8,0:0:0:0:
256,192,231537,1,8,0:0:0:0:
256,192,231759,1,8,0:0:0:0:
256,192,231981,1,8,0:0:0:0:
256,192,232092,1,8,0:0:0:0:
256,192,232203,1,0,0:0:0:0:
256,192,232426,1,8,0:0:0:0:
256,192,232648,1,8,0:0:0:0:
256,192,232759,1,8,0:0:0:0:
256,192,232870,1,0,0:0:0:0:
256,192,233092,1,4,0:0:0:0:
256,192,233315,1,8,0:0:0:0:
256,192,233537,1,0,0:0:0:0:
256,192,233648,1,0,0:0:0:0:
256,192,233759,1,8,0:0:0:0:
256,192,233870,1,8,0:0:0:0:
256,192,233981,1,0,0:0:0:0:
256,192,234203,1,8,0:0:0:0:
256,192,234315,1,0,0:0:0:0:
256,192,234537,1,0,0:0:0:0:
256,192,234648,1,8,0:0:0:0:
256,192,234870,1,0,0:0:0:0:
256,192,235092,1,8,0:0:0:0:
256,192,235315,1,0,0:0:0:0:
256,192,235426,1,8,0:0:0:0:
256,192,235537,1,8,0:0:0:0:
256,192,235648,1,0,0:0:0:0:
256,192,235759,1,8,0:0:0:0:
256,192,235981,1,8,0:0:0:0:
256,192,236092,1,0,0:0:0:0:
256,192,236203,1,0,0:0:0:0:
256,192,236315,1,0,0:0:0:0:
256,192,236426,1,8,0:0:0:0:
256,192,236537,1,8,0:0:0:0:
256,192,236648,1,0,0:0:0:0:
256,192,236870,1,8,0:0:0:0:
256,192,237092,1,0,0:0:0:0:
256,192,237203,1,0,0:0:0:0:
256,192,237315,1,8,0:0:0:0:
256,192,237426,1,0,0:0:0:0:
256,192,237537,1,8,0:0:0:0:
256,192,237759,1,0,0:0:0:0:
256,192,237870,1,8,0:0:0:0:
256,192,237981,1,8,0:0:0:0:
256,192,238092,1,8,0:0:0:0:
256,192,238203,1,0,0:0:0:0:
256,192,238315,1,0,0:0:0:0:
256,192,238426,1,12,0:0:0:0:
256,192,238648,1,0,0:0:0:0:
256,192,238870,1,12,0:0:0:0:
256,192,239092,1,0,0:0:0:0:
256,192,239315,1,12,0:0:0:0:
256,192,239537,1,0,0:0:0:0:
256,192,239759,1,8,0:0:0:0:
256,192,239870,1,8,0:0:0:0:
256,192,239981,1,0,0:0:0:0:
256,192,240203,1,4,0:0:0:0:
256,192,240426,1,8,0:0:0:0:
256,192,240648,1,0,0:0:0:0:
256,192,240759,1,0,0:0:0:0:
256,192,240870,1,8,0:0:0:0:
256,192,240981,1,0,0:0:0:0:
256,192,241092,1,0,0:0:0:0:
256,192,241315,1,8,0:0:0:0:
256,192,241426,1,0,0:0:0:0:
256,192,241648,1,0,0:0:0:0:
256,192,241759,1,8,0:0:0:0:
256,192,241870,1,8,0:0:0:0:
256,192,241981,1,0,0:0:0:0:
256,192,242203,1,8,0:0:0:0:
256,192,242426,1,0,0:0:0:0:
256,192,242537,1,0,0:0:0:0:
256,192,242648,1,8,0:0:0:0:
256,192,242759,1,8,0:0:0:0:
256,192,242870,1,0,0:0:0:0:
256,192,243092,1,8,0:0:0:0:
256,192,243203,1,0,0:0:0:0:
256,192,243315,1,0,0:0:0:0:
256,192,243426,1,0,0:0:0:0:
256,192,243537,1,8,0:0:0:0:
256,192,243759,1,0,0:0:0:0:
256,192,243981,1,8,0:0:0:0:
256,192,244203,1,0,0:0:0:0:
256,192,244315,1,8,0:0:0:0:
256,192,244426,1,0,0:0:0:0:
256,192,244537,1,0,0:0:0:0:
256,192,244648,1,8,0:0:0:0:
256,192,244870,1,8,0:0:0:0:
256,192,244981,1,8,0:0:0:0:
256,192,245092,1,0,0:0:0:0:
256,192,245315,1,12,0:0:0:0:
256,192,245759,1,0,0:0:0:0:
256,192,245870,1,0,0:0:0:0:
256,192,245981,1,8,0:0:0:0:
256,192,246203,1,0,0:0:0:0:
256,192,246426,1,8,0:0:0:0:
256,192,246537,1,8,0:0:0:0:
256,192,246648,1,0,0:0:0:0:
256,192,246870,1,8,0:0:0:0:
256,192,247092,1,12,0:0:0:0:
256,192,247537,1,0,0:0:0:0:
256,192,247759,1,0,0:0:0:0:
256,192,247981,1,0,0:0:0:0:
256,192,248203,1,0,0:0:0:0:
256,192,248426,1,0,0:0:0:0:
256,192,248537,1,0,0:0:0:0:
256,192,248648,1,8,0:0:0:0:
256,192,248759,1,8,0:0:0:0:
256,192,248870,1,0,0:0:0:0:
256,192,249092,1,0,0:0:0:0:
256,192,249315,1,12,0:0:0:0:
256,192,249537,1,0,0:0:0:0:
256,192,249648,1,12,0:0:0:0:
256,192,249870,1,0,0:0:0:0:
256,192,249981,1,12,0:0:0:0:
256,192,250203,1,0,0:0:0:0:
256,192,250648,8,0,254426,0:0:0:0:
