osu file format v14

[General]
AudioFilename: audio.mp3
AudioLeadIn: 0
PreviewTime: 40294
Countdown: 0
SampleSet: None
StackLeniency: 0.7
Mode: 0
LetterboxInBreaks: 0
WidescreenStoryboard: 1

[Editor]
DistanceSpacing: 1.5
BeatDivisor: 4
GridSize: 4
TimelineZoom: 1

[Metadata]
Title:Odoru Neko Iwaku
TitleUnicode:踊る猫曰く
Artist:namirin
ArtistUnicode:*なみりん
Creator:Selisi
Version:Normal
Source:
Tags:
BeatmapID:933741
BeatmapSetID:433126

[Difficulty]
HPDrainRate:8
CircleSize:4
OverallDifficulty:7
ApproachRate:9
SliderMultiplier:2.2
SliderTickRate:1

[Events]
//Background and Video events
0,0,"bg00.jpg",0,0
Video,0,"videoniko.flv"
//Break Periods
2,70262,88156
//Storyboard Layer 0 (Background)
//Storyboard Layer 1 (Fail)
//Storyboard Layer 2 (Pass)
//Storyboard Layer 3 (Foreground)
//Storyboard Sound Samples

[TimingPoints]
16756,461.538461538462,4,2,0,100,1,0
40756,-100,4,2,0,100,0,0
70294,-100,4,2,0,100,0,0
88756,-100,4,2,0,100,0,1
103525,-100,4,2,0,100,0,0
120140,-100,4,2,0,100,0,0
125679,-100,4,2,0,100,0,0
153371,-100,4,2,0,100,0,1
168025,-100,4,2,0,100,0,0
168140,-100,4,2,0,100,0,1
182909,-100,4,2,0,100,0,0
197679,-100,4,2,0,100,0,0
216140,-100,4,2,0,100,0,0
218217,-100,4,2,0,100,0,0
236448,-100,4,2,0,100,0,0
240140,-100,4,2,0,100,0,1
273371,-100,4,2,0,100,0,0
291832,-100,4,2,0,100,0,0

[Colours]
Combo1 : 11,175,255
Combo2 : 143,143,143
Combo3 : 38,38,38
Combo4 : 212,212,212
Combo5 : 255,38,38

[HitObjects]
360,80,40756,5,0,0:0:0:0:
360,80,40871,1,0,0:0:0:0:
360,80,40986,1,0,0:0:0:0:
84,132,41217,5,0,0:0:0:0:
84,132,41332,1,0,0:0:0:0:
84,132,41447,1,0,0:0:0:0:
216,232,41679,5,0,0:0:0:0:
216,232,41794,1,0,0:0:0:0:
216,232,41909,1,0,0:0:0:0:
84,132,42140,5,0,0:0:0:0:
84,132,42255,1,0,0:0:0:0:
84,132,42370,1,0,0:0:0:0:
248,120,42602,5,0,0:0:0:0:
248,120,42717,1,0,0:0:0:0:
248,120,42832,1,0,0:0:0:0:
84,132,43063,5,0,0:0:0:0:
84,132,43178,1,0,0:0:0:0:
84,132,43293,1,0,0:0:0:0:
40,292,43525,5,0,0:0:0:0:
40,292,43640,1,0,0:0:0:0:
40,292,43755,1,0,0:0:0:0:
84,132,43986,5,0,0:0:0:0:
84,132,44101,1,0,0:0:0:0:
84,132,44216,1,0,0:0:0:0:
236,68,44448,5,0,0:0:0:0:
236,68,44563,1,0,0:0:0:0:
236,68,44678,1,0,0:0:0:0:
84,132,44909,5,0,0:0:0:0:
84,132,45024,1,0,0:0:0:0:
84,132,45139,1,0,0:0:0:0:
236,196,45371,5,0,0:0:0:0:
236,196,45486,1,0,0:0:0:0:
236,196,45601,1,0,0:0:0:0:
84,132,45832,5,0,0:0:0:0:
84,132,45947,1,0,0:0:0:0:
84,132,46062,1,0,0:0:0:0:
248,108,46294,5,0,0:0:0:0:
248,108,46409,1,0,0:0:0:0:
248,108,46524,1,0,0:0:0:0:
84,132,46755,5,0,0:0:0:0:
84,132,46870,1,0,0:0:0:0:
84,132,46985,1,0,0:0:0:0:
156,284,47217,5,0,0:0:0:0:
156,284,47332,1,0,0:0:0:0:
156,284,47447,1,0,0:0:0:0:
84,132,47678,5,0,0:0:0:0:
84,132,47793,1,0,0:0:0:0:
84,132,47908,1,0,0:0:0:0:
220,228,48140,5,0,0:0:0:0:
220,228,48255,1,0,0:0:0:0:
220,228,48370,1,0,0:0:0:0:
84,132,48601,5,0,0:0:0:0:
84,132,48716,1,0,0:0:0:0:
84,132,48831,1,0,0:0:0:0:
240,192,49063,5,0,0:0:0:0:
240,192,49178,1,0,0:0:0:0:
240,192,49293,1,0,0:0:0:0:
84,132,49524,5,0,0:0:0:0:
84,132,49639,1,0,0:0:0:0:
84,132,49754,1,0,0:0:0:0:
224,220,49986,5,0,0:0:0:0:
224,220,50101,1,0,0:0:0:0:
224,220,50216,1,0,0:0:0:0:
84,132,50447,5,0,0:0:0:0:
84,132,50562,1,0,0:0:0:0:
84,132,50677,1,0,0:0:0:0:
116,296,50909,5,0,0:0:0:0:
116,296,51024,1,0,0:0:0:0:
116,296,51139,1,0,0:0:0:0:
84,132,51370,5,0,0:0:0:0:
84,132,51485,1,0,0:0:0:0:
84,132,51600,1,0,0:0:0:0:
232,60,51832,5,0,0:0:0:0:
232,60,51947,1,0,0:0:0:0:
232,60,52062,1,0,0:0:0:0:
84,132,52293,5,0,0:0:0:0:
84,132,52408,1,0,0:0:0:0:
84,132,52523,1,0,0:0:0:0:
228,212,52755,5,0,0:0:0:0:
228,212,52870,1,0,0:0:0:0:
228,212,52985,1,0,0:0:0:0:
84,132,53216,5,0,0:0:0:0:
84,132,53331,1,0,0:0:0:0:
84,132,53446,1,0,0:0:0:0:
248,140,53678,5,0,0:0:0:0:
248,140,53793,1,0,0:0:0:0:
248,140,53908,1,0,0:0:0:0:
84,132,54139,5,0,0:0:0:0:
84,132,54254,1,0,0:0:0:0:
84,132,54369,1,0,0:0:0:0:
240,76,54601,5,0,0:0:0:0:
240,76,54716,1,0,0:0:0:0:
240,76,54831,1,0,0:0:0:0:
84,132,55062,5,0,0:0:0:0:
84,132,55177,1,0,0:0:0:0:
84,132,55292,1,0,0:0:0:0:
180,268,55525,5,0,0:0:0:0:
180,268,55640,1,0,0:0:0:0:
180,268,55755,1,0,0:0:0:0:
84,132,55986,5,0,0:0:0:0:
84,132,56101,1,0,0:0:0:0:
84,132,56216,1,0,0:0:0:0:
244,172,56448,5,0,0:0:0:0:
244,172,56563,1,0,0:0:0:0:
244,172,56678,1,0,0:0:0:0:
84,132,56909,5,0,0:0:0:0:
84,132,57024,1,0,0:0:0:0:
84,132,57139,1,0,0:0:0:0:
36,292,57371,5,0,0:0:0:0:
36,292,57486,1,0,0:0:0:0:
36,292,57601,1,0,0:0:0:0:
84,132,57832,5,0,0:0:0:0:
84,132,57947,1,0,0:0:0:0:
84,132,58062,1,0,0:0:0:0:
184,264,58294,5,0,0:0:0:0:
184,264,58409,1,0,0:0:0:0:
184,264,58524,1,0,0:0:0:0:
84,132,58755,5,0,0:0:0:0:
84,132,58870,1,0,0:0:0:0:
84,132,58985,1,0,0:0:0:0:
232,52,59217,5,0,0:0:0:0:
232,52,59332,1,0,0:0:0:0:
232,52,59447,1,0,0:0:0:0:
84,132,59678,5,0,0:0:0:0:
84,132,59793,1,0,0:0:0:0:
84,132,59908,1,0,0:0:0:0:
228,216,60140,5,0,0:0:0:0:
228,216,60255,1,0,0:0:0:0:
228,216,60370,1,0,0:0:0:0:
344,100,60601,5,0,0:0:0:0:
344,100,60716,1,0,0:0:0:0:
344,100,60831,1,0,0:0:0:0:
84,132,61063,5,0,0:0:0:0:
84,132,61178,1,0,0:0:0:0:
84,132,61293,1,0,0:0:0:0:
144,284,61524,5,0,0:0:0:0:
144,284,61639,1,0,0:0:0:0:
144,284,61754,1,0,0:0:0:0:
84,132,61986,5,0,0:0:0:0:
84,132,62101,1,0,0:0:0:0:
84,132,62216,1,0,0:0:0:0:
240,192,62447,5,0,0:0:0:0:
240,192,62562,1,0,0:0:0:0:
240,192,62677,1,0,0:0:0:0:
84,132,62909,5,0,0:0:0:0:
84,132,63024,1,0,0:0:0:0:
84,132,63139,1,0,0:0:0:0:
248,120,63370,5,0,0:0:0:0:
248,120,63485,1,0,0:0:0:0:
248,120,63600,1,0,0:0:0:0:
84,132,63832,5,0,0:0:0:0:
84,132,63947,1,0,0:0:0:0:
84,132,64062,1,0,0:0:0:0:
144,284,64293,5,0,0:0:0:0:
144,284,64408,1,0,0:0:0:0:
144,284,64523,1,0,0:0:0:0:
84,132,64755,5,0,0:0:0:0:
84,132,64870,1,0,0:0:0:0:
84,132,64985,1,0,0:0:0:0:
220,228,65216,5,0,0:0:0:0:
220,228,65331,1,0,0:0:0:0:
220,228,65446,1,0,0:0:0:0:
84,132,65678,5,0,0:0:0:0:
84,132,65793,1,0,0:0:0:0:
84,132,65908,1,0,0:0:0:0:
240,180,66139,5,0,0:0:0:0:
240,180,66254,1,0,0:0:0:0:
240,180,66369,1,0,0:0:0:0:
84,132,66602,5,0,0:0:0:0:
84,132,66717,1,0,0:0:0:0:
84,132,66832,1,0,0:0:0:0:
180,264,67063,5,0,0:0:0:0:
180,264,67178,1,0,0:0:0:0:
180,264,67293,1,0,0:0:0:0:
84,132,67525,5,0,0:0:0:0:
84,132,67640,1,0,0:0:0:0:
84,132,67755,1,0,0:0:0:0:
248,164,67986,5,0,0:0:0:0:
248,164,68101,1,0,0:0:0:0:
248,164,68216,1,0,0:0:0:0:
84,132,68448,5,0,0:0:0:0:
84,132,68563,1,0,0:0:0:0:
84,132,68678,1,0,0:0:0:0:
228,212,68909,5,0,0:0:0:0:
228,212,69024,1,0,0:0:0:0:
228,212,69139,1,0,0:0:0:0:
84,132,69371,5,0,0:0:0:0:
84,132,69486,1,0,0:0:0:0:
84,132,69601,1,0,0:0:0:0:
248,136,69832,5,0,0:0:0:0:
248,136,69947,1,0,0:0:0:0:
248,136,70062,1,0,0:0:0:0:
84,132,88756,5,0,0:0:0:0:
84,132,88871,1,0,0:0:0:0:
84,132,88986,1,0,0:0:0:0:
192,256,89217,5,0,0:0:0:0:
192,256,89332,1,0,0:0:0:0:
192,256,89447,1,0,0:0:0:0:
84,132,89679,5,0,0:0:0:0:
84,132,89794,1,0,0:0:0:0:
84,132,89909,1,0,0:0:0:0:
248,124,90140,5,0,0:0:0:0:
248,124,90255,1,0,0:0:0:0:
248,124,90370,1,0,0:0:0:0:
84,132,90602,5,0,0:0:0:0:
84,132,90717,1,0,0:0:0:0:
84,132,90832,1,0,0:0:0:0:
240,72,91063,5,0,0:0:0:0:
240,72,91178,1,0,0:0:0:0:
240,72,91293,1,0,0:0:0:0:
84,132,91525,5,0,0:0:0:0:
84,132,91640,1,0,0:0:0:0:
84,132,91755,1,0,0:0:0:0:
188,260,91986,5,0,0:0:0:0:
188,260,92101,1,0,0:0:0:0:
188,260,92216,1,0,0:0:0:0:
84,132,92448,5,0,0:0:0:0:
84,132,92563,1,0,0:0:0:0:
84,132,92678,1,0,0:0:0:0:
92,296,92909,5,0,0:0:0:0:
92,296,93024,1,0,0:0:0:0:
92,296,93139,1,0,0:0:0:0:
84,132,93371,5,0,0:0:0:0:
84,132,93486,1,0,0:0:0:0:
84,132,93601,1,0,0:0:0:0:
232,208,93832,5,0,0:0:0:0:
232,208,93947,1,0,0:0:0:0:
232,208,94062,1,0,0:0:0:0:
84,132,94294,5,0,0:0:0:0:
84,132,94409,1,0,0:0:0:0:
84,132,94524,1,0,0:0:0:0:
248,164,94755,5,0,0:0:0:0:
248,164,94870,1,0,0:0:0:0:
248,164,94985,1,0,0:0:0:0:
84,132,95217,5,0,0:0:0:0:
84,132,95332,1,0,0:0:0:0:
84,132,95447,1,0,0:0:0:0:
248,100,95678,5,0,0:0:0:0:
248,100,95793,1,0,0:0:0:0:
248,100,95908,1,0,0:0:0:0:
84,132,96140,5,0,0:0:0:0:
84,132,96255,1,0,0:0:0:0:
84,132,96370,1,0,0:0:0:0:
204,244,96601,5,0,0:0:0:0:
204,244,96716,1,0,0:0:0:0:
204,244,96831,1,0,0:0:0:0:
84,132,97063,5,0,0:0:0:0:
84,132,97178,1,0,0:0:0:0:
84,132,97293,1,0,0:0:0:0:
248,120,97524,5,0,0:0:0:0:
248,120,97639,1,0,0:0:0:0:
248,120,97754,1,0,0:0:0:0:
84,132,97986,5,0,0:0:0:0:
84,132,98101,1,0,0:0:0:0:
84,132,98216,1,0,0:0:0:0:
220,224,98447,5,0,0:0:0:0:
220,224,98562,1,0,0:0:0:0:
220,224,98677,1,0,0:0:0:0:
84,132,98909,5,0,0:0:0:0:
84,132,99024,1,0,0:0:0:0:
84,132,99139,1,0,0:0:0:0:
236,68,99370,5,0,0:0:0:0:
236,68,99485,1,0,0:0:0:0:
236,68,99600,1,0,0:0:0:0:
84,132,99832,5,0,0:0:0:0:
84,132,99947,1,0,0:0:0:0:
84,132,100062,1,0,0:0:0:0:
72,296,100293,5,0,0:0:0:0:
72,296,100408,1,0,0:0:0:0:
72,296,100523,1,0,0:0:0:0:
84,132,100755,5,0,0:0:0:0:
84,132,100870,1,0,0:0:0:0:
84,132,100985,1,0,0:0:0:0:
240,192,101216,5,0,0:0:0:0:
240,192,101331,1,0,0:0:0:0:
240,192,101446,1,0,0:0:0:0:
84,132,101678,5,0,0:0:0:0:
84,132,101793,1,0,0:0:0:0:
84,132,101908,1,0,0:0:0:0:
216,232,102139,5,0,0:0:0:0:
216,232,102254,1,0,0:0:0:0:
216,232,102369,1,0,0:0:0:0:
84,132,102601,5,0,0:0:0:0:
84,132,102716,1,0,0:0:0:0:
84,132,102831,1,0,0:0:0:0:
244,96,103062,5,0,0:0:0:0:
244,96,103177,1,0,0:0:0:0:
244,96,103292,1,0,0:0:0:0:
84,132,103525,5,0,0:0:0:0:
84,132,103640,1,0,0:0:0:0:
84,132,103755,1,0,0:0:0:0:
116,292,103986,5,0,0:0:0:0:
116,292,104101,1,0,0:0:0:0:
116,292,104216,1,0,0:0:0:0:
84,132,104448,5,0,0:0:0:0:
84,132,104563,1,0,0:0:0:0:
84,132,104678,1,0,0:0:0:0:
240,180,104909,5,0,0:0:0:0:
240,180,105024,1,0,0:0:0:0:
240,180,105139,1,0,0:0:0:0:
84,132,105371,5,0,0:0:0:0:
84,132,105486,1,0,0:0:0:0:
84,132,105601,1,0,0:0:0:0:
240,76,105832,5,0,0:0:0:0:
240,76,105947,1,0,0:0:0:0:
240,76,106062,1,0,0:0:0:0:
84,132,106294,5,0,0:0:0:0:
84,132,106409,1,0,0:0:0:0:
84,132,106524,1,0,0:0:0:0:
160,276,106755,5,0,0:0:0:0:
160,276,106870,1,0,0:0:0:0:
160,276,106985,1,0,0:0:0:0:
84,132,107217,5,0,0:0:0:0:
84,132,107332,1,0,0:0:0:0:
84,132,107447,1,0,0:0:0:0:
236,200,107678,5,0,0:0:0:0:
236,200,107793,1,0,0:0:0:0:
236,200,107908,1,0,0:0:0:0:
84,132,108140,5,0,0:0:0:0:
84,132,108255,1,0,0:0:0:0:
84,132,108370,1,0,0:0:0:0:
68,296,108601,5,0,0:0:0:0:
68,296,108716,1,0,0:0:0:0:
68,296,108831,1,0,0:0:0:0:
84,132,109063,5,0,0:0:0:0:
84,132,109178,1,0,0:0:0:0:
84,132,109293,1,0,0:0:0:0:
136,288,109524,5,0,0:0:0:0:
136,288,109639,1,0,0:0:0:0:
136,288,109754,1,0,0:0:0:0:
84,132,109986,5,0,0:0:0:0:
84,132,110101,1,0,0:0:0:0:
84,132,110216,1,0,0:0:0:0:
244,176,110447,5,0,0:0:0:0:
244,176,110562,1,0,0:0:0:0:
244,176,110677,1,0,0:0:0:0:
84,132,110909,5,0,0:0:0:0:
84,132,111024,1,0,0:0:0:0:
84,132,111139,1,0,0:0:0:0:
248,156,111370,5,0,0:0:0:0:
248,156,111485,1,0,0:0:0:0:
248,156,111600,1,0,0:0:0:0:
84,132,111832,5,0,0:0:0:0:
84,132,111947,1,0,0:0:0:0:
84,132,112062,1,0,0:0:0:0:
248,136,112293,5,0,0:0:0:0:
248,136,112408,1,0,0:0:0:0:
248,136,112523,1,0,0:0:0:0:
84,132,112755,5,0,0:0:0:0:
84,132,112870,1,0,0:0:0:0:
84,132,112985,1,0,0:0:0:0:
240,72,113216,5,0,0:0:0:0:
240,72,113331,1,0,0:0:0:0:
240,72,113446,1,0,0:0:0:0:
84,132,113678,5,0,0:0:0:0:
84,132,113793,1,0,0:0:0:0:
84,132,113908,1,0,0:0:0:0:
176,268,114139,5,0,0:0:0:0:
176,268,114254,1,0,0:0:0:0:
176,268,114369,1,0,0:0:0:0:
84,132,114602,5,0,0:0:0:0:
84,132,114717,1,0,0:0:0:0:
84,132,114832,1,0,0:0:0:0:
240,180,115063,5,0,0:0:0:0:
240,180,115178,1,0,0:0:0:0:
240,180,115293,1,0,0:0:0:0:
84,132,115525,5,0,0:0:0:0:
84,132,115640,1,0,0:0:0:0:
84,132,115755,1,0,0:0:0:0:
244,96,115986,5,0,0:0:0:0:
244,96,116101,1,0,0:0:0:0:
244,96,116216,1,0,0:0:0:0:
84,132,116448,5,0,0:0:0:0:
84,132,116563,1,0,0:0:0:0:
84,132,116678,1,0,0:0:0:0:
228,212,116909,5,0,0:0:0:0:
228,212,117024,1,0,0:0:0:0:
228,212,117139,1,0,0:0:0:0:
84,132,117371,5,0,0:0:0:0:
84,132,117486,1,0,0:0:0:0:
84,132,117601,1,0,0:0:0:0:
248,148,117832,5,0,0:0:0:0:
248,148,117947,1,0,0:0:0:0:
248,148,118062,1,0,0:0:0:0:
