osu file format v14

[General]
AudioFilename: nam.mp3
AudioLeadIn: 0
PreviewTime: 59262
Countdown: 0
SampleSet: Soft
StackLeniency: 0.2
Mode: 0
LetterboxInBreaks: 0
WidescreenStoryboard: 1

[Editor]
DistanceSpacing: 1
BeatDivisor: 8
GridSize: 4
TimelineZoom: 2.4

[Metadata]
Title:Odore Orchestra
TitleUnicode:踊れオーケストラ
Artist:*namirin
ArtistUnicode:*なみりん
Creator:ChronoNig
Version:Melody
Source:
Tags:ProEzreal vocaloid IA cover dance orchestra
BeatmapID:1333017
BeatmapSetID:536963

[Difficulty]
HPDrainRate:6
CircleSize:4
OverallDifficulty:8.5
ApproachRate:9.2
SliderMultiplier:1.8
SliderTickRate:1

[Events]
//Background and Video events
0,0,"60976154_p1_master1200.jpg",0,0
//Break Periods
//Storyboard Layer 0 (Background)
//Storyboard Layer 1 (Fail)
//Storyboard Layer 2 (Pass)
//Storyboard Layer 3 (Foreground)
//Storyboard Sound Samples

[TimingPoints]
1513,333.333333333333,4,2,0,70,1,0
4179,-133.333333333333,4,2,0,70,0,0
4846,-100,4,2,0,80,0,0
5512,-100,4,2,0,90,0,0
6179,-200,4,2,0,35,0,0
6846,-100,4,2,0,80,0,0
11679,-100,4,2,0,50,0,0
12179,-100,4,2,0,80,0,0
16846,-100,4,2,0,70,0,0
17512,-100,4,2,0,80,0,0
22346,-100,4,2,0,50,0,0
22846,-100,4,2,0,80,0,0
28179,-111.111111111111,4,2,0,70,0,0
38512,-80,4,2,0,70,0,0
38846,-111.111111111111,4,2,0,70,0,0
48346,-111.111111111111,4,2,0,70,0,0
49179,-200,4,2,0,35,0,0
49512,-125,4,2,0,65,0,0
56179,-111.111111111111,4,2,0,70,0,0
59846,-200,4,2,0,50,0,0
60179,-90.9090909090909,4,2,0,80,0,1
69512,-83.3333333333333,4,2,0,100,0,0
69846,-100,4,2,0,95,0,0
70179,-125,4,2,0,90,0,0
70512,-166.666666666667,4,2,0,85,0,0
70846,-90.9090909090909,4,2,0,80,0,1
80846,-90.9090909090909,4,2,1,80,0,1
81179,-200,4,2,0,80,0,1
81512,-83.3333333333333,4,2,0,70,0,0
83346,-100,4,2,0,70,0,0
85512,-83.3333333333333,4,2,0,70,0,0
87846,-100,4,2,0,70,0,0
91512,-133.333333333333,4,2,0,50,0,0
92179,-111.111111111111,4,2,0,70,0,0
123846,-200,4,2,0,50,0,0
124179,-90.9090909090909,4,2,0,80,0,1
133512,-83.3333333333333,4,2,0,100,0,0
133846,-100,4,2,0,95,0,0
134179,-125,4,2,0,80,0,0
134512,-166.666666666667,4,2,0,85,0,0
134846,-90.9090909090909,4,2,0,80,0,1
144846,-133.333333333333,4,2,0,60,0,0

[Colours]
Combo1 : 192,192,192
Combo2 : 255,66,255
Combo3 : 255,191,223

[HitObjects]
256,192,1513,12,0,3846,0:0:0:0:
90,74,4179,6,0,P|114:97|118:144,1,67.5000025749208,0|0,0:0|0:0,0:0:0:0:
196,108,4512,6,0,P|197:144|177:183,1,67.5000025749208,0|0,0:0|0:0,0:0:0:0:
270,175,4846,6,0,P|255:220|212:256,1,90,0|0,0:0|0:0,0:0:0:0:
299,292,5179,6,0,P|256:324|201:330,1,90,0|0,0:0|0:0,0:0:0:0:
28,243,5512,5,0,0:0:0:0:
97,361,5679,1,0,0:0:0:0:
147,160,5846,1,0,0:0:0:0:
147,160,6179,6,0,L|155:116,1,45,0|0,0:0|0:0,0:0:0:0:
63,94,6512,2,0,L|55:50,1,45,0|0,0:0|0:0,0:0:0:0:
203,32,6846,6,0,L|313:48,1,90
155,115,7179,2,0,L|244:127,1,90
400,109,7512,2,0,P|360:135|344:195,1,90
385,339,7846,1,0,0:0:0:0:
437,196,8012,1,0,0:0:0:0:
234,222,8179,5,0,0:0:0:0:
366,254,8346,1,0,0:0:0:0:
264,138,8512,1,0,0:0:0:0:
184,300,8679,2,0,P|223:315|291:297,1,90
110,191,9012,5,0,0:0:0:0:
105,338,9179,1,0,0:0:0:0:
24,200,9346,2,0,P|35:144|80:112,1,90,0|0,0:0|0:0,0:0:0:0:
235,269,9679,5,0,0:0:0:0:
110,191,9846,1,0,0:0:0:0:
270,190,10013,2,0,P|312:227|318:282,1,90,0|0,0:0|0:0,0:0:0:0:
105,338,10346,5,0,0:0:0:0:
110,191,10512,1,0,0:0:0:0:
235,269,10679,1,0,0:0:0:0:
8,261,10846,5,0,0:0:0:0:
129,68,11013,1,0,0:0:0:0:
235,269,11179,1,0,0:0:0:0:
23,140,11346,1,0,0:0:0:0:
23,140,11679,5,0,0:0:0:0:
29,229,11845,1,0,0:0:0:0:
35,318,12012,1,0,0:0:0:0:
163,251,12179,6,0,L|285:233,1,90
153,339,12512,2,0,L|275:321,1,90
325,173,12846,2,0,P|289:147|212:154,1,90
363,261,13179,1,0,0:0:0:0:
385,103,13346,1,0,0:0:0:0:
487,320,13512,5,0,0:0:0:0:
465,162,13679,1,0,0:0:0:0:
363,261,13846,1,0,0:0:0:0:
385,103,14012,2,0,L|399:0,1,90,0|0,0:0|0:0,0:0:0:0:
185,4,14346,5,0,0:0:0:0:
279,129,14513,1,0,0:0:0:0:
170,113,14680,1,0,0:0:0:0:
293,20,14846,5,0,0:0:0:0:
170,113,15012,1,0,0:0:0:0:
361,91,15179,5,0,0:0:0:0:
225,193,15346,1,0,0:0:0:0:
429,162,15513,5,0,0:0:0:0:
279,274,15679,1,0,0:0:0:0:
497,233,15846,5,0,0:0:0:0:
331,356,16012,1,0,0:0:0:0:
326,176,16346,5,0,0:0:0:0:
449,342,16512,1,0,0:0:0:0:
449,342,16846,5,0,0:0:0:0:
363,362,17012,1,0,0:0:0:0:
283,325,17179,1,0,0:0:0:0:
243,246,17345,1,0,0:0:0:0:
356,162,17512,6,0,L|337:268,1,90,0|0,0:0|0:0,0:0:0:0:
445,145,17846,2,0,L|426:251,1,90,0|0,0:0|0:0,0:0:0:0:
290,101,18179,2,0,P|332:74|405:92,1,90,0|0,0:0|0:0,0:0:0:0:
267,188,18513,1,0,0:0:0:0:
219,48,18679,1,0,0:0:0:0:
145,285,18846,5,0,0:0:0:0:
197,131,19012,1,0,0:0:0:0:
38,163,19179,1,0,0:0:0:0:
151,306,19346,2,0,P|195:320|241:310,1,90,0|0,0:0|0:0,0:0:0:0:
349,174,19679,5,0,0:0:0:0:
200,215,19846,1,0,0:0:0:0:
338,342,20012,2,0,L|354:245,1,90,0|0,0:0|0:0,0:0:0:0:
266,68,20346,5,0,0:0:0:0:
415,109,20513,1,0,0:0:0:0:
277,236,20679,2,0,L|261:139,1,90,0|0,0:0|0:0,0:0:0:0:
115,124,21012,5,0,0:0:0:0:
262,147,21179,1,0,0:0:0:0:
208,10,21346,1,0,0:0:0:0:
175,211,21512,5,0,0:0:0:0:
374,118,21679,1,0,0:0:0:0:
232,326,21846,1,0,0:0:0:0:
431,233,22013,1,0,0:0:0:0:
431,233,22346,5,0,0:0:0:0:
463,317,22512,1,0,0:0:0:0:
374,303,22679,1,0,0:0:0:0:
400,136,22846,6,0,L|519:155,1,90,0|0,0:0|0:0,0:0:0:0:
378,51,23179,2,0,L|497:70,1,90,0|0,0:0|0:0,0:0:0:0:
316,113,23512,2,0,L|297:232,1,90,0|0,0:0|0:0,0:0:0:0:
226,78,23846,1,0,0:0:0:0:
206,193,24012,1,0,0:0:0:0:
135,41,24179,5,0,0:0:0:0:
110,179,24345,1,0,0:0:0:0:
2,88,24512,1,0,0:0:0:0:
55,252,24679,2,0,P|93:270|163:255,1,90,0|0,0:0|0:0,0:0:0:0:
259,160,25012,5,0,0:0:0:0:
288,276,25179,1,0,0:0:0:0:
230,44,25346,1,0,0:0:0:0:
429,195,25512,5,0,0:0:0:0:
259,160,25679,1,0,0:0:0:0:
451,107,25846,5,0,0:0:0:0:
251,138,26013,1,0,0:0:0:0:
428,288,26179,5,0,0:0:0:0:
455,83,26346,1,0,0:0:0:0:
311,279,26512,5,0,0:0:0:0:
342,53,26679,1,0,0:0:0:0:
338,29,27012,5,0,0:0:0:0:
428,288,27179,1,0,0:0:0:0:
428,288,27512,6,0,P|440:240|426:193,1,90
344,139,27762,1,0,0:0:0:0:
344,139,27846,2,0,P|332:91|346:44,1,90
335,239,28179,6,0,L|223:239,1,80.9999975280763,0|0,0:0|0:0,0:0:0:0:
165,103,28512,2,0,L|246:103,1,80.9999975280763,0|0,0:0|0:0,0:0:0:0:
92,249,28846,1,0,0:0:0:0:
254,239,29012,1,0,0:0:0:0:
165,103,29179,1,0,0:0:0:0:
177,307,29346,6,0,P|250:341|345:292,1,161.999995056153,0|0,0:0|0:0,0:0:0:0:
383,156,29846,1,0,0:0:0:0:
492,288,30012,1,0,0:0:0:0:
301,195,30179,2,0,P|291:149|319:91,1,80.9999975280763,0|0,0:0|0:0,0:0:0:0:
403,279,30512,2,0,P|411:318|401:357,1,80.9999975280763,0|0,0:0|0:0,0:0:0:0:
383,156,30846,6,0,L|463:162,1,80.9999975280763
330,29,31179,2,0,L|249:35,1,80.9999975280763,0|0,0:0|0:0,0:0:0:0:
84,49,31512,1,0,0:0:0:0:
262,151,31679,1,0,0:0:0:0:
97,166,31846,1,0,0:0:0:0:
291,243,32012,6,0,P|348:192|339:94,1,161.999995056153,0|0,0:0|0:0,0:0:0:0:
424,243,32512,1,0,0:0:0:0:
262,151,32679,1,0,0:0:0:0:
422,56,32846,1,0,0:0:0:0:
422,56,32929,1,0,0:0:0:0:
422,56,33012,1,0,0:0:0:0:
424,243,33179,1,0,0:0:0:0:
348,111,33346,1,0,0:0:0:0:
180,291,33512,6,0,L|261:291,1,80.9999975280763
262,151,33846,2,0,L|181:151,1,80.9999975280763,0|0,0:0|0:0,0:0:0:0:
341,220,34179,5,0,0:0:0:0:
91,224,34346,1,0,0:0:0:0:
341,220,34512,1,0,0:0:0:0:
218,347,34846,5,0,0:0:0:0:
215,97,35012,1,0,0:0:0:0:
215,97,35346,6,0,B|333:97|333:97|271:62,1,161.999995056153,0|0,0:0|0:0,0:0:0:0:
138,52,35846,2,0,P|125:91|140:142,1,80.9999975280763,0|0,0:0|0:0,0:0:0:0:
286,296,36179,5,0,0:0:0:0:
215,97,36346,1,0,0:0:0:0:
286,296,36512,1,0,0:0:0:0:
294,75,36846,5,0,0:0:0:0:
207,318,37012,1,0,0:0:0:0:
294,75,37179,1,0,0:0:0:0:
347,231,37512,5,0,0:0:0:0:
153,161,37678,1,0,0:0:0:0:
389,136,37846,1,0,0:0:0:0:
178,60,38012,1,0,0:0:0:0:
460,70,38179,6,0,P|486:125|464:200,1,121.499996292114
408,250,38512,6,0,B|372:313|414:373|414:373|439:321,1,168.75
437,324,38846,6,0,L|324:328,1,80.9999975280763
206,233,39179,2,0,L|286:235,1,80.9999975280763
393,130,39512,1,0,0:0:0:0:
393,130,39679,2,0,L|313:132,1,80.9999975280763
185,96,40012,6,0,P|101:84|34:152,1,161.999995056153,0|0,0:0|0:0,0:0:0:0:
69,299,40512,1,0,0:0:0:0:
130,183,40679,1,0,0:0:0:0:
329,287,40846,1,0,0:0:0:0:
260,177,41012,1,0,0:0:0:0:
199,293,41179,2,0,P|194:339|209:378,1,80.9999975280763,0|0,0:0|0:0,0:0:0:0:
405,334,41512,6,0,P|416:295|410:255,1,80.9999975280763,0|0,0:0|0:0,0:0:0:0:
336,119,41846,2,0,P|324:80|330:40,1,80.9999975280763,0|0,0:0|0:0,0:0:0:0:
474,163,42179,1,0,0:0:0:0:
296,225,42346,1,0,0:0:0:0:
330,40,42513,1,0,0:0:0:0:
410,255,42679,6,0,P|362:327|277:343,1,161.999995056153,0|0,0:0|0:0,0:0:0:0:
125,256,43179,1,0,0:0:0:0:
296,225,43345,1,0,0:0:0:0:
186,84,43512,1,0,0:0:0:0:
186,84,43596,1,0,0:0:0:0:
186,84,43679,1,0,0:0:0:0:
357,53,43846,1,0,0:0:0:0:
296,225,44012,1,0,0:0:0:0:
100,116,44179,6,0,P|95:73|111:33,1,80.9999975280763,0|0,0:0|0:0,0:0:0:0:
270,54,44512,2,0,P|275:97|259:137,1,80.9999975280763,0|0,0:0|0:0,0:0:0:0:
157,317,44846,5,0,0:0:0:0:
186,84,45012,1,0,0:0:0:0:
157,317,45179,1,0,0:0:0:0:
288,214,45512,5,0,0:0:0:0:
54,186,45679,1,0,0:0:0:0:
54,186,46012,6,0,B|146:150|131:221|229:180,1,161.999995056153,0|0,0:0|0:0,0:0:0:0:
332,137,46512,1,0,0:0:0:0:
229,56,46679,1,0,0:0:0:0:
298,231,46846,5,0,0:0:0:0:
364,48,47012,1,0,0:0:0:0:
383,276,47179,5,0,0:0:0:0:
449,93,47346,1,0,0:0:0:0:
211,186,47512,5,0,0:0:0:0:
417,184,47679,1,0,0:0:0:0:
315,363,47846,5,0,0:0:0:0:
270,115,48012,2,0,P|214:93|149:118,1,121.499996292114
133,143,48346,5,0,0:0:0:0:
115,229,48512,1,0,0:0:0:0:
95,316,48679,1,0,0:0:0:0:
2,234,48846,2,0,P|57:212|114:228,1,121.499996292114
150,244,49179,6,0,L|229:247,1,67.5,0|0,0:0|0:0,0:0:0:0:
298,319,49512,6,0,L|376:326,1,72,0|0,0:0|0:0,0:0:0:0:
388,188,49846,2,0,L|309:195,1,72,0|0,0:0|0:0,0:0:0:0:
463,279,50179,1,0,0:0:0:0:
438,93,50346,1,0,0:0:0:0:
438,93,50679,6,0,B|356:65|362:115|292:94,1,144,0|0,0:0|0:0,0:0:0:0:
440,0,51179,1,0,0:0:0:0:
396,169,51346,1,0,0:0:0:0:
254,21,51512,2,0,P|292:8|335:19,1,72,0|0,0:0|0:0,0:0:0:0:
181,148,51846,2,0,P|145:152|112:139,1,72,0|0,0:0|0:0,0:0:0:0:
297,95,52179,6,0,L|286:166,1,72,0|0,0:0|0:0,0:0:0:0:
193,347,52512,1,0,0:0:0:0:
373,253,52679,1,0,0:0:0:0:
173,222,52846,1,0,0:0:0:0:
315,366,53012,1,0,0:0:0:0:
285,166,53178,1,0,0:0:0:0:
193,347,53346,6,0,P|120:337|69:288,1,144,0|0,0:0|0:0,0:0:0:0:
162,61,53846,1,0,0:0:0:0:
173,222,54012,1,0,0:0:0:0:
259,55,54179,5,0,0:0:0:0:
65,68,54345,1,0,0:0:0:0:
257,162,54512,1,0,0:0:0:0:
82,173,54678,1,0,0:0:0:0:
351,111,54846,6,0,P|364:144|361:194,1,72,0|0,0:0|0:0,0:0:0:0:
243,231,55179,2,0,P|243:195|257:162,1,72,0|0,0:0|0:0,0:0:0:0:
314,314,55512,5,0,0:0:0:0:
154,292,55679,1,0,0:0:0:0:
95,140,55846,1,0,0:0:0:0:
256,162,56013,1,0,0:0:0:0:
84,354,56179,6,0,P|66:321|69:259,1,80.9999975280763
255,161,56512,2,0,P|253:201|235:237,1,80.9999975280763,0|0,0:0|0:0,0:0:0:0:
58,54,56846,5,0,0:0:0:0:
255,161,57012,1,0,0:0:0:0:
63,278,57179,1,0,0:0:0:0:
187,51,57346,1,0,0:0:0:0:
321,271,57512,5,0,0:0:0:0:
60,165,57679,1,0,0:0:0:0:
321,271,57846,1,0,0:0:0:0:
63,278,58179,5,0,0:0:0:0:
324,172,58346,1,0,0:0:0:0:
63,278,58513,1,0,0:0:0:0:
324,172,59012,5,0,0:0:0:0:
177,33,59346,5,0,0:0:0:0:
257,37,59512,1,0,0:0:0:0:
338,42,59679,1,0,0:0:0:0:
420,140,59846,6,0,P|426:183|419:213,1,67.5
396,224,60179,6,0,L|275:233,1,99.0000030212403
152,160,60512,1,0,0:0:0:0:
163,321,60679,1,0,0:0:0:0:
246,152,60846,6,0,P|230:105|169:66,1,99.0000030212403,0|0,0:0|0:0,0:0:0:0:
60,198,61179,1,0,0:0:0:0:
19,21,61346,1,0,0:0:0:0:
193,73,61512,6,0,L|307:73,1,99.0000030212403
461,0,61846,1,0,0:0:0:0:
439,188,62012,1,0,0:0:0:0:
292,73,62179,6,0,P|339:60|386:74,1,99.0000030212403,0|0,0:0|0:0,0:0:0:0:
405,298,62512,1,0,0:0:0:0:
337,152,62679,1,0,0:0:0:0:
230,342,62846,6,0,P|178:367|118:348,1,99.0000030212403,0|0,0:0|0:0,0:0:0:0:
125,113,63179,2,0,P|173:108|216:131,1,99.0000030212403,0|0,0:0|0:0,0:0:0:0:
171,287,63512,2,0,L|158:188,1,99.0000030212403,0|0,0:0|0:0,0:0:0:0:
42,54,63846,2,0,L|29:153,1,99.0000030212403,0|0,0:0|0:0,0:0:0:0:
171,287,64179,6,0,L|287:284,1,99.0000030212403,0|0,0:0|0:0,0:0:0:0:
480,177,64512,1,0,0:0:0:0:
449,346,64679,1,0,0:0:0:0:
394,128,64846,1,0,0:0:0:0:
359,315,65013,1,0,0:0:0:0:
300,149,65179,2,0,L|280:257,1,99.0000030212403
109,146,65512,6,0,P|153:125|222:145,1,99.0000030212403
73,233,65846,2,0,P|32:205|15:136,1,99.0000030212403
167,221,66179,5,0,0:0:0:0:
224,297,66345,1,0,0:0:0:0:
131,309,66512,1,0,0:0:0:0:
73,233,66679,1,0,0:0:0:0:
224,297,66846,6,0,P|259:247|252:191,1,99.0000030212403
378,100,67179,2,0,P|343:150|350:206,1,99.0000030212403
188,101,67512,2,0,B|289:45|292:138|385:96,1,198.000006042481
341,16,68012,1,0,0:0:0:0:
245,164,68179,5,0,0:0:0:0:
422,174,68346,1,0,0:0:0:0:
239,255,68512,1,0,0:0:0:0:
249,78,68679,1,0,0:0:0:0:
330,261,68845,5,0,0:0:0:0:
153,251,69012,1,0,0:0:0:0:
336,170,69179,1,0,0:0:0:0:
326,347,69346,1,0,0:0:0:0:
48,277,69512,5,0,0:0:0:0:
239,255,69679,1,0,0:0:0:0:
53,196,69846,5,0,0:0:0:0:
226,174,70012,1,0,0:0:0:0:
58,115,70179,5,0,0:0:0:0:
213,93,70346,1,0,0:0:0:0:
63,34,70512,5,0,0:0:0:0:
200,12,70679,1,0,0:0:0:0:
226,174,70846,6,0,P|173:166|136:122,1,99.0000030212403
326,105,71179,1,0,0:0:0:0:
262,272,71346,1,0,0:0:0:0:
141,135,71512,6,0,P|194:143|231:187,1,99.0000030212403
165,361,71846,1,0,0:0:0:0:
33,216,72012,1,0,2:0:0:0:
262,272,72179,6,0,P|307:282|379:261,1,99.0000030212403
478,188,72512,2,0,L|464:305,1,99.0000030212403
340,89,72846,2,0,L|354:206,1,99.0000030212403
500,2,73179,2,0,L|486:119,1,99.0000030212403
277,39,73512,6,0,P|313:12|394:28,1,99.0000030212403,0|0,0:0|0:0,0:0:0:0:
351,187,73846,1,0,0:0:0:0:
340,89,74012,1,0,0:0:0:0:
417,239,74179,2,0,P|381:266|300:250,1,99.0000030212403,0|0,0:0|0:0,0:0:0:0:
469,175,74512,2,0,P|496:211|480:292,1,99.0000030212403,0|0,0:0|0:0,0:0:0:0:
279,333,74846,6,0,P|252:297|268:216,1,99.0000030212403,0|0,0:0|0:0,0:0:0:0:
340,89,75179,1,0,0:0:0:0:
328,266,75346,1,0,0:0:0:0:
429,62,75512,1,0,0:0:0:0:
417,239,75679,1,0,0:0:0:0:
260,158,75846,2,0,P|222:162|176:202,1,99.0000030212403
243,343,76179,6,0,L|250:244,1,99.0000030212403,0|0,0:0|0:0,0:0:0:0:
91,209,76512,1,0,0:0:0:0:
141,365,76679,1,0,0:0:0:0:
176,200,76846,2,0,P|156:152|101:124,1,99.0000030212403
250,244,77179,2,0,P|301:250|353:217,1,99.0000030212403
293,64,77512,6,0,L|283:167,1,99.0000030212403,0|0,0:0|0:0,0:0:0:0:
209,2,77846,1,0,0:0:0:0:
386,21,78012,1,0,0:0:0:0:
284,162,78179,2,0,L|163:156,1,99.0000030212403,0|0,0:0|0:0,0:0:0:0:
381,118,78512,2,0,P|393:167|377:222,1,99.0000030212403,0|0,0:0|0:0,0:0:0:0:
179,341,78846,6,0,P|167:292|183:237,1,99.0000030212403,0|0,0:0|0:0,0:0:0:0:
381,118,79179,1,0,0:0:0:0:
260,291,79346,1,0,0:0:0:0:
458,222,79512,1,0,0:0:0:0:
257,160,79679,1,0,0:0:0:0:
383,328,79846,2,0,P|431:354|481:350,1,99.0000030212403
472,94,80179,6,0,P|423:93|380:117,1,99.0000030212403
380,222,80512,1,0,0:0:0:0:
383,328,80679,1,0,0:0:0:0:
244,207,80846,6,0,P|315:189|397:249,1,148.50000453186,0|0,0:0|0:0,0:0:0:0:
379,221,81179,1,0,0:0:0:0:
129,57,81512,6,0,L|235:70,1,107.999996704102
164,244,81846,2,0,L|122:144,1,107.999996704102
309,121,82179,2,0,L|243:206,1,107.999996704102
129,57,82512,1,0,0:0:0:0:
236,70,82678,1,0,0:0:0:0:
173,265,82846,5,0,0:0:0:0:
35,112,83012,1,0,0:0:0:0:
236,70,83179,1,0,0:0:0:0:
173,265,83346,2,0,P|143:223|135:162,1,90,0|0,0:0|0:0,0:0:0:0:
289,159,83679,5,0,0:0:0:0:
280,338,83846,1,0,0:0:0:0:
440,257,84012,2,0,L|332:253,1,90
449,78,84346,5,0,0:0:0:0:
440,257,84513,1,0,0:0:0:0:
289,159,84679,2,0,L|397:163,1,90
175,223,85012,5,0,0:0:0:0:
175,94,85179,1,0,0:0:0:0:
289,159,85346,1,0,0:0:0:0:
62,159,85512,5,0,0:0:0:0:
288,281,85679,1,0,0:0:0:0:
281,25,85846,1,0,0:0:0:0:
62,159,86012,2,0,P|57:280|156:353,1,215.999993408203
227,342,86512,1,0,0:0:0:0:
337,342,86679,1,0,0:0:0:0:
314,143,86846,6,0,L|276:264,1,107.999996704102
233,104,87179,2,0,L|195:225,1,107.999996704102
152,65,87512,1,0,0:0:0:0:
119,168,87678,1,0,0:0:0:0:
314,143,87846,2,0,P|312:66|248:15,1,135
233,104,88179,5,0,0:0:0:0:
377,17,88346,1,0,0:0:0:0:
380,185,88512,1,0,0:0:0:0:
233,104,88679,2,0,P|154:81|67:139,1,180
103,277,89179,1,0,0:0:0:0:
13,218,89346,1,0,0:0:0:0:
163,187,89512,6,0,P|204:209|269:206,1,90,0|0,0:0|0:0,0:0:0:0:
372,79,89846,1,0,0:0:0:0:
424,255,90012,1,0,0:0:0:0:
256,93,90179,1,0,0:0:0:0:
317,305,90346,1,0,0:0:0:0:
468,145,90512,5,0,0:0:0:0:
246,211,90679,1,0,0:0:0:0:
256,93,91012,5,0,0:0:0:0:
424,255,91179,1,0,0:0:0:0:
181,335,91512,6,0,P|169:305|173:244,1,67.5000025749208
246,211,91846,2,0,P|258:241|254:302,1,67.5000025749208
188,134,92179,6,0,P|256:116|332:169,1,161.999995056153
328,258,92679,1,0,2:0:0:0:
468,288,92846,2,0,P|404:242|327:258,1,161.999995056153
229,353,93346,2,0,P|190:362|130:348,1,80.9999975280763
86,255,93679,2,0,P|125:246|185:260,1,80.9999975280763
253,204,94012,1,0,0:0:0:0:
253,204,94179,2,0,L|241:91,1,80.9999975280763
344,95,94512,2,0,L|352:175,1,80.9999975280763
267,46,94846,6,0,B|462:73,1,161.999995056153,0|0,0:0|0:0,0:0:0:0:
477,141,95346,1,0,0:0:0:0:
420,263,95512,2,0,P|420:174|483:140,1,161.999995056153
492,311,96012,2,0,P|458:342|400:349,1,80.9999975280763
352,222,96346,2,0,P|390:233|419:262,1,80.9999975280763
345,312,96679,1,0,0:0:0:0:
345,312,96846,2,0,L|231:318,1,80.9999975280763
188,212,97179,2,0,L|269:217,1,80.9999975280763
118,275,97512,6,0,P|97:205|156:123,1,161.999995056153
223,102,98012,1,0,0:0:0:0:
346,215,98179,2,0,B|253:185|284:247|157:202,1,161.999995056153
352,126,98679,2,0,P|395:139|430:186,1,80.9999975280763
345,292,99013,2,0,P|335:253|346:213,1,80.9999975280763
431,255,99346,1,0,0:0:0:0:
431,255,99512,2,0,L|445:368,1,80.9999975280763
335,372,99846,2,0,L|344:291,1,80.9999975280763
239,179,100179,6,0,B|270:272|211:260|259:363,1,161.999995056153
344,291,100679,1,0,0:0:0:0:
298,123,100846,2,0,P|218:100|160:160,1,161.999995056153
323,207,101346,2,0,P|367:179|382:127,1,80.9999975280763
164,147,101679,5,0,0:0:0:0:
298,123,101846,1,0,0:0:0:0:
161,234,102012,5,0,0:0:0:0:
323,207,102179,1,0,0:0:0:0:
158,321,102346,5,0,0:0:0:0:
344,291,102512,1,0,0:0:0:0:
84,274,102846,6,0,B|64:233|82:192|82:192|124:159|115:87,1,161.999995056153,0|0,0:0|0:0,0:0:0:0:
20,118,103346,1,0,0:0:0:0:
161,234,103512,2,0,B|203:248|254:219|254:219|235:251|239:284,1,161.999995056153
335,271,104012,1,0,0:0:0:0:
193,140,104179,5,0,0:0:0:0:
150,329,104346,1,0,0:0:0:0:
335,271,104512,1,0,0:0:0:0:
123,186,104679,2,0,P|119:101|178:58,1,161.999995056153,0|0,0:0|0:0,0:0:0:0:
269,107,105179,1,0,0:0:0:0:
365,63,105346,1,0,0:0:0:0:
176,59,105512,6,0,P|171:146|250:214,2,161.999995056153,0|0|0,0:0|0:0|0:0,0:0:0:0:
269,19,106346,1,0,0:0:0:0:
350,107,106512,2,0,L|246:107,1,80.9999975280763
417,27,106846,6,0,P|451:83|439:160,1,121.499996292114
420,171,107179,2,0,L|431:309,1,121.499996292114,0|0,0:0|0:0,0:0:0:0:
433,332,107512,5,0,0:0:0:0:
190,342,107735,5,0,0:0:0:0:
303,126,107957,5,0,0:0:0:0:
433,332,108179,6,0,B|341:309|364:360|273:340,1,161.999995056153
212,261,108679,1,0,0:0:0:0:
311,248,108845,1,0,0:0:0:0:
251,169,109012,1,0,0:0:0:0:
274,340,109179,2,0,P|334:343|403:282,1,121.499996292114
410,280,109512,6,0,L|413:184,1,80.9999975280763,0|0,0:0|0:0,0:0:0:0:
338,68,109846,2,0,L|340:148,1,80.9999975280763,0|0,0:0|0:0,0:0:0:0:
500,108,110179,2,0,L|419:110,1,80.9999975280763,0|0,0:0|0:0,0:0:0:0:
251,233,110512,2,0,L|332:236,1,80.9999975280763,0|0,0:0|0:0,0:0:0:0:
196,164,110846,6,0,P|163:234|199:303,1,161.999995056153
294,330,111346,1,0,0:0:0:0:
294,330,111512,2,0,P|334:320|376:329,1,80.9999975280763,0|0,0:0|0:0,0:0:0:0:
457,241,111846,1,0,0:0:0:0:
489,358,112012,1,0,0:0:0:0:
367,239,112179,6,0,P|351:195|369:141,1,80.9999975280763,0|0,0:0|0:0,0:0:0:0:
451,16,112512,1,0,0:0:0:0:
436,189,112679,1,0,0:0:0:0:
278,1,112846,1,0,0:0:0:0:
263,174,113012,1,0,0:0:0:0:
263,174,113096,1,0,0:0:0:0:
263,174,113179,2,0,L|168:163,1,80.9999975280763
61,292,113512,6,0,L|141:301,1,80.9999975280763
278,277,113846,1,0,0:0:0:0:
222,357,114012,1,0,0:0:0:0:
196,221,114179,2,0,L|181:142,1,80.9999975280763
155,6,114512,1,0,0:0:0:0:
79,77,114678,1,0,0:0:0:0:
272,136,114846,5,0,0:0:0:0:
100,173,115013,1,0,0:0:0:0:
155,6,115179,1,0,0:0:0:0:
350,91,115346,2,0,B|373:141|345:191|345:191|330:228|351:281,1,161.999995056153
427,306,115846,2,0,L|428:226,1,80.9999975280763,0|0,0:0|0:0,0:0:0:0:
254,226,116179,6,0,L|255:307,1,80.9999975280763,0|0,0:0|0:0,0:0:0:0:
254,133,116512,1,0,0:0:0:0:
172,179,116679,1,0,0:0:0:0:
335,181,116846,1,0,0:0:0:0:
256,39,117012,1,0,0:0:0:0:
254,226,117179,1,0,0:0:0:0:
417,135,117346,6,0,B|332:101|346:159|254:134,1,161.999995056153
144,104,117846,1,0,0:0:0:0:
144,104,118012,2,0,B|120:190|178:176|144:261,1,161.999995056153
61,301,118512,1,0,0:0:0:0:
68,210,118679,1,0,0:0:0:0:
220,312,118846,6,0,P|259:320|334:314,1,80.9999975280763
300,177,119179,2,0,P|259:177|220:186,1,80.9999975280763
411,291,119512,1,0,0:0:0:0:
454,137,119679,1,0,0:0:0:0:
300,177,119846,1,0,0:0:0:0:
413,299,120012,1,0,0:0:0:0:
460,130,120179,6,0,P|463:88|446:24,1,80.9999975280763
300,177,120512,1,0,0:0:0:0:
474,223,120679,1,0,0:0:0:0:
327,92,120846,6,0,P|292:87|238:110,1,80.9999975280763
130,366,121179,1,0,0:0:0:0:
322,293,121345,1,0,0:0:0:0:
57,174,121513,5,0,0:0:0:0:
322,293,121679,1,0,0:0:0:0:
57,174,121846,1,0,0:0:0:0:
249,101,122179,5,0,0:0:0:0:
130,366,122345,1,0,0:0:0:0:
249,101,122512,1,0,0:0:0:0:
130,366,123012,5,0,0:0:0:0:
134,172,123346,5,0,0:0:0:0:
76,267,123513,1,0,0:0:0:0:
188,269,123679,1,0,0:0:0:0:
183,105,123846,6,0,P|149:91|109:93,1,67.5
183,105,124179,6,0,P|230:124|313:97,1,99.0000030212403
449,179,124512,1,0,0:0:0:0:
416,0,124679,1,0,0:0:0:0:
277,119,124846,6,0,P|257:166|285:249,1,99.0000030212403
433,273,125179,1,0,0:0:0:0:
400,95,125345,1,0,0:0:0:0:
338,281,125512,6,0,P|292:312|237:313,1,99.0000030212403
94,193,125845,1,0,0:0:0:0:
277,119,126012,1,0,0:0:0:0:
143,277,126179,6,0,P|90:290|29:262,1,99.0000030212403
45,109,126512,2,0,P|98:96|159:124,1,99.0000030212403
318,193,126846,6,0,L|186:193,1,99.0000030212403
267,280,127179,1,0,0:0:0:0:
267,106,127346,1,0,0:0:0:0:
162,249,127512,2,0,L|174:353,1,99.0000030212403
372,249,127846,2,0,L|360:353,1,99.0000030212403
267,181,128179,6,0,L|267:295,1,99.0000030212403
162,142,128512,1,0,0:0:0:0:
372,142,128679,1,0,0:0:0:0:
162,35,128845,1,0,0:0:0:0:
372,35,129012,1,0,0:0:0:0:
267,181,129179,2,0,L|267:72,1,99.0000030212403
431,234,129512,6,0,P|383:251|299:225,1,99.0000030212403
171,192,129846,2,0,P|217:175|266:180,1,99.0000030212403
152,294,130179,5,0,0:0:0:0:
72,234,130346,1,0,0:0:0:0:
93,133,130512,1,0,0:0:0:0:
171,192,130679,1,0,0:0:0:0:
20,166,130846,6,0,P|17:110|79:51,1,99.0000030212403
171,192,131179,2,0,P|174:248|112:307,1,99.0000030212403
93,133,131512,2,0,P|168:93|266:166,1,198.000006042481
258,233,132012,1,0,0:3:0:0:
435,145,132179,5,0,0:0:0:0:
258,145,132346,1,0,0:0:0:0:
346,322,132512,1,0,0:0:0:0:
346,145,132679,1,0,0:0:0:0:
168,233,132845,5,0,0:0:0:0:
346,233,133012,1,0,0:0:0:0:
258,55,133179,1,0,0:0:0:0:
258,233,133346,1,0,0:0:0:0:
354,54,133512,5,0,0:0:0:0:
161,54,133679,1,0,0:0:0:0:
346,145,133846,5,0,0:0:0:0:
172,145,134013,1,0,0:0:0:0:
336,235,134179,5,0,0:0:0:0:
182,235,134346,1,0,0:0:0:0:
326,325,134512,5,0,0:0:0:0:
192,325,134679,1,0,0:0:0:0:
346,145,134846,6,0,P|394:140|457:177,1,99.0000030212403
326,325,135179,1,0,0:0:0:0:
240,144,135346,1,0,0:0:0:0:
439,159,135512,6,0,L|406:277,1,99.0000030212403
240,144,135846,1,0,0:0:0:0:
422,51,136012,1,0,0:0:0:0:
281,224,136179,6,0,P|230:234|169:199,1,99.0000030212403
114,32,136512,1,0,0:0:0:0:
311,62,136679,1,0,0:0:0:0:
187,217,136846,6,0,L|85:207,1,99.0000030212403
295,142,137179,1,0,0:0:0:0:
248,354,137346,1,0,0:0:0:0:
88,207,137512,6,0,P|125:179|189:180,1,99.0000030212403
396,232,137846,2,0,P|359:260|295:259,1,99.0000030212403
176,175,138179,2,0,L|180:72,1,99.0000030212403
304,165,138512,2,0,L|308:264,1,99.0000030212403
350,93,138846,6,0,P|303:80|242:107,1,99.0000030212403
216,290,139179,1,0,0:0:0:0:
165,121,139345,1,0,0:0:0:0:
308,264,139512,1,0,0:0:0:0:
257,95,139679,1,0,0:0:0:0:
147,239,139846,2,0,P|134:305|151:351,1,99.0000030212403
381,309,140179,6,0,P|390:261|377:214,1,99.0000030212403
221,166,140512,1,0,0:0:0:0:
341,55,140680,1,0,0:0:0:0:
289,234,140846,2,0,P|237:261|162:241,1,99.0000030212403
349,135,141179,2,0,P|397:135|440:160,1,99.0000030212403
363,312,141512,6,0,L|376:213,1,99.0000030212403
341,55,141846,1,0,0:0:0:0:
221,166,142012,1,0,0:0:0:0:
376,213,142179,2,0,P|418:237|467:238,1,99.0000030212403
432,80,142512,2,0,P|389:55|340:54,1,99.0000030212403
150,117,142846,5,0,0:0:0:0:
298,126,143012,1,0,0:0:0:0:
289,274,143179,1,0,0:0:0:0:
141,265,143346,1,0,0:0:0:0:
227,69,143512,5,0,0:0:0:0:
345,203,143678,1,0,0:0:0:0:
211,321,143845,1,0,0:0:0:0:
93,187,144012,1,0,0:0:0:0:
297,126,144179,6,0,P|392:125|434:209,1,198.000006042481
383,283,144679,1,0,0:0:0:0:
219,169,144846,6,0,B|192:91|240:104|213:20,1,135.000005149842
219,250,145512,5,0,0:0:0:0:
