osu file format v14

[General]
AudioFilename: nam.mp3
AudioLeadIn: 0
PreviewTime: 59262
Countdown: 0
SampleSet: Soft
StackLeniency: 0.2
Mode: 0
LetterboxInBreaks: 0
WidescreenStoryboard: 1

[Editor]
Bookmarks: 65502
DistanceSpacing: 1.1
BeatDivisor: 4
GridSize: 4
TimelineZoom: 2.4

[Metadata]
Title:Odore Orchestra
TitleUnicode:踊れオーケストラ
Artist:*namirin
ArtistUnicode:*なみりん
Creator:ChronoNig
Version:Easy
Source:
Tags:ProEzreal vocaloid IA cover dance orchestra
BeatmapID:1369389
BeatmapSetID:536963

[Difficulty]
HPDrainRate:2
CircleSize:2
OverallDifficulty:2
ApproachRate:3
SliderMultiplier:0.9
SliderTickRate:1

[Events]
//Background and Video events
0,0,"60976154_p1_master1200.jpg",0,0
//Break Periods
//Storyboard Layer 0 (Background)
//Storyboard Layer 1 (Fail)
//Storyboard Layer 2 (Pass)
//Storyboard Layer 3 (Foreground)
//Storyboard Sound Samples

[TimingPoints]
1513,333.333333333333,4,2,0,70,1,0
4179,-100,4,2,0,70,0,0
4846,-100,4,2,0,80,0,0
5512,-100,4,2,0,90,0,0
6179,-100,4,2,0,35,0,0
6846,-100,4,2,0,80,0,0
11679,-100,4,2,0,50,0,0
12179,-100,4,2,0,80,0,0
16846,-100,4,2,0,70,0,0
17512,-100,4,2,0,80,0,0
22346,-100,4,2,0,50,0,0
22846,-100,4,2,0,80,0,0
28179,-100,4,2,0,70,0,0
38512,-100,4,2,0,70,0,0
38846,-100,4,2,0,70,0,0
48346,-100,4,2,0,70,0,0
49179,-100,4,2,0,35,0,0
49512,-100,4,2,0,65,0,0
56179,-100,4,2,0,70,0,0
59846,-100,4,2,0,50,0,0
60179,-100,4,2,0,80,0,1
69512,-100,4,2,0,100,0,0
69846,-100,4,2,0,95,0,0
70179,-100,4,2,0,90,0,0
70512,-100,4,2,0,85,0,0
70846,-100,4,2,0,80,0,1
80846,-100,4,2,1,80,0,1
81179,-100,4,2,0,80,0,1
81512,-100,4,2,0,70,0,0
83346,-100,4,2,0,70,0,0
85512,-100,4,2,0,70,0,0
87846,-100,4,2,0,70,0,0
91512,-100,4,2,0,50,0,0
92179,-100,4,2,0,70,0,0
123846,-100,4,2,0,50,0,0
124179,-100,4,2,0,80,0,1
133512,-100,4,2,0,100,0,0
133846,-100,4,2,0,95,0,0
134179,-100,4,2,0,80,0,0
134512,-100,4,2,0,85,0,0
134846,-100,4,2,0,80,0,1
144846,-100,4,2,0,60,0,0

[Colours]
Combo1 : 192,192,192
Combo2 : 255,66,255
Combo3 : 255,191,223

[HitObjects]
256,192,1513,12,0,3512,0:0:0:0:
67,75,4179,6,0,B|118:71|143:117|143:117|192:103|204:58|204:58|234:97|283:88,1,270
372,47,5512,2,0,P|401:43|425:44,2,45
291,331,6846,6,0,B|244:320|203:332|203:332|176:247|176:247|139:272|88:261,1,270
120,167,8179,2,0,P|194:147|255:182,1,135
316,237,9012,2,0,P|360:249|408:240,1,90
474,173,9679,2,0,P|486:129|477:81,1,90
332,61,10512,1,0,0:0:0:0:
307,157,10846,2,0,L|323:301,2,135
244,80,12179,6,0,B|198:79|167:41|167:41|148:86|98:87|98:87|128:139|96:189,1,270
158,257,13512,2,0,P|97:272|30:244,2,135
230,189,14846,2,0,P|273:175|330:188,1,90
414,165,15512,2,0,P|434:95|408:19,2,135
150,308,17512,6,0,B|167:258|136:223|136:223|190:218|204:173|204:173|161:140|166:81,1,270
264,90,18846,2,0,B|340:75|323:114|409:99,1,135
482,150,19679,2,0,L|464:244,1,90
373,276,20346,2,0,L|355:370,1,90
218,308,21179,1,0,0:0:0:0:
158,229,21512,2,0,P|227:210|294:244,2,135
66,267,22846,6,0,B|48:218|71:179|71:179|30:101|30:101|79:117|126:87,1,270
200,38,24179,2,0,P|269:16|331:43,2,135
264,114,25512,2,0,P|275:168|259:219,1,90
176,241,26179,2,0,L|36:246,2,135
415,65,28179,6,0,P|429:107|432:152,2,90
339,193,29346,2,0,B|367:255|437:255|437:255|445:315|385:355,1,225
301,359,30512,1,0,0:0:0:0:
211,315,30846,2,0,L|218:225,2,90
123,195,32012,2,0,B|150:124|230:124|230:124|269:148|318:131,1,225
392,72,33179,1,0,0:0:0:0:
471,130,33512,6,0,P|488:95|481:31,2,90
423,217,34512,1,0,0:0:0:0:
328,185,34846,2,0,B|265:164|265:164|187:189,1,135
59,234,35846,1,0,0:0:0:0:
113,316,36179,2,0,P|156:324|205:314,1,90
286,264,36846,2,0,P|329:255|374:263,1,90
461,217,37512,2,0,P|468:172|459:129,2,90
372,173,38512,1,0,0:0:0:0:
381,75,38846,6,0,P|418:43|475:41,2,90
277,181,40012,2,0,B|219:222|158:190|158:190|157:131|100:99,1,225
60,191,41179,1,0,0:0:0:0:
103,279,41512,2,0,P|105:326|85:371,2,90
201,167,42679,2,0,B|259:139|314:161|314:161|357:205|423:185,1,225
480,114,43846,1,0,0:0:0:0:
444,21,44179,6,0,P|407:5|338:11,2,90
384,100,45179,1,0,0:0:0:0:
288,74,45512,2,0,P|224:52|144:80,1,135
75,190,46512,1,0,0:0:0:0:
138,266,46846,2,0,P|190:283|243:270,1,90
300,215,47512,2,0,B|314:126|314:126|293:69,2,135
397,235,48846,2,0,L|410:145,1,90
390,48,49512,6,0,P|438:49|478:72,2,90
284,153,50679,1,0,0:0:0:0:
178,258,51179,2,0,L|72:253,1,90
55,160,51846,1,0,0:0:0:0:
101,72,52179,2,0,P|58:62|7:74,2,90
249,57,53346,1,0,0:0:0:0:
329,182,53846,2,0,L|313:284,1,90
237,332,54512,1,0,0:0:0:0:
154,277,54846,6,0,P|138:324|148:378,2,90
219,202,55846,1,0,0:0:0:0:
285,128,56179,2,0,P|288:83|273:41,2,90
190,98,57179,1,0,0:0:0:0:
96,67,57512,6,0,L|97:169,1,90
14,212,58179,2,0,L|15:314,1,90
154,352,59012,1,0,0:0:0:0:
369,80,60179,6,0,P|396:166|369:262,1,180
285,293,61179,1,0,0:0:0:0:
193,255,61512,2,0,P|172:168|199:83,1,180
283,32,62512,1,0,0:0:0:0:
370,79,62846,2,0,L|475:62,2,90
329,169,63846,2,0,P|321:219|335:276,1,90
257,326,64512,2,0,B|174:289|174:289|82:328,1,180
28,247,65512,6,0,P|20:196|41:149,1,90
110,99,66179,2,0,L|218:97,1,90
269,26,66846,2,0,B|319:83|284:153|284:153|284:204,1,180
286,295,67846,1,0,0:0:0:0:
378,261,68179,2,0,P|383:306|364:361,2,90
393,163,69179,1,0,0:0:0:0:
340,77,69512,2,0,B|291:91|256:67|256:67|246:116|199:128|199:128|203:178|157:217,1,270
119,299,70846,6,0,P|81:264|107:132,2,180
216,280,72512,1,0,0:0:0:0:
300,331,72846,2,0,P|344:328|406:342,1,90
462,270,73512,2,0,L|465:166,2,90
368,237,74512,2,0,L|370:147,1,90
314,65,75179,6,0,B|228:38|228:38|130:73,1,180
82,146,76179,2,0,P|52:228|89:316,1,180
177,344,77179,1,0,0:0:0:0:
270,312,77512,2,0,P|302:229|272:147,1,180
177,118,78512,1,0,0:0:0:0:
313,59,79012,6,0,P|363:112|393:187,1,135
400,266,79846,1,0,0:0:0:0:
323,328,80179,2,0,P|240:297|146:337,1,180
67,149,81512,6,0,L|50:258,2,90
87,51,82512,1,0,0:0:0:0:
167,108,82846,2,0,L|301:112,1,135
394,78,83679,2,0,P|400:122|387:164,1,90
476,207,84346,2,0,P|449:243|410:263,1,90
262,247,85179,1,0,0:0:0:0:
176,196,85512,6,0,P|162:260|192:321,2,135
150,99,86846,2,0,L|57:76,2,90
246,123,87846,1,0,0:0:0:0:
305,201,88179,2,0,P|291:275|309:334,1,135
439,263,89179,1,0,0:0:0:0:
417,166,89512,6,0,B|362:95|362:95|256:88,1,180
131,137,90679,1,0,0:0:0:0:
243,235,91179,1,0,0:0:0:0:
470,44,92179,6,0,L|454:238,1,180
376,349,93346,1,0,0:0:0:0:
312,273,93679,2,0,L|298:132,1,135
238,59,94512,1,0,0:0:0:0:
139,73,94846,6,0,P|76:136|80:230,1,180
149,351,96012,1,0,0:0:0:0:
208,271,96346,2,0,P|271:251|350:277,1,135
399,191,97179,1,0,0:0:0:0:
362,99,97512,2,0,P|276:123|171:99,1,180
60,31,98679,1,0,0:0:0:0:
54,129,99012,6,0,B|45:271,1,135
128,318,99846,1,0,0:0:0:0:
223,291,100179,2,0,B|335:312|335:312|410:280,1,180
315,161,101346,1,0,0:0:0:0:
262,76,101679,2,0,B|213:111|216:172|216:172|171:122|95:135,1,225
54,212,102846,6,0,P|119:269|213:271,1,180
303,240,103846,1,0,0:0:0:0:
396,207,104179,2,0,L|447:73,2,135
321,141,105512,2,0,B|228:117|247:181|132:157,2,180
378,221,107179,1,0,0:0:0:0:
352,316,107512,2,0,P|307:334|253:327,1,90
180,282,108179,6,0,B|147:239|155:196|155:196|189:158|177:94,1,180
81,127,109179,1,0,0:0:0:0:
123,37,109512,2,0,P|173:17|215:25,1,90
286,82,110179,2,0,P|282:126|301:166,1,90
386,217,110846,2,0,P|321:263|229:231,1,180
181,148,111846,1,0,0:0:0:0:
109,80,112179,2,0,P|80:152|140:240,1,180
181,319,113179,1,0,0:0:0:0:
279,316,113512,6,0,P|327:324|375:320,2,90
230,229,114512,1,0,0:0:0:0:
280,143,114846,2,0,B|322:123|369:143|369:143|348:93|377:40,1,180
458,98,115846,1,0,0:0:0:0:
470,196,116179,2,0,P|480:247|478:293,2,90
383,244,117179,1,0,0:0:0:0:
289,211,117512,2,0,B|179:192|227:247|109:223,1,180
20,190,118512,1,0,0:0:0:0:
95,125,118846,6,0,P|67:87|65:37,2,90
162,51,119846,1,0,0:0:0:0:
260,60,120179,2,0,L|387:77,2,90
203,141,121179,1,0,0:0:0:0:
275,207,121512,2,0,P|284:256|267:316,1,90
187,338,122179,2,0,P|178:289|195:229,1,90
108,122,123012,2,0,L|18:118,1,90
250,32,124179,6,0,P|286:112|256:206,1,180
165,217,125179,1,0,0:0:0:0:
66,213,125512,2,0,P|98:292|203:310,1,180
279,293,126512,1,0,0:0:0:0:
373,263,126846,2,0,P|417:257|469:275,2,90
299,196,127846,2,0,P|281:154|284:96,1,90
281,11,128512,2,0,B|197:45|197:45|178:143,1,180
118,210,129512,6,0,L|15:210,1,90
28,309,130179,2,0,L|118:309,1,90
203,259,130846,2,0,L|401:259,1,180
482,259,131846,1,0,0:0:0:0:
475,160,132179,2,0,P|436:132|390:123,1,90
326,52,132846,2,0,P|282:62|246:88,1,90
152,58,133512,2,0,B|127:100|139:146|139:146|89:157|76:200|76:200|121:224|130:281,1,270
210,325,134846,6,0,P|296:348|393:318,1,180
413,230,135846,1,0,0:0:0:0:
382,135,136179,2,0,P|296:112|199:142,1,180
179,230,137179,1,0,0:0:0:0:
115,154,137512,2,0,L|99:51,2,90
82,247,138512,1,0,0:0:0:0:
146,322,138846,2,0,B|232:350|232:350|329:315,1,180
408,283,139846,1,0,0:0:0:0:
469,205,140179,6,0,P|479:116|444:30,1,180
351,61,141179,1,0,0:0:0:0:
254,83,141512,2,0,B|155:132|173:63|76:111,1,180
4,172,142512,1,0,0:0:0:0:
86,295,143012,6,0,B|177:294|177:294|212:324|212:324|309:319,1,225
389,277,144179,2,0,P|402:224|392:176,1,90
342,106,144846,1,0,0:0:0:0:
243,111,145179,1,0,0:0:0:0:
297,194,145512,1,0,0:0:0:0:
