osu file format v14

[General]
AudioFilename: audio.mp3
AudioLeadIn: 0
PreviewTime: 53670
Countdown: 0
SampleSet: Soft
StackLeniency: 0.4
Mode: 0
LetterboxInBreaks: 0
WidescreenStoryboard: 0

[Editor]
Bookmarks: 10371,32639,53670
DistanceSpacing: 3.5
BeatDivisor: 4
GridSize: 4
TimelineZoom: 1.7

[Metadata]
Title:Mizutamari Tobikoete (with Nanahira)
TitleUnicode:水たまり飛び越えて (with ななひら)
Artist:*namirin
ArtistUnicode:*なみりん
Creator:Luna-
Version:Extra
Source:
Tags:
BeatmapID:1412441
BeatmapSetID:667539

[Difficulty]
HPDrainRate:7
CircleSize:4
OverallDifficulty:8
ApproachRate:9
SliderMultiplier:1.8
SliderTickRate:1

[Events]
//Background and Video events
0,0,"63387472_p0.jpg",0,0
//Break Periods
//Storyboard Layer 0 (Background)
//Storyboard Layer 1 (Fail)
//Storyboard Layer 2 (Pass)
//Storyboard Layer 3 (Foreground)
//Storyboard Sound Samples

[TimingPoints]
475,309.278350515464,4,2,0,80,1,0
10371,-142.857142857143,4,2,0,60,0,0
32639,-125,4,2,0,60,0,0
53670,-90.9090909090909,4,2,0,60,0,0

[Colours]
Combo1 : 128,255,255
Combo2 : 255,128,128
Combo3 : 255,128,64
Combo4 : 255,255,128
Combo5 : 128,255,128

[HitObjects]
100,276,475,6,0,L|189:270,1,90
403,257,784,1,0,0:0:0:0:
231,160,938,1,0,0:0:0:0:
309,364,1093,2,0,P|325:322|327:277,1,90
327,79,1402,1,0,0:0:0:0:
189,270,1557,1,0,0:0:0:0:
473,180,1712,6,0,L|385:160,1,90
137,111,2021,2,0,L|224:91,1,90
414,297,2330,2,0,L|326:277,1,90
123,236,2639,1,0,0:0:0:0:
309,364,2794,1,0,0:0:0:0:
300,94,2949,6,0,P|283:135|281:180,1,90
309,364,3258,1,0,0:0:0:0:
385,160,3413,1,0,0:0:0:0:
157,277,3567,2,0,L|246:271,1,90
455,259,3877,1,0,0:0:0:0:
309,364,4031,1,0,0:0:0:0:
366,73,4186,6,0,P|383:114|385:159,1,90
144,234,4495,2,0,P|171:198|208:174,1,90
395,346,4804,2,0,P|350:340|311:319,1,90
297,134,5114,1,0,0:0:0:0:
204,337,5268,1,0,0:0:0:0:
473,255,5423,6,0,L|376:258,1,90
144,234,5732,1,0,0:0:0:0:
308,337,5887,1,0,0:0:0:0:
244,85,6042,2,0,L|241:182,1,90
308,337,6351,1,0,0:0:0:0:
375,161,6505,1,0,0:0:0:0:
180,265,6660,6,0,P|222:265|276:255,1,90
464,169,6969,2,0,P|422:169|368:159,1,90
154,93,7279,2,0,P|196:93|250:83,1,90
431,64,7588,1,0,0:0:0:0:
241,174,7743,1,0,0:0:0:0:
455,265,7897,5,0,0:0:0:0:
311,50,8052,1,0,0:0:0:0:
311,50,8206,1,0,0:0:0:0:
281,325,8361,5,0,0:0:0:0:
425,110,8516,1,0,0:0:0:0:
425,110,8670,1,0,0:0:0:0:
142,166,8825,5,0,0:0:0:0:
378,324,8980,1,0,0:0:0:0:
378,324,9134,1,0,0:0:0:0:
54,304,9289,5,0,0:0:0:0:
337,114,9444,1,0,0:0:0:0:
337,114,9598,1,0,0:0:0:0:
23,94,9753,5,0,0:0:0:0:
306,283,9908,1,0,0:0:0:0:
74,213,10062,1,0,0:0:0:0:
357,24,10217,1,0,0:0:0:0:
378,324,10371,6,0,L|315:324,1,62.9999980773926
227,266,10681,2,0,L|164:266,1,62.9999980773926
74,213,10990,2,0,P|63:245|63:282,1,62.9999980773926
165,162,11299,2,0,P|162:130|153:100,1,62.9999980773926
128,9,11609,2,0,L|191:9,1,62.9999980773926
314,38,11918,5,0,0:0:0:0:
319,69,12072,1,0,0:0:0:0:
438,87,12227,1,0,0:0:0:0:
429,117,12381,1,0,0:0:0:0:
287,180,12536,1,0,0:0:0:0:
292,211,12690,1,0,0:0:0:0:
444,292,12846,6,0,L|447:223,1,62.9999980773926
350,337,13155,2,0,L|353:268,1,62.9999980773926
246,302,13464,2,0,P|205:296|179:296,1,62.9999980773926
57,224,13773,2,0,P|97:218|124:218,1,62.9999980773926
223,177,14083,2,0,L|220:108,1,62.9999980773926
92,24,14392,5,0,0:0:0:0:
61,29,14546,1,0,0:0:0:0:
145,130,14701,1,0,0:0:0:0:
114,125,14855,1,0,0:0:0:0:
229,6,15011,1,0,0:0:0:0:
198,11,15165,1,0,0:0:0:0:
313,124,15320,6,0,P|342:112|371:88,1,62.9999980773926
242,184,15629,2,0,P|237:215|244:252,1,62.9999980773926
226,92,15938,2,0,P|201:72|165:59,1,62.9999980773926
36,115,16248,2,0,P|60:134|96:147,1,62.9999980773926
141,248,16557,2,0,L|98:300,1,62.9999980773926
252,360,16866,5,0,0:0:0:0:
257,329,17020,1,0,0:0:0:0:
376,311,17175,1,0,0:0:0:0:
367,281,17329,1,0,0:0:0:0:
225,218,17484,1,0,0:0:0:0:
230,187,17638,1,0,0:0:0:0:
397,95,17794,6,0,L|404:170,1,62.9999980773926
297,248,18103,1,0,0:0:0:0:
184,129,18258,2,0,B|247:111|248:158|305:135,1,125.999996154785
200,278,18722,2,0,L|207:203,1,62.9999980773926
277,31,19031,5,0,0:0:0:0:
282,62,19185,1,0,0:0:0:0:
96,151,19340,1,0,0:0:0:0:
106,89,19494,1,0,0:0:0:0:
298,165,19650,1,0,0:0:0:0:
318,289,19804,1,0,0:0:0:0:
116,254,19959,1,0,0:0:0:0:
364,214,20114,1,0,0:0:0:0:
217,355,20268,6,0,L|222:281,1,62.9999980773926
