osu file format v14

[General]
AudioFilename: audio.mp3
AudioLeadIn: 0
PreviewTime: 53670
Countdown: 1
SampleSet: Soft
StackLeniency: 0.7
Mode: 1
LetterboxInBreaks: 0
WidescreenStoryboard: 1

[Editor]
DistanceSpacing: 1.7
BeatDivisor: 4
GridSize: 4
TimelineZoom: 1.1

[Metadata]
Title:Mizutamari Tobikoete (with Nanahira)
TitleUnicode:水たまり飛び越えて (with ななひら)
Artist:*namirin
ArtistUnicode:*なみりん
Creator:Jorkseljund
Version:Muzukashii
Source:
Tags:
BeatmapID:1749632
BeatmapSetID:835364

[Difficulty]
HPDrainRate:5
CircleSize:5
OverallDifficulty:5
ApproachRate:5
SliderMultiplier:1.4
SliderTickRate:1

[Events]
//Background and Video events
0,0,"DiRN78uVAAA4YfU.jpg",0,0
//Break Periods
//Storyboard Layer 0 (Background)
//Storyboard Layer 1 (Fail)
//Storyboard Layer 2 (Pass)
//Storyboard Layer 3 (Foreground)
//Storyboard Sound Samples

[TimingPoints]
475,309.278350515464,4,2,0,100,1,0
53670,-100,4,2,0,100,0,1
77176,-100,4,2,0,100,0,0
78413,-100,4,2,0,100,0,1
83361,-100,4,2,0,100,0,0
146454,-100,4,2,0,100,0,1
169959,-100,4,2,0,100,0,0
171196,-100,4,2,0,100,0,1
176145,-100,4,2,0,100,0,0
228103,-100,4,2,0,100,0,1
231815,-100,4,2,0,100,0,0
233052,-100,4,2,0,100,0,1
238000,-100,4,2,0,100,0,0

[HitObjects]
164,172,475,5,6,0:0:0:0:
400,140,784,1,0,0:0:0:0:
164,172,1093,1,0,0:0:0:0:
356,32,1402,1,0,0:0:0:0:
500,52,1557,1,8,0:0:0:0:
444,72,1634,1,8,0:0:0:0:
388,92,1712,1,8,0:0:0:0:
164,176,2021,1,8,0:0:0:0:
396,132,2330,1,0,0:0:0:0:
164,176,2639,1,8,0:0:0:0:
332,4,2949,1,8,0:0:0:0:
184,188,3258,1,0,0:0:0:0:
332,4,3567,1,0,0:0:0:0:
224,216,3877,1,0,0:0:0:0:
280,112,4031,1,8,0:0:0:0:
252,164,4109,1,8,0:0:0:0:
252,164,4186,1,8,0:0:0:0:
40,60,4495,1,8,0:0:0:0:
252,164,4804,1,0,0:0:0:0:
36,60,5114,1,8,0:0:0:0:
268,112,5423,1,8,0:0:0:0:
52,216,5732,1,0,0:0:0:0:
268,112,6042,1,8,0:0:0:0:
68,244,6351,1,0,0:0:0:0:
168,180,6505,1,8,0:0:0:0:
216,144,6583,1,8,0:0:0:0:
168,180,6660,1,8,0:0:0:0:
216,100,6969,1,8,0:0:0:0:
216,100,7279,1,0,0:0:0:0:
216,100,7588,1,8,0:0:0:0:
436,192,7897,1,12,0:0:0:0:
108,52,8361,1,4,0:0:0:0:
140,152,8825,1,4,0:0:0:0:
496,168,9289,1,12,0:0:0:0:
172,20,9753,1,4,0:0:0:0:
252,244,9985,1,0,0:0:0:0:
248,184,10062,1,0,0:0:0:0:
248,184,10140,1,0,0:0:0:0:
248,184,10371,1,4,0:0:0:0:
248,104,10681,1,0,0:0:0:0:
248,104,10990,1,8,0:0:0:0:
152,180,11454,1,0,0:0:0:0:
152,180,11609,1,8,0:0:0:0:
352,52,11918,1,0,0:0:0:0:
152,180,12227,1,8,0:0:0:0:
352,52,12536,1,0,0:0:0:0:
168,204,12846,1,8,0:0:0:0:
204,144,13464,1,8,0:0:0:0:
292,88,13928,1,8,0:0:0:0:
368,180,14083,1,0,0:0:0:0:
140,112,14392,1,8,0:0:0:0:
368,180,14701,1,8,0:0:0:0:
140,112,15011,1,0,0:0:0:0:
316,272,15320,1,8,0:0:0:0:
68,152,15938,1,8,0:0:0:0:
424,180,16402,1,8,0:0:0:0:
304,172,16557,1,0,0:0:0:0:
72,116,16866,1,8,0:0:0:0:
304,172,17176,1,8,0:0:0:0:
72,116,17485,1,0,0:0:0:0:
308,124,17794,1,8,0:0:0:0:
100,236,18103,1,0,0:0:0:0:
204,180,18258,1,8,0:0:0:0:
232,100,18722,1,0,0:0:0:0:
232,100,18877,1,0,0:0:0:0:
332,160,19031,1,8,0:0:0:0:
332,160,19186,1,0,0:0:0:0:
232,224,19340,1,8,0:0:0:0:
136,296,19495,1,0,0:0:0:0:
232,224,19650,1,8,0:0:0:0:
136,296,19804,1,8,0:0:0:0:
232,224,19959,1,8,0:0:0:0:
136,296,20114,1,0,0:0:0:0:
176,184,20268,1,6,0:0:0:0:
240,104,20887,1,8,0:0:0:0:
240,104,21351,1,8,0:0:0:0:
240,104,21505,1,0,0:0:0:0:
252,344,21815,1,8,0:0:0:0:
240,108,22124,1,0,0:0:0:0:
252,344,22433,1,8,0:0:0:0:
164,124,22743,1,0,0:0:0:0:
164,124,23361,1,8,0:0:0:0:
284,140,23825,1,0,0:0:0:0:
284,140,23980,1,8,0:0:0:0:
48,160,24289,1,0,0:0:0:0:
284,140,24598,1,0,0:0:0:0:
48,160,24907,1,0,0:0:0:0:
284,128,25217,1,12,0:0:0:0:
136,180,25835,1,0,0:0:0:0:
136,180,26454,1,8,0:0:0:0:
328,148,27072,1,0,0:0:0:0:
328,148,27691,1,8,0:0:0:0:
256,144,28619,1,8,0:0:0:0:
256,144,28773,1,0,0:0:0:0:
256,144,29237,1,0,0:0:0:0:
256,144,29391,1,8,0:0:0:0:
104,176,29856,1,0,0:0:0:0:
104,176,30165,1,6,0:0:0:0:
448,276,30629,1,8,0:0:0:0:
184,76,31402,1,0,0:0:0:0:
184,76,31712,1,0,0:0:0:0:
184,76,32021,1,8,0:0:0:0:
184,76,32330,1,0,0:0:0:0:
228,116,32407,1,0,0:0:0:0:
272,156,32485,1,0,0:0:0:0:
172,216,32639,1,6,0:0:0:0:
408,184,32949,1,0,0:0:0:0:
172,216,33258,1,8,0:0:0:0:
272,156,33413,1,0,0:0:0:0:
272,156,33567,1,0,0:0:0:0:
156,128,33722,1,8,0:0:0:0:
40,96,33877,1,0,0:0:0:0:
252,200,34340,1,0,0:0:0:0:
360,248,34494,1,8,0:0:0:0:
196,76,34804,1,0,0:0:0:0:
196,76,34882,1,0,0:0:0:0:
196,76,34959,1,0,0:0:0:0:
196,76,35114,1,8,0:0:0:0:
196,76,35423,1,8,0:0:0:0:
376,232,35732,1,8,0:0:0:0:
140,196,36042,1,0,0:0:0:0:
256,212,36196,1,8,0:0:0:0:
136,196,36351,1,0,0:0:0:0:
156,112,36815,1,0,0:0:0:0:
156,112,36969,1,8,0:0:0:0:
384,176,37279,1,8,0:0:0:0:
152,120,37588,1,0,0:0:0:0:
480,256,38052,1,0,0:0:0:0:
372,212,38206,1,8,0:0:0:0:
32,100,38670,1,8,0:0:0:0:
144,136,38825,1,0,0:0:0:0:
380,172,39134,1,0,0:0:0:0:
264,156,39289,1,0,0:0:0:0:
264,156,39444,1,8,0:0:0:0:
76,8,39753,1,8,0:0:0:0:
124,44,39830,1,8,0:0:0:0:
168,80,39907,1,8,0:0:0:0:
276,136,40062,1,8,0:0:0:0:
384,188,40217,1,8,0:0:0:0:
276,136,40371,1,0,0:0:0:0:
384,188,40526,1,8,0:0:0:0:
264,180,40681,1,8,0:0:0:0:
144,172,40835,1,8,0:0:0:0:
24,160,40990,1,0,0:0:0:0:
144,172,41145,1,8,0:0:0:0:
240,100,41299,1,8,0:0:0:0:
332,24,41454,1,8,0:0:0:0:
240,100,41609,1,0,0:0:0:0:
332,24,41763,1,8,0:0:0:0:
292,136,41918,1,8,0:0:0:0:
56,112,42227,1,0,0:0:0:0:
176,124,42382,1,8,0:0:0:0:
176,124,42536,1,6,0:0:0:0:
252,148,43000,1,0,0:0:0:0:
252,148,43155,1,8,0:0:0:0:
128,104,43619,1,8,0:0:0:0:
128,104,43773,1,0,0:0:0:0:
396,340,44237,1,0,0:0:0:0:
312,256,44392,1,8,0:0:0:0:
148,84,44701,1,0,0:0:0:0:
228,172,44856,1,0,0:0:0:0:
296,76,45011,1,8,0:0:0:0:
96,160,45475,1,0,0:0:0:0:
96,160,45784,1,8,0:0:0:0:
96,160,45938,1,8,0:0:0:0:
216,152,46093,1,0,0:0:0:0:
216,152,46170,1,0,0:0:0:0:
216,152,46248,1,0,0:0:0:0:
196,136,46712,1,0,0:0:0:0:
196,136,46866,1,8,0:0:0:0:
128,232,47021,1,0,0:0:0:0:
364,208,47330,1,0,0:0:0:0:
244,220,47485,1,6,0:0:0:0:
188,120,47639,1,0,0:0:0:0:
188,120,47794,1,0,0:0:0:0:
188,120,47949,1,8,0:0:0:0:
188,120,48103,1,0,0:0:0:0:
416,196,48413,1,0,0:0:0:0:
304,160,48567,1,0,0:0:0:0:
304,160,48722,1,0,0:0:0:0:
184,156,48877,1,8,0:0:0:0:
192,116,49031,1,0,0:0:0:0:
424,164,49340,1,0,0:0:0:0:
308,140,49495,1,0,0:0:0:0:
308,140,49650,1,0,0:0:0:0:
308,140,49804,1,0,0:0:0:0:
308,140,49959,1,12,0:0:0:0:
72,156,50268,1,0,0:0:0:0:
192,148,50423,1,0,0:0:0:0:
192,148,50578,1,8,0:0:0:0:
424,204,50887,1,12,0:0:0:0:
256,192,51196,12,0,52433,0:0:0:0:
276,168,52743,5,0,0:0:0:0:
276,168,52897,1,0,0:0:0:0:
164,124,53052,1,0,0:0:0:0:
164,124,53129,1,0,0:0:0:0:
164,124,53206,1,0,0:0:0:0:
164,124,53361,1,0,0:0:0:0:
164,124,53439,1,0,0:0:0:0:
164,124,53516,1,0,0:0:0:0:
344,136,53670,1,6,0:0:0:0:
104,148,53980,1,0,0:0:0:0:
220,168,54134,1,8,0:0:0:0:
432,60,54444,1,0,0:0:0:0:
164,144,54598,1,8,0:0:0:0:
392,80,54907,1,0,0:0:0:0:
392,80,54985,1,0,0:0:0:0:
392,80,55062,1,0,0:0:0:0:
164,144,55217,1,8,0:0:0:0:
280,116,55371,1,0,0:0:0:0:
280,116,55681,1,0,0:0:0:0:
164,144,55835,1,8,0:0:0:0:
280,116,56145,1,0,0:0:0:0:
164,144,56454,1,8,0:0:0:0:
268,84,56609,1,8,0:0:0:0:
164,144,57072,1,8,0:0:0:0:
364,272,57382,1,8,0:0:0:0:
312,244,57459,1,8,0:0:0:0:
364,272,57536,1,8,0:0:0:0:
164,144,57691,1,0,0:0:0:0:
280,112,57846,1,8,0:0:0:0:
100,264,58155,1,0,0:0:0:0:
164,144,58310,1,8,0:0:0:0:
68,200,58619,1,0,0:0:0:0:
164,144,58928,1,8,0:0:0:0:
48,192,59237,1,0,0:0:0:0:
48,192,59392,1,0,0:0:0:0:
164,144,59547,1,8,0:0:0:0:
48,192,59856,1,0,0:0:0:0:
164,144,60165,1,8,0:0:0:0:
48,192,60475,1,0,0:0:0:0:
48,192,60629,1,0,0:0:0:0:
164,144,60784,1,8,0:0:0:0:
400,160,61093,1,12,0:0:0:0:
280,168,61248,1,0,0:0:0:0:
160,176,61402,1,0,0:0:0:0:
160,176,61557,1,8,0:0:0:0:
160,176,61712,1,0,0:0:0:0:
180,112,62021,1,8,0:0:0:0:
360,268,62330,1,0,0:0:0:0:
268,192,62485,1,8,0:0:0:0:
216,100,62949,1,8,0:0:0:0:
216,100,63103,1,0,0:0:0:0:
216,100,63258,1,0,0:0:0:0:
212,160,63335,1,0,0:0:0:0:
216,100,63413,1,0,0:0:0:0:
216,100,63567,1,6,0:0:0:0:
164,144,63877,1,0,0:0:0:0:
280,128,64031,1,8,0:0:0:0:
164,144,64495,1,8,0:0:0:0:
356,4,64804,1,8,0:0:0:0:
308,40,64882,1,8,0:0:0:0:
260,76,64959,1,8,0:0:0:0:
164,144,65114,1,0,0:0:0:0:
272,196,65268,1,8,0:0:0:0:
164,144,65732,1,8,0:0:0:0:
284,140,65887,1,0,0:0:0:0:
284,140,66042,1,8,0:0:0:0:
104,148,66351,1,8,0:0:0:0:
204,212,66505,1,0,0:0:0:0:
336,184,66660,1,0,0:0:0:0:
456,200,66815,1,0,0:0:0:0:
164,144,66969,1,8,0:0:0:0:
392,72,67279,1,8,0:0:0:0:
336,92,67356,1,8,0:0:0:0:
280,108,67433,1,8,0:0:0:0:
164,144,67588,1,0,0:0:0:0:
224,248,67743,1,8,0:0:0:0:
164,144,68206,1,8,0:0:0:0:
284,156,68361,1,0,0:0:0:0:
284,156,68516,1,12,0:0:0:0:
164,144,68825,1,8,0:0:0:0:
244,368,69134,1,0,0:0:0:0:
204,256,69289,1,0,0:0:0:0:
164,144,69443,1,8,0:0:0:0:
376,256,69753,1,0,0:0:0:0:
164,144,70062,1,8,0:0:0:0:
380,244,70371,1,0,0:0:0:0:
272,196,70526,1,0,0:0:0:0:
164,144,70681,1,8,0:0:0:0:
100,172,70990,1,4,0:0:0:0:
164,144,71299,1,8,0:0:0:0:
276,100,71454,1,8,0:0:0:0:
276,100,71609,1,0,0:0:0:0:
100,260,71918,1,8,0:0:0:0:
128,96,72227,1,4,0:0:0:0:
236,48,72382,1,8,0:0:0:0:
164,144,72536,1,0,0:0:0:0:
284,152,72691,1,0,0:0:0:0:
164,140,72846,1,0,0:0:0:0:
164,144,73155,1,8,0:0:0:0:
396,188,73464,1,6,0:0:0:0:
104,148,73773,1,0,0:0:0:0:
220,168,73927,1,8,0:0:0:0:
432,60,74237,1,0,0:0:0:0:
164,144,74391,1,8,0:0:0:0:
392,80,74700,1,0,0:0:0:0:
392,80,74778,1,0,0:0:0:0:
392,80,74855,1,0,0:0:0:0:
164,144,75010,1,8,0:0:0:0:
280,116,75164,1,0,0:0:0:0:
280,116,75474,1,0,0:0:0:0:
164,144,75628,1,8,0:0:0:0:
280,116,75938,1,0,0:0:0:0:
164,144,76247,1,8,0:0:0:0:
268,84,76402,1,8,0:0:0:0:
164,144,76865,1,8,0:0:0:0:
364,272,77175,1,8,0:0:0:0:
312,244,77252,1,8,0:0:0:0:
364,272,77329,1,8,0:0:0:0:
164,144,77484,1,0,0:0:0:0:
280,112,77639,5,0,0:0:0:0:
164,144,78103,1,8,0:0:0:0:
280,180,78258,1,0,0:0:0:0:
68,200,78413,1,6,0:0:0:0:
164,144,78721,5,8,0:0:0:0:
280,180,78877,1,0,0:0:0:0:
388,60,79186,1,0,0:0:0:0:
164,144,79340,1,8,0:0:0:0:
396,84,79650,1,0,0:0:0:0:
164,144,79958,1,8,0:0:0:0:
280,116,80114,1,0,0:0:0:0:
164,144,80577,1,8,0:0:0:0:
280,116,80732,1,8,0:0:0:0:
164,144,80887,1,8,0:0:0:0:
196,132,81196,1,8,0:0:0:0:
384,280,81505,1,0,0:0:0:0:
336,244,81583,1,0,0:0:0:0:
292,204,81660,1,0,0:0:0:0:
196,132,81815,1,8,0:0:0:0:
64,192,82124,1,0,0:0:0:0:
196,132,82433,1,8,0:0:0:0:
384,280,82743,1,0,0:0:0:0:
292,208,82897,1,0,0:0:0:0:
196,132,83052,1,8,0:0:0:0:
424,64,83361,1,0,0:0:0:0:
192,120,83670,1,8,0:0:0:0:
308,92,83825,1,0,0:0:0:0:
308,92,84134,1,0,0:0:0:0:
200,140,84289,1,8,0:0:0:0:
84,8,84598,1,0,0:0:0:0:
292,120,84907,1,0,0:0:0:0:
188,64,85062,1,8,0:0:0:0:
320,260,85371,1,8,0:0:0:0:
196,132,85526,1,0,0:0:0:0:
292,120,85835,1,8,0:0:0:0:
196,132,86145,1,0,0:0:0:0:
244,112,86299,1,8,0:0:0:0:
8,76,86609,1,8,0:0:0:0:
428,76,86763,1,8,0:0:0:0:
236,216,87072,1,8,0:0:0:0:
428,72,87382,1,0,0:0:0:0:
312,84,87536,1,8,0:0:0:0:
88,168,87846,1,8,0:0:0:0:
200,128,88000,1,8,0:0:0:0:
408,12,88310,1,8,0:0:0:0:
312,84,88464,1,8,0:0:0:0:
312,84,88619,1,0,0:0:0:0:
312,84,88773,1,0,0:0:0:0:
256,192,88928,1,8,0:0:0:0:
76,128,89237,1,0,0:0:0:0:
136,116,89314,1,0,0:0:0:0:
196,104,89391,1,0,0:0:0:0:
92,164,89547,1,8,0:0:0:0:
324,216,89856,1,0,0:0:0:0:
208,192,90011,1,8,0:0:0:0:
244,128,90320,1,8,0:0:0:0:
244,128,90397,1,8,0:0:0:0:
244,128,90475,1,8,0:0:0:0:
132,92,90784,1,8,0:0:0:0:
364,148,91093,1,0,0:0:0:0:
308,136,91170,1,0,0:0:0:0:
248,120,91248,1,0,0:0:0:0:
132,92,91402,1,0,0:0:0:0:
192,104,91480,1,0,0:0:0:0:
192,104,91557,1,0,0:0:0:0:
192,104,91712,1,8,0:0:0:0:
192,104,91866,1,0,0:0:0:0:
192,104,92021,1,8,0:0:0:0:
168,340,92330,1,0,0:0:0:0:
180,220,92485,1,8,0:0:0:0:
144,128,92794,1,0,0:0:0:0:
144,128,92949,1,8,0:0:0:0:
260,116,93103,1,0,0:0:0:0:
260,116,93258,1,6,0:0:0:0:
