osu file format v14

[General]
AudioFilename: audio.mp3
AudioLeadIn: 0
PreviewTime: -1
Countdown: 1
SampleSet: Soft
StackLeniency: 0.7
Mode: 3
LetterboxInBreaks: 0
SpecialStyle: 0
WidescreenStoryboard: 0

[Editor]
DistanceSpacing: 1.7
BeatDivisor: 4
GridSize: 4
TimelineZoom: 1

[Metadata]
Title:Mizutamari Tobikoete (with Nanahira)
TitleUnicode:水たまり飛び越えて (with ななひら)
Artist:*namirin
ArtistUnicode:*なみりん
Creator:Cra Dow
Version:SHD
Source:5colors
Tags:nanahira *namirin ななひら *なみりん featured artist japanese 10k 10key 10 key 10keys 10 keys
BeatmapID:1413398
BeatmapSetID:668025

[Difficulty]
HPDrainRate:9
CircleSize:10
OverallDifficulty:9.5
ApproachRate:5
SliderMultiplier:1.4
SliderTickRate:1

[Events]
//Background and Video events
//Break Periods
//Storyboard Layer 0 (Background)
//Storyboard Layer 1 (Fail)
//Storyboard Layer 2 (Pass)
//Storyboard Layer 3 (Foreground)
//Storyboard Layer 4 (Overlay)
//Storyboard Sound Samples

[TimingPoints]
475,309.278350515464,4,2,0,100,1,0

[HitObjects]
128,192,165,5,0,0:0:0:0:
230,192,243,1,0,0:0:0:0:
332,192,320,1,0,0:0:0:0:
384,192,397,1,0,0:0:0:0:
486,192,475,1,0,0:0:0:0:
128,192,475,1,0,0:0:0:0:
179,192,475,1,0,0:0:0:0:
25,192,475,1,0,0:0:0:0:
435,192,475,128,0,1016:0:0:0:0:
281,192,475,128,0,1016:0:0:0:0:
435,192,1093,128,0,1480:0:0:0:0:
281,192,1093,128,0,1480:0:0:0:0:
281,192,1557,1,0,0:0:0:0:
435,192,1557,1,0,0:0:0:0:
281,192,1712,128,0,2021:0:0:0:0:
435,192,1712,128,0,2021:0:0:0:0:
179,192,2021,128,0,2330:0:0:0:0:
25,192,2021,128,0,2330:0:0:0:0:
128,192,2330,128,0,2639:0:0:0:0:
230,192,2330,128,0,2639:0:0:0:0:
179,192,2639,128,0,2949:0:0:0:0:
25,192,2639,128,0,2949:0:0:0:0:
281,192,2949,128,0,3490:0:0:0:0:
486,192,2949,128,0,3490:0:0:0:0:
281,192,3567,128,0,3954:0:0:0:0:
486,192,3567,128,0,3954:0:0:0:0:
281,192,4031,1,0,0:0:0:0:
486,192,4031,1,0,0:0:0:0:
281,192,4186,128,0,4495:0:0:0:0:
486,192,4186,128,0,4495:0:0:0:0:
25,192,4495,128,0,4804:0:0:0:0:
230,192,4495,128,0,4804:0:0:0:0:
179,192,4804,128,0,5114:0:0:0:0:
332,192,4804,128,0,5114:0:0:0:0:
25,192,5114,128,0,5423:0:0:0:0:
230,192,5114,128,0,5423:0:0:0:0:
384,192,5423,128,0,5964:0:0:0:0:
486,192,5423,128,0,5964:0:0:0:0:
384,192,6042,128,0,6428:0:0:0:0:
486,192,6042,128,0,6428:0:0:0:0:
384,192,6505,1,0,0:0:0:0:
486,192,6505,1,0,0:0:0:0:
384,192,6660,128,0,6969:0:0:0:0:
486,192,6660,128,0,6969:0:0:0:0:
25,192,6969,128,0,7279:0:0:0:0:
128,192,6969,128,0,7279:0:0:0:0:
179,192,7279,128,0,7588:0:0:0:0:
281,192,7279,128,0,7588:0:0:0:0:
128,192,7588,128,0,7897:0:0:0:0:
25,192,7588,128,0,7897:0:0:0:0:
230,192,7897,128,0,8206:0:0:0:0:
486,192,7897,128,0,8516:0:0:0:0:
384,192,7897,128,0,8361:0:0:0:0:
230,192,8361,128,0,8670:0:0:0:0:
76,192,8361,128,0,8748:0:0:0:0:
76,192,8825,128,0,9289:0:0:0:0:
230,192,8825,128,0,9134:0:0:0:0:
230,192,9289,128,0,9598:0:0:0:0:
435,192,9289,128,0,9676:0:0:0:0:
230,192,9753,128,0,10062:0:0:0:0:
435,192,9753,128,0,10371:0:0:0:0:
486,192,10062,128,0,10371:0:0:0:0:
25,192,10371,128,0,10990:0:0:0:0:
384,192,10371,128,0,10990:0:0:0:0:
128,192,10371,128,0,10990:0:0:0:0:
230,192,10371,128,0,10990:0:0:0:0:
332,192,10371,128,0,10990:0:0:0:0:
281,192,10990,128,0,11299:0:0:0:0:
486,192,10990,128,0,11299:0:0:0:0:
128,192,11454,128,0,11609:0:0:0:0:
332,192,11454,128,0,11609:0:0:0:0:
281,192,11609,128,0,12072:0:0:0:0:
486,192,11609,128,0,11995:0:0:0:0:
128,192,11918,128,0,12227:0:0:0:0:
25,192,11918,128,0,12227:0:0:0:0:
76,192,12227,128,0,12459:0:0:0:0:
230,192,12227,128,0,12536:0:0:0:0:
128,192,12459,128,0,12846:0:0:0:0:
179,192,12536,128,0,12846:0:0:0:0:
