osu file format v14

[General]
AudioFilename: audio.mp3
AudioLeadIn: 0
PreviewTime: -1
Countdown: 1
SampleSet: Soft
StackLeniency: 0.3
Mode: 0
LetterboxInBreaks: 0
WidescreenStoryboard: 0

[Editor]
DistanceSpacing: 1.7
BeatDivisor: 4
GridSize: 16
TimelineZoom: 2.899999

[Metadata]
Title:Mizutamari Tobikoete (with Nanahira)
TitleUnicode:水たまり飛び越えて (with ななひら)
Artist:*namirin
ArtistUnicode:*なみりん
Creator:Ayato_k
Version:Insane
Source:
Tags:
BeatmapID:1413526
BeatmapSetID:668090

[Difficulty]
HPDrainRate:6
CircleSize:4
OverallDifficulty:6
ApproachRate:9
SliderMultiplier:1.4
SliderTickRate:1

[Events]
//Background and Video events
0,0,"9e9192bd0b082098ec201fa38178ca9e.jpg",0,0
//Break Periods
//Storyboard Layer 0 (Background)
//Storyboard Layer 1 (Fail)
//Storyboard Layer 2 (Pass)
//Storyboard Layer 3 (Foreground)
//Storyboard Sound Samples

[TimingPoints]
500,309.278350515464,4,2,1,75,1,0
7922,-100,4,2,1,80,0,0
10396,-100,4,2,1,45,0,0
32664,-100,4,2,1,75,0,0
47510,-100,4,2,1,65,0,0
53695,-100,4,2,1,85,0,1
67922,-100,4,2,1,100,0,0
73489,-100,4,2,1,85,0,1
83386,-100,4,2,1,65,0,0
88335,-100,4,2,1,85,0,1
91737,-100,4,2,1,75,0,0

[HitObjects]
80,192,500,6,0,P|152:228|224:232,1,140,8|2,0:0|0:0,0:0:0:0:
448,192,1118,2,0,P|376:156|304:152,1,140,8|2,0:0|0:0,0:0:0:0:
192,176,1582,1,8,0:0:0:0:
256,320,1737,2,0,L|320:272,1,70,8|0,0:0|0:0,0:0:0:0:
256,32,2046,2,0,P|215:102|209:174,1,140,2|8,0:0|0:0,0:0:0:0:
256,320,2664,2,0,P|296:249|302:177,1,140,2|8,0:0|0:0,0:0:0:0:
70,192,3283,6,0,P|150:202|219:181,1,140,2|8,0:0|0:0,0:0:0:0:
464,96,3902,2,0,L|400:144,1,70,2|8,0:0|0:0,0:0:0:0:
96,288,4211,2,0,P|173:264|228:217,1,140,8|2,0:0|0:0,0:0:0:0:
384,64,4829,2,0,P|308:89|253:136,1,140,2|2,0:0|0:0,0:0:0:0:
448,304,5448,6,0,P|382:258|311:242,1,140,8|2,0:0|0:0,0:0:0:0:
64,160,6067,2,0,P|129:205|200:221,1,140,10|2,0:0|0:0,0:0:0:0:
368,176,6530,1,8,0:0:0:0:
192,64,6685,2,0,L|224:128,1,70,8|2,0:0|0:0,0:0:0:0:
352,336,6994,2,0,P|413:284|446:220,1,140,2|2,0:0|0:0,0:0:0:0:
128,80,7613,5,2,0:0:0:0:
336,208,7922,1,8,0:0:0:0:
336,208,8077,2,0,P|352:240|352:288,1,70,8|2,0:0|0:0,0:0:0:0:
160,160,8386,1,8,0:0:0:0:
160,160,8541,2,0,P|144:128|144:80,1,70,8|2,0:0|0:0,0:0:0:0:
224,288,8850,1,8,0:0:0:0:
224,288,9005,2,0,P|193:306|145:310,1,70,8|2,0:0|0:0,0:0:0:0:
279,112,9314,1,8,0:0:0:0:
279,112,9469,2,0,P|309:93|357:89,1,70,8|2,0:0|0:0,0:0:0:0:
336,288,9778,2,0,P|288:288|256:272,1,70,8|8,0:0|0:0,0:0:0:0:
279,112,10087,2,4,P|326:124|352:148,1,70
448,304,10396,6,0,P|370:310|288:304,1,140
256,208,10860,1,0,0:0:0:0:
256,208,11015,2,0,P|207:205|160:192,1,70
144,96,11324,1,0,0:0:0:0:
144,96,11479,2,0,P|102:70|66:36,1,70
469,58,11943,1,2,0:0:0:0:
256,340,12252,1,8,0:0:0:0:
63,55,12561,1,2,0:0:0:0:
469,58,12871,6,0,P|393:52|322:57,1,140
256,176,13335,1,0,0:0:0:0:
256,176,13490,2,0,P|207:179|160:192,1,70
144,288,13799,1,0,0:0:0:0:
144,288,13954,2,0,P|102:313|66:347,1,70
477,329,14417,1,2,0:0:0:0:
255,37,14726,1,8,0:0:0:0:
51,330,15036,1,2,0:0:0:0:
462,335,15345,6,0,P|385:338|315:333,1,140
135,262,15809,1,0,0:0:0:0:
135,262,15964,2,0,P|181:245|229:239,1,70
352,192,16272,1,0,0:3:0:0:
352,192,16427,2,0,P|306:172|259:162,1,70,0|0,0:3|0:3,0:3:0:0:
128,32,16891,2,0,L|64:80,1,70,8|0,0:0|0:0,0:0:0:0:
149,138,17201,2,0,L|80:192,1,70,8|0,0:0|0:0,0:0:0:0:
176,240,17510,2,0,L|112:288,1,70,8|0,0:0|0:0,0:0:0:0:
272,336,17819,2,0,P|317:338|352:336,1,70
432,224,18128,1,0,0:0:0:0:
432,224,18283,2,0,P|387:210|352:208,1,70
80,208,18747,1,0,0:0:0:0:
80,208,18902,2,0,L|224:208,1,140,0|2,0:0|0:0,0:0:0:0:
320,207,19365,5,8,0:0:0:0:
368,144,19520,1,2,0:0:0:0:
304,96,19675,1,8,0:0:0:0:
256,160,19829,1,2,0:0:0:0:
384,272,19984,2,0,P|358:308|320:336,1,70,8|0,0:0|0:0,0:0:0:0:
155,324,20293,1,2,0:0:0:0:
64,48,20912,6,0,L|208:48,1,140
240,144,21376,1,0,0:0:0:0:
240,144,21530,2,0,P|278:155|304:176,1,70
480,352,21840,1,2,0:0:0:0:
208,304,22149,1,8,0:0:0:0:
464,160,22458,1,2,0:0:0:0:
345,329,22768,2,0,P|272:320|182:294,1,140,2|0,0:0|0:0,0:0:0:0:
93,245,23386,2,0,P|166:236|256:210,1,140,2|0,0:0|0:0,0:0:0:0:
289,163,23850,1,2,0:0:0:0:
203,131,24005,2,0,P|133:108|49:65,1,140,2|0,0:0|0:0,0:0:0:0:
256,32,24623,1,2,0:0:0:0:
280,188,24932,1,8,0:0:0:0:
458,47,25242,5,8,0:0:0:0:
256,344,25860,1,2,0:0:0:0:
55,44,26479,1,8,0:0:0:0:
448,48,27097,1,2,0:0:0:0:
256,336,27716,2,0,P|230:324|272:336,1,280,8|0,0:0|0:0,0:0:0:0:
178,200,28644,5,2,0:0:0:0:
178,200,28798,2,0,P|208:173|242:168,1,70,2|0,0:0|0:0,0:0:0:0:
351,259,29262,1,2,0:0:0:0:
351,259,29417,2,0,P|321:286|287:291,1,70,2|0,0:0|0:0,0:0:0:0:
139,267,29881,6,0,B|80:204|79:148|79:148|113:127|151:82|151:82|142:179|187:206|187:206|365:128|289:41|289:41|141:85|300:268|300:268|209:274|209:274|198:349|109:350|84:309,1,1120,8|8,0:0|0:0,0:0:0:0:
81,151,32664,6,0,P|120:147|161:151,1,70,2|0,0:0|0:0,0:0:0:0:
236,234,32974,2,0,P|197:238|156:234,1,70
232,149,33283,2,0,P|271:145|312:149,1,70,8|0,0:0|0:0,0:0:0:0:
387,230,33593,2,0,P|348:234|307:230,1,70,0|8,0:0|0:0,0:0:0:0:
402,146,33902,2,0,P|435:166|465:195,1,70,2|0,0:0|0:0,0:0:0:0:
464,272,34211,1,0,0:0:0:0:
400,320,34365,1,0,0:0:0:0:
288,264,34675,1,0,0:0:0:0:
288,264,34829,2,0,P|256:249|224:224,1,70,0|8,0:0|0:0,0:0:0:0:
227,144,35139,2,0,P|266:138|304:144,1,70,2|0,0:0|0:0,0:0:0:0:
424,203,35448,2,0,P|385:209|347:203,1,70,0|2,0:0|0:0,0:0:0:0:
371,57,35757,2,0,P|376:96|371:134,1,70,8|0,0:0|0:3,0:3:0:0:
339,227,36067,2,0,P|315:258|284:281,1,70,0|8,0:0|0:0,0:0:0:0:
206,305,36376,6,0,B|129:248|65:291|65:291|75:145|181:142|181:142|181:208|181:208|181:208,1,420,2|8,0:0|0:0,0:0:0:0:
272,240,37613,5,2,0:0:0:0:
427,119,37922,2,0,P|394:98|363:87,1,70,0|2,0:0|0:0,0:0:0:0:
238,75,38231,2,0,P|173:101|113:151,1,140,8|0,0:0|0:0,0:0:0:0:
224,256,38850,2,0,P|263:235|288:208,1,70,2|0,0:0|0:0,0:0:0:0:
207,176,39159,1,0,0:0:0:0:
207,176,39314,2,0,P|171:188|144:208,1,70,2|8,0:0|0:0,0:0:0:0:
281,217,39778,6,0,P|311:184|329:153,1,70,8|8,0:0|0:0,0:0:0:0:
208,128,40087,1,0,0:0:0:0:
208,128,40242,1,0,0:0:0:0:
208,128,40396,2,0,P|203:163|208:203,1,70,0|2,0:0|0:0,0:0:0:0:
304,130,40706,1,8,0:0:0:0:
304,130,40861,1,0,0:0:0:0:
304,130,41015,2,0,P|309:165|304:205,1,70,0|2,0:0|0:0,0:0:0:0:
222,233,41324,5,8,0:0:0:0:
222,233,41479,1,0,0:0:0:0:
222,233,41634,2,0,P|217:268|222:308,1,70
285,234,41943,1,8,0:0:0:0:
285,234,42097,1,2,0:0:0:0:
285,234,42252,2,0,P|290:269|285:309,1,70,8|0,0:0|0:0,0:0:0:0:
93,310,42871,6,0,P|85:275|185:232,1,140,0|8,0:0|0:0,0:0:0:0:
165,153,43335,2,0,P|195:162|148:280,1,210,0|2,0:0|0:0,0:0:0:0:
304,112,44108,2,0,P|325:145|336:176,1,70,0|2,0:0|0:0,0:0:0:0:
342,253,44417,1,8,0:0:0:0:
306,336,44572,2,0,P|267:332|235:323,1,70,0|0,2:0|2:0,2:0:0:0:
166,272,44881,1,8,0:0:0:0:
73,163,45036,2,0,P|114:183|219:177,1,140,2|0,0:0|0:0,0:0:0:0:
171,116,45500,2,0,P|215:104|316:130,1,140,2|0,0:0|0:0,0:0:0:0:
352,208,45963,1,0,0:0:0:0:
431,172,46118,2,0,P|278:165|439:216,1,490,8|0,0:0|0:0,0:0:0:0:
112,128,47510,6,0,P|153:122|192:128,1,70,2|0,0:0|0:0,0:0:0:0:
301,216,47819,2,0,P|261:208|226:189,1,70
133,74,48128,2,0,P|164:101|185:134,1,70,8|0,0:0|0:0,0:0:0:0:
263,259,48438,2,0,P|242:222|234:184,1,70
187,55,48747,2,0,P|187:96|175:134,1,70,2|0,0:0|0:0,0:0:0:0:
177,233,49056,2,0,P|209:206|245:191,1,70
385,154,49365,2,0,P|361:188|330:212,1,70,8|0,0:0|0:0,0:0:0:0:
307,87,49675,2,0,P|337:58|372:41,1,70
455,57,49984,6,0,P|471:157|452:275,1,210,2|8,0:0|0:0,0:0:0:0:
78,312,50912,2,0,P|62:212|81:94,1,210,2|0,0:0|0:0,0:0:0:0:
208,96,51685,6,0,P|247:91|288:96,1,70,8|2,0:0|0:0,0:0:0:0:
363,146,51994,1,2,0:0:0:0:
433,242,52149,2,0,P|334:259|224:230,1,210,8|0,0:0|0:0,0:0:0:0:
160,176,52767,1,2,0:0:0:0:
160,176,52922,1,2,0:0:0:0:
160,176,53077,2,0,L|134:138,7,35,8|8|8|8|8|8|8|8,0:0|0:0|0:0|0:0|0:0|0:0|0:0|0:0,0:0:0:0:
229,140,53695,6,0,P|300:137|373:156,1,140,6|8,0:0|0:0,0:0:0:0:
454,273,54159,2,0,P|422:298|384:304,1,70,2|0,0:0|0:0,0:0:0:0:
304,304,54469,1,2,0:0:0:0:
215,273,54623,1,8,0:0:0:0:
289,211,54778,1,0,0:0:0:0:
230,350,54932,2,0,P|194:344|162:331,1,70,2|0,0:0|0:0,0:0:0:0:
89,280,55242,1,8,0:0:0:0:
42,201,55396,1,2,0:0:0:0:
135,199,55551,1,0,0:0:0:0:
87,122,55706,2,0,P|121:100|159:92,1,70,2|8,0:0|0:0,0:0:0:0:
281,58,56015,1,0,0:0:0:0:
427,162,56170,6,0,P|351:145|288:144,1,140,2|8,0:0|0:0,0:0:0:0:
182,184,56634,1,2,0:0:0:0:
241,276,56788,1,0,0:0:0:0:
241,276,56943,2,0,P|283:268|310:258,1,70,2|8,0:0|0:0,0:0:0:0:
381,182,57252,1,0,0:0:0:0:
288,144,57407,2,0,P|211:124|144:128,1,140,2|8,0:0|0:0,0:0:0:0:
178,246,57871,2,0,P|209:266|258:278,1,70,2|0,0:0|0:0,0:0:0:0:
330,178,58180,1,2,0:0:0:0:
331,173,58335,2,0,P|299:153|238:156,1,70,8|0,0:0|0:0,0:0:0:0:
188,148,58644,6,0,P|93:307|267:315,1,420,2|8,0:0|0:0,0:0:0:0:
179,253,59881,2,0,P|274:94|90:63,1,420,2|8,0:0|0:0,0:0:0:0:
128,176,61118,5,2,0:0:0:0:
128,176,61273,2,0,P|166:172|208:176,1,70,2|8,0:0|0:0,0:0:0:0:
361,255,61582,1,2,0:0:0:0:
361,255,61737,2,0,P|323:259|281:255,1,70,2|8,0:0|0:0,0:0:0:0:
191,80,62046,1,2,0:0:0:0:
191,80,62201,2,0,P|217:108|239:144,1,70,2|8,0:0|0:0,0:0:0:0:
244,316,62510,1,2,0:0:0:0:
244,316,62664,2,0,P|221:285|204:246,1,70,2|8,0:0|0:0,0:0:0:0:
179,171,62974,1,8,0:0:0:0:
153,93,63128,1,8,0:0:0:0:
233,66,63283,2,0,P|253:101|265:146,1,70,8|8,0:0|0:0,0:0:0:0:
266,226,63592,6,0,P|250:261|160:304,1,140,2|8,0:0|0:0,0:0:0:0:
96,240,64056,2,0,P|66:158|64:96,1,140,2|2,0:0|0:0,0:0:0:0:
169,49,64520,1,8,0:0:0:0:
87,30,64675,1,0,0:0:0:0:
136,123,64829,2,0,P|174:124|232:107,1,70,2|0,0:0|0:0,0:0:0:0:
251,26,65139,1,8,0:0:0:0:
136,123,65293,2,0,P|242:108|350:54,1,210,0|8,0:0|0:0,0:0:0:0:
48,320,66067,6,0,P|117:326|192:320,1,140,2|8,0:0|0:0,0:0:0:0:
152,254,66530,2,0,P|188:251|232:254,1,70,2|0,0:0|0:0,0:0:0:0:
282,317,66840,1,2,0:0:0:0:
282,317,66994,2,0,P|320:309|358:292,1,70,8|0,0:0|0:0,0:0:0:0:
401,212,67304,1,2,0:0:0:0:
356,134,67458,1,0,0:0:0:0:
271,132,67613,1,8,0:0:0:0:
205,187,67768,2,0,P|182:215|168:246,1,70
304,304,68231,6,0,B|375:329|375:329|448:288,1,140,8|2,0:0|0:0,0:0:0:0:
372,97,68850,2,0,B|301:72|301:72|228:113,1,140,8|2,0:0|0:0,0:0:0:0:
431,297,69469,2,0,B|456:226|456:226|415:153,1,140,8|2,0:0|0:0,0:0:0:0:
227,132,70087,2,0,B|202:203|202:203|243:276,1,140,8|2,0:0|0:0,0:0:0:0:
424,301,70706,1,8,0:0:0:0:
496,185,71015,6,0,B|444:140|439:93|439:93|439:150|414:204|414:204|348:156|287:155|267:85|319:50|319:50|387:78|383:126|325:204|353:277|353:277|259:198|259:198|251:252|206:297|206:297|156:257,1,980,2|8,0:0|0:0,0:0:0:0:
48,96,73489,6,0,P|86:74|128:64,1,70,2|0,0:0|0:0,0:0:0:0:
227,58,73798,1,8,0:0:0:0:
324,71,73953,1,0,0:0:0:0:
261,137,74108,1,0,0:0:0:0:
388,143,74262,2,0,P|385:183|372:216,1,70,2|8,0:0|0:0,0:0:0:0:
300,273,74572,1,0,0:0:0:0:
203,276,74726,6,0,P|136:228|96:176,1,140,2|8,0:0|0:0,0:0:0:0:
84,96,75190,1,0,0:0:0:0:
161,49,75345,1,0,0:0:0:0:
253,55,75500,2,0,P|298:59|331:69,1,70,2|8,0:0|0:0,0:0:0:0:
417,153,75809,1,0,0:0:0:0:
417,153,75963,2,0,P|340:165|257:169,1,140,2|8,0:0|0:0,0:0:0:0:
115,77,76427,2,0,P|184:57|257:54,1,140,0|2,0:0|0:0,0:0:0:0:
357,82,76891,1,8,0:0:0:0:
425,127,77046,1,0,0:0:0:0:
495,119,77201,2,0,P|383:183|495:135,1,420,12|8,0:0|0:0,0:0:0:0:
357,82,78438,6,0,P|322:66|276:63,1,70,2|0,0:0|0:0,0:0:0:0:
187,131,78747,1,8,0:0:0:0:
187,131,78902,2,0,P|225:142|265:144,1,70
223,52,79211,1,2,0:0:0:0:
117,68,79365,2,0,P|87:96|68:131,1,70,8|0,0:0|0:0,0:0:0:0:
142,184,79675,2,0,P|171:155|190:120,1,70,2|0,0:0|0:0,0:0:0:0:
74,137,79984,1,8,0:0:0:0:
59,213,80139,2,0,P|74:243|114:279,1,70
142,184,80448,1,2,0:0:0:0:
132,101,80603,2,0,P|100:114|62:151,1,70,8|0,0:0|0:0,0:0:0:0:
64,208,80912,5,2,0:0:0:0:
127,264,81067,1,0,0:0:0:0:
127,264,81221,1,8,0:0:0:0:
168,190,81376,1,0,0:0:0:0:
100,149,81530,2,0,P|77:174|62:210,1,70,0|2,0:0|0:0,0:0:0:0:
42,291,81840,1,8,0:0:0:0:
127,264,81994,1,0,0:0:0:0:
210,283,82149,5,2,0:0:0:0:
302,254,82304,1,0,0:0:0:0:
302,254,82458,1,8,0:0:0:0:
244,166,82613,1,0,0:0:0:0:
180,221,82768,2,0,P|191:260|213:286,1,70,2|0,0:0|0:0,0:0:0:0:
302,254,83077,1,8,0:0:0:0:
347,192,83231,1,0,0:0:0:0:
347,192,83386,6,0,P|343:151|329:113,1,70,2|0,0:0|0:0,0:0:0:0:
177,192,83695,1,0,0:0:0:0:
177,192,83850,2,0,P|181:233|195:270,1,70,0|8,0:0|0:0,0:0:0:0:
335,106,84159,1,0,0:0:0:0:
335,106,84314,2,0,P|297:88|258:82,1,70
301,251,84623,2,0,P|337:229|363:200,1,70,2|0,0:0|0:0,0:0:0:0:
216,78,84932,1,0,0:0:0:0:
216,78,85087,2,0,P|187:108|169:143,1,70,0|8,0:0|0:0,0:0:0:0:
358,180,85396,2,0,P|379:144|389:105,1,70
112,240,85860,6,0,B|142:227|142:227|160:239|160:239|209:242|255:235,1,140,2|0,0:0|0:0,0:0:0:0:
374,176,86324,2,0,P|343:155|304:144,1,70,0|8,0:0|0:0,0:0:0:0:
304,288,86634,1,0,0:0:0:0:
304,288,86788,2,0,P|345:302|384:304,1,70
240,144,87097,2,0,P|181:191|144:256,1,140,2|0,0:0|0:0,0:0:0:0:
316,229,87561,2,0,P|348:195|362:163,1,70,0|8,0:0|0:0,0:0:0:0:
192,192,87871,1,0,0:0:0:0:
192,192,88025,2,0,P|167:222|160:256,1,70
420,219,88335,6,0,L|420:139,1,70,8|8,0:0|0:0,0:0:0:0:
354,172,88644,2,0,L|354:252,1,70,8|8,0:0|0:0,0:0:0:0:
290,250,88953,2,0,L|290:170,1,70,8|8,0:0|0:0,0:0:0:0:
224,144,89262,2,0,L|224:224,1,70,8|8,0:0|0:0,0:0:0:0:
160,272,89572,2,0,L|160:192,1,70,8|8,0:0|0:0,0:0:0:0:
96,112,89881,2,0,L|96:192,1,70,8|8,0:0|0:0,0:0:0:0:
32,320,90190,2,0,L|32:240,1,70,8|8,0:0|0:0,0:0:0:0:
32,80,90500,2,0,P|63:50|96:32,1,70,8|8,0:0|0:0,0:0:0:0:
313,68,90809,2,0,P|317:214|270:75,1,420,8|8,0:0|0:0,0:0:0:0:
206,52,92974,5,8,0:0:0:0:
80,192,93283,2,0,P|152:228|224:232,1,140,8|2,0:0|0:0,0:0:0:0:
448,192,93901,2,0,P|376:156|304:152,1,140,8|2,0:0|0:0,0:0:0:0:
192,176,94365,1,8,0:0:0:0:
256,320,94520,2,0,L|320:272,1,70,8|0,0:0|0:0,0:0:0:0:
256,32,94829,2,0,P|215:102|209:174,1,140,2|8,0:0|0:0,0:0:0:0:
256,320,95447,2,0,P|296:249|302:177,1,140,2|8,0:0|0:0,0:0:0:0:
70,192,96066,6,0,P|150:202|219:181,1,140,2|8,0:0|0:0,0:0:0:0:
464,96,96685,2,0,L|400:144,1,70,2|8,0:0|0:0,0:0:0:0:
96,288,96994,2,0,P|173:264|228:217,1,140,8|2,0:0|0:0,0:0:0:0:
384,64,97612,2,0,P|308:89|253:136,1,140,2|2,0:0|0:0,0:0:0:0:
448,304,98231,6,0,P|382:258|311:242,1,140,8|2,0:0|0:0,0:0:0:0:
64,160,98850,2,0,P|129:205|200:221,1,140,10|2,0:0|0:0,0:0:0:0:
368,176,99313,1,8,0:0:0:0:
192,64,99468,2,0,L|224:128,1,70,8|2,0:0|0:0,0:0:0:0:
352,336,99777,2,0,P|413:284|446:220,1,140,2|2,0:0|0:0,0:0:0:0:
128,80,100396,5,2,0:0:0:0:
336,208,100705,1,8,0:0:0:0:
336,208,100860,2,0,P|352:240|352:288,1,70,8|2,0:0|0:0,0:0:0:0:
160,160,101169,1,8,0:0:0:0:
160,160,101324,2,0,P|144:128|144:80,1,70,8|2,0:0|0:0,0:0:0:0:
224,288,101633,1,8,0:0:0:0:
224,288,101788,2,0,P|193:306|145:310,1,70,8|2,0:0|0:0,0:0:0:0:
279,112,102097,1,8,0:0:0:0:
279,112,102252,2,0,P|309:93|357:89,1,70,8|2,0:0|0:0,0:0:0:0:
336,288,102561,2,0,P|288:288|256:272,1,70,8|8,0:0|0:0,0:0:0:0:
279,112,102870,2,4,P|326:124|352:148,1,70
