osu file format v14

[General]
AudioFilename: nami.mp3
AudioLeadIn: 0
PreviewTime: 66700
Countdown: 1
SampleSet: Soft
StackLeniency: 0.7
Mode: 0
LetterboxInBreaks: 0
WidescreenStoryboard: 0

[Editor]
DistanceSpacing: 0.9
BeatDivisor: 4
GridSize: 32
TimelineZoom: 1

[Metadata]
Title:Koishiteiku Planet
TitleUnicode:コイシテイク・プラネット
Artist:*namirin
ArtistUnicode:*namirin
Creator:Trynna
Version:Insane
Source:osu!
Tags:featured artist nami mappers' guild namiguild noffy kalibe
BeatmapID:1915096
BeatmapSetID:916990

[Difficulty]
HPDrainRate:5.5
CircleSize:4
OverallDifficulty:8
ApproachRate:9
SliderMultiplier:1.8
SliderTickRate:1

[Events]
//Background and Video events
0,0,"noffy edit made it even better.jpg",0,0
//Break Periods
2,174456,179046
//Storyboard Layer 0 (Background)
//Storyboard Layer 1 (Fail)
//Storyboard Layer 2 (Pass)
//Storyboard Layer 3 (Foreground)
//Storyboard Sound Samples

[TimingPoints]
619,324.324324324324,4,2,0,50,1,0
619,-133.333333333333,4,2,0,50,0,0
10997,-100,4,2,1,70,0,1
14727,-100,4,2,0,70,0,1
23970,-111.111111111111,4,2,1,60,0,0
34348,-120.481927710843,4,2,1,55,0,0
66781,-100,4,2,1,70,0,1
80889,-100,4,2,0,70,0,1
90132,-111.111111111111,4,2,1,60,0,0
100510,-120.481927710843,4,2,1,55,0,0
101646,-100,4,2,1,55,0,0
132943,-100,4,2,1,70,0,1
147051,-100,4,2,0,70,0,1
153700,-100,4,2,1,60,0,0
171862,-166.666666666667,4,2,1,40,0,0
179646,-120.481927710843,4,2,1,40,0,0
183375,-120.481927710843,4,2,1,55,0,0
188727,-90.9090909090909,4,2,1,85,0,1
202835,-90.9090909090909,4,2,0,85,0,1
209483,-90.9090909090909,4,2,0,68,0,1
213862,-100,4,2,0,68,0,0

[Colours]
Combo1 : 232,172,247
Combo2 : 243,234,116
Combo3 : 185,248,129
Combo4 : 141,222,245

[HitObjects]
471,72,619,6,0,B|341:55|409:132|282:117,1,202.500007724762,4|2,0:0|0:0,0:0:0:0:
215,179,1267,1,2,0:0:0:0:
215,179,1429,2,0,L|210:246,1,67.5000025749208,2|0,0:0|0:0,0:0:0:0:
128,138,1754,2,0,L|122:272,1,135.000005149842,2|2,0:0|0:0,0:0:0:0:
121,272,2402,5,2,0:0:0:0:
204,337,2564,1,2,0:0:0:0:
292,276,2727,1,0,0:0:0:0:
205,353,2889,1,2,0:0:0:0:
363,355,3051,2,0,P|399:313|347:185,1,202.500007724762,2|0,0:0|0:0,0:0:0:0:
342,192,3700,2,0,L|344:124,1,67.5000025749208,0|2,0:0|0:0,0:0:0:0:
96,11,4348,6,0,P|104:80|106:145,1,135.000005149842,2|0,0:0|0:0,0:0:0:0:
83,223,4835,1,2,0:0:0:0:
83,223,5159,1,2,0:0:0:0:
188,151,5321,2,0,L|254:164,1,67.5000025749208,2|0,0:0|0:0,0:0:0:0:
366,86,5646,6,0,B|340:128|340:128|345:213,1,135.000005149842,2|0,0:0|0:0,0:0:0:0:
345,213,6132,1,2,0:0:0:0:
434,360,6456,1,2,0:0:0:0:
353,321,6618,1,0,0:0:0:0:
275,361,6781,1,2,0:0:0:0:
76,308,7105,5,2,0:0:0:0:
153,349,7267,2,0,P|160:316|159:282,1,67.5000025749208,2|0,0:0|0:0,0:0:0:0:
32,223,7591,2,0,B|19:167|19:167|37:91,1,135.000005149842,2|2,0:0|0:0,0:0:0:0:
242,187,8240,6,0,P|185:178|101:169,1,135.000005149842,2|0,0:0|0:0,0:0:0:0:
250,102,8727,2,0,P|282:109|307:132,1,67.5000025749208,2|0,0:0|0:0,0:0:0:0:
294,262,9051,1,2,0:0:0:0:
376,208,9213,1,2,0:0:0:0:
376,208,9294,1,2,0:0:0:0:
376,208,9375,1,2,0:0:0:0:
512,229,9537,1,2,0:0:0:0:
507,202,9618,1,2,0:0:0:0:
503,174,9700,5,2,1:2:0:0:
387,311,9862,1,0,1:0:0:0:
387,311,10186,1,0,1:0:0:0:
219,209,10348,2,0,L|122:218,1,67.5000025749208,0|0,3:0|1:0,0:0:0:0:
317,151,10673,2,0,P|330:102|317:53,1,101.250003862381,0|0,1:0|0:0,0:0:0:0:
309,33,10997,6,0,B|245:28|245:28|190:45|190:45|124:39,1,180,4|0,3:2|1:2,0:0:0:0:
0,145,11483,1,0,0:0:0:0:
77,188,11646,2,0,P|88:145|78:101,1,90,2|2,3:2|0:2,0:0:0:0:
0,55,11970,1,0,1:0:0:0:
0,234,12132,6,0,L|7:323,1,90,2|0,0:0|3:0,0:0:0:0:
147,260,12456,2,0,L|137:363,1,90,2|0,0:0|1:0,0:0:0:0:
278,308,12781,1,2,0:0:0:0:
224,380,12943,1,2,3:2:0:0:
238,232,13105,1,2,0:0:0:0:
368,304,13267,1,0,1:0:0:0:
336,207,13429,6,0,B|329:102|388:148|374:36,1,180,2|0,0:0|0:0,0:0:0:0:
426,183,13916,2,0,P|470:176|512:161,1,90,0|0,1:0|0:0,0:0:0:0:
292,67,14240,1,0,3:0:0:0:
292,67,14402,1,2,0:0:0:0:
199,78,14564,1,2,1:2:0:0:
108,90,14727,6,0,L|125:245,1,135,2|0,3:2|0:0,0:0:0:0:
136,242,15051,2,0,P|72:225|19:263,1,135,2|0,3:2|0:0,0:0:0:0:
90,316,15375,2,0,B|143:328|143:328|219:301,1,135,2|0,3:2|0:0,0:0:0:0:
233,317,15700,2,0,B|306:307|291:357|360:339,1,135,2|0,3:2|0:0,0:0:0:0:
345,256,16024,6,0,B|326:192|326:192|349:77,1,180,6|0,3:2|0:0,0:0:0:0:
417,186,16510,1,0,1:0:0:0:
254,107,16673,2,0,B|154:85|181:153|80:128,1,180,6|0,3:2|0:0,0:0:0:0:
117,48,17159,1,0,1:0:0:0:
222,195,17321,6,0,P|202:246|188:320,1,90,6|0,3:2|0:0,0:0:0:0:
293,260,17646,2,0,P|299:304|310:347,1,90,2|0,0:0|1:0,0:0:0:0:
176,299,17970,2,0,L|84:306,1,90,6|0,3:2|0:0,0:0:0:0:
307,241,18294,2,0,L|399:248,1,90,2|0,0:0|1:0,0:0:0:0:
432,150,18618,6,0,B|387:129|359:99|359:99|332:128|281:143,1,180,6|0,3:2|0:0,0:0:0:0:
140,110,19105,2,0,P|132:65|142:22,1,90,0|0,1:0|0:0,0:0:0:0:
225,68,19429,1,0,0:0:0:0:
96,193,19591,2,0,P|34:180|-9:181,1,90,2|2,0:0|1:2,0:0:0:0:
51,312,19916,6,0,B|184:296|184:296|151:328,1,180,2|2,1:2|1:2,0:0:0:0:
251,359,20402,1,0,0:0:0:0:
234,218,20564,2,0,L|220:92,1,90,2|0,1:2|0:0,0:0:0:0:
341,69,20889,1,0,0:0:0:0:
420,105,21051,2,0,P|387:144|332:154,1,90,2|0,1:2|0:0,0:0:0:0:
512,58,21375,5,2,1:2:0:0:
495,161,21537,1,2,1:2:0:0:
479,265,21700,1,2,1:2:0:0:
479,265,22024,5,2,1:2:0:0:
311,236,22186,1,2,1:2:0:0:
311,236,22510,5,2,1:2:0:0:
379,319,22673,1,2,1:2:0:0:
215,265,22835,1,2,1:2:0:0:
338,144,22997,1,2,1:2:0:0:
217,164,23159,2,0,B|116:135|147:199|42:174,1,180,2|2,0:2|0:2,0:0:0:0:
85,96,23646,2,0,P|71:53|72:8,1,90,2|0,0:0|0:0,0:0:0:0:
66,270,23970,6,0,L|56:352,1,80.9999975280763,4|0,3:2|0:0,0:0:0:0:
175,243,24294,2,0,L|185:325,1,80.9999975280763,0|0,1:0|0:0,0:0:0:0:
306,349,24618,1,0,3:0:0:0:
306,349,24781,2,0,P|369:333|406:335,1,80.9999975280763,0|0,3:0|1:0,0:0:0:0:
478,251,25105,6,0,L|317:227,1,161.999995056153,0|0,3:0|3:0,0:0:0:0:
317,227,25591,1,0,1:0:0:0:
336,137,25754,1,0,3:0:0:0:
349,47,25916,2,0,L|441:59,1,80.9999975280763,0|0,3:0|0:0,0:0:0:0:
251,83,26240,2,0,L|159:95,1,80.9999975280763,0|0,1:2|0:0,0:0:0:0:
39,54,26564,6,0,B|82:28|82:28|64:138,1,161.999995056153,0|0,3:0|1:2,0:0:0:0:
96,220,27051,1,0,0:0:0:0:
46,306,27213,1,0,3:0:0:0:
46,306,27375,2,0,L|145:312,1,80.9999975280763,0|0,3:0|1:0,0:0:0:0:
256,246,27700,6,0,P|295:252|330:273,1,80.9999975280763,0|0,3:0|0:0,0:0:0:0:
443,228,28024,2,0,P|449:188|470:153,1,80.9999975280763,0|0,3:0|1:0,0:0:0:0:
414,317,28348,1,0,3:0:0:0:
414,317,28510,1,0,3:0:0:0:
358,186,28673,1,0,1:0:0:0:
263,339,28835,2,0,P|206:324|175:273,1,121.499996292114,0|0,1:0|0:0,0:0:0:0:
161,255,29159,6,0,L|166:174,1,80.9999975280763,0|0,3:0|0:0,0:0:0:0:
147,65,29483,2,0,L|214:109,1,80.9999975280763,0|0,1:2|0:0,0:0:0:0:
318,147,29808,1,0,3:0:0:0:
318,147,29970,2,0,L|245:183,1,80.9999975280763,0|0,3:0|1:0,0:0:0:0:
302,41,30294,6,0,B|393:26|370:85|456:70,1,161.999995056153,0|0,3:0|3:0,0:0:0:0:
456,70,30781,1,0,1:0:0:0:
452,169,30943,1,0,3:0:0:0:
447,267,31105,1,0,3:0:0:0:
364,213,31267,1,0,0:0:0:0:
280,315,31429,2,0,B|236:310|206:289|206:289|172:315,1,121.499996292114,0|0,1:2|0:0,0:0:0:0:
155,333,31754,6,0,L|150:252,1,80.9999975280763,0|0,3:0|0:0,0:0:0:0:
29,280,32078,2,0,L|33:199,1,80.9999975280763,0|0,1:2|0:0,0:0:0:0:
108,134,32402,1,0,3:0:0:0:
108,134,32564,2,0,L|103:53,1,80.9999975280763,0|0,3:0|1:0,0:0:0:0:
199,172,32889,6,0,B|256:167|256:167|301:182|301:182|365:175,1,161.999995056153,0|0,3:0|3:0,0:0:0:0:
454,160,33375,1,0,1:2:0:0:
314,97,33537,1,0,3:0:0:0:
457,49,33700,2,0,L|446:129,1,80.9999975280763,0|0,1:3|3:3,0:0:0:0:
494,239,34024,2,0,L|483:319,1,80.9999975280763,0|0,1:0|0:0,0:0:0:0:
376,363,34348,5,0,3:3:0:0:
376,363,34673,2,0,P|339:351|302:350,1,74.70000108284,2|2,1:2|0:0,0:0:0:0:
244,278,34997,2,0,P|175:299|96:300,1,149.40000216568,2|0,3:2|1:0,0:0:0:0:
27,238,35483,1,0,3:0:0:0:
125,161,35646,5,2,0:0:0:0:
125,161,35808,2,0,L|213:165,1,74.70000108284,2|0,3:2|1:0,0:0:0:0:
5,111,36132,2,0,P|-13:72|71:51,1,149.40000216568,2|2,3:2|0:0,0:0:0:0:
64,43,36537,1,2,0:0:0:0:
64,43,36618,1,2,1:2:0:0:
165,32,36781,1,2,0:0:0:0:
262,12,36943,6,0,L|358:27,1,74.70000108284,2|0,3:2|0:0,0:0:0:0:
486,67,37267,2,0,L|390:82,1,74.70000108284,2|0,1:2|0:0,0:0:0:0:
299,194,37591,1,2,3:2:0:0:
294,102,37754,2,0,L|287:176,1,74.70000108284,2|0,3:2|1:3,0:0:0:0:
332,343,38078,6,0,B|422:350|391:297|472:306,1,149.40000216568,2|0,3:2|3:0,0:0:0:0:
279,271,38564,2,0,P|250:300|237:334,1,74.70000108284,2|0,1:2|3:0,0:0:0:0:
147,363,38889,2,0,P|132:328|105:303,1,74.70000108284,2|0,1:2|3:0,0:0:0:0:
184,237,39213,2,0,L|178:125,1,112.05000162426,2|0,1:2|0:0,0:0:0:0:
189,108,39537,5,0,3:0:0:0:
397,149,39862,2,0,L|480:142,1,74.70000108284,2|2,1:2|0:2,0:0:0:0:
316,95,40186,2,0,B|296:146|296:146|312:200,1,112.05000162426,2|0,3:2|0:0,0:0:0:0:
320,220,40510,2,0,L|317:305,1,74.70000108284,2|0,1:2|3:0,0:0:0:0:
200,357,40835,5,2,0:2:0:0:
200,357,40997,2,0,P|159:340|89:328,1,112.05000162426,2|0,3:2|0:0,0:0:0:0:
76,341,41321,2,0,B|61:289|61:289|78:191,1,149.40000216568,2|0,3:2|0:0,0:0:0:0:
182,233,41808,1,2,1:2:0:0:
165,129,41970,1,0,0:0:0:0:
261,167,42132,6,0,P|329:156|406:132,1,149.40000216568,2|2,3:2|1:2,0:0:0:0:
184,37,42781,1,2,3:2:0:0:
165,129,42943,1,2,3:2:0:0:
29,23,43105,1,2,1:2:0:0:
10,115,43267,6,0,P|21:167|25:240,1,112.05000162426,2|0,3:2|0:0,0:0:0:0:
18,247,43591,2,0,P|47:287|107:263,1,112.05000162426,2|0,3:2|0:0,0:0:0:0:
161,326,43916,2,0,P|230:317|342:310,1,149.40000216568,2|2,3:2|3:2,0:0:0:0:
398,349,44402,1,2,1:3:0:0:
389,253,44564,1,2,0:3:0:0:
380,157,44727,5,0,3:3:0:0:
380,157,45051,2,0,L|394:84,1,74.70000108284,2|2,1:2|0:0,0:0:0:0:
283,159,45375,2,0,L|299:48,1,112.05000162426,2|0,3:2|0:0,0:0:0:0:
303,27,45700,1,0,1:0:0:0:
201,87,45862,1,0,3:0:0:0:
93,66,46024,5,2,0:0:0:0:
127,153,46186,2,0,L|114:227,1,74.70000108284,2|0,3:2|1:0,0:0:0:0:
31,329,46510,2,0,P|100:310|158:354,1,149.40000216568,2|2,3:2|0:0,0:0:0:0:
296,293,46997,1,2,1:2:0:0:
250,370,47159,1,2,0:0:0:0:
382,320,47321,6,0,L|472:330,1,74.70000108284,2|0,3:2|0:0,0:0:0:0:
319,202,47646,2,0,L|244:210,1,74.70000108284,2|0,1:2|0:0,0:0:0:0:
416,113,47970,1,2,3:2:0:0:
474,182,48132,2,0,P|504:136|500:81,1,112.05000162426,2|0,3:2|0:0,0:0:0:0:
494,56,48456,6,0,B|433:14|433:14|358:38,1,149.40000216568,2|0,3:2|3:0,0:0:0:0:
230,115,48943,2,0,L|307:105,1,74.70000108284,2|0,1:2|3:0,0:0:0:0:
153,159,49267,2,0,P|139:124|145:84,1,74.70000108284,2|0,1:2|3:0,0:0:0:0:
235,200,49591,2,0,L|221:311,1,112.05000162426,2|0,1:2|0:0,0:0:0:0:
235,332,49916,5,0,3:0:0:0:
235,332,50240,1,2,1:2:0:0:
137,321,50402,1,0,0:0:0:0:
41,309,50564,2,0,L|36:186,1,112.05000162426,2|0,3:2|0:0,0:0:0:0:
52,181,50889,2,0,P|86:195|133:201,1,74.70000108284,2|0,1:2|3:0,0:0:0:0:
155,87,51213,5,2,0:2:0:0:
155,87,51375,2,0,P|121:73|74:67,1,74.70000108284,2|0,3:2|1:0,0:0:0:0:
213,163,51700,1,2,3:2:0:0:
302,150,51862,2,0,L|387:138,1,74.70000108284,0|0,0:0|0:0,0:0:0:0:
465,83,52105,1,0,0:0:0:0:
465,83,52186,2,0,L|458:202,1,112.05000162426,2|0,1:2|0:0,0:0:0:0:
474,215,52510,6,0,B|388:221|427:269|341:271,1,149.40000216568,2|2,3:2|1:2,0:0:0:0:
73,304,53159,2,0,P|138:282|168:344,1,149.40000216568,2|2,3:2|1:2,0:0:0:0:
173,349,53646,6,0,L|167:190,1,149.40000216568,2|2,3:2|3:2,0:0:0:0:
168,199,54132,1,2,1:2:0:0:
82,128,54294,1,2,3:2:0:0:
82,128,54375,1,0,3:0:0:0:
82,128,54456,1,2,3:2:0:0:
161,70,54618,1,0,1:0:0:0:
34,44,54781,1,0,1:3:0:0:
178,57,54943,1,0,1:3:0:0:
234,137,55105,6,0,P|275:126|318:122,1,74.70000108284,4|0,3:2|0:0,0:0:0:0:
496,52,55429,1,2,0:0:0:0:
459,136,55591,1,0,0:0:0:0:
398,72,55754,1,2,3:2:0:0:
398,72,55916,1,2,3:2:0:0:
398,72,56078,1,0,0:0:0:0:
380,189,56240,1,2,3:2:0:0:
444,262,56402,5,2,0:0:0:0:
328,310,56564,2,0,P|249:305|187:304,1,112.05000162426,2|0,3:2|0:0,0:0:0:0:
202,321,56889,2,0,P|179:274|195:195,1,112.05000162426,2|0,3:2|0:0,0:0:0:0:
196,198,57213,1,2,0:0:0:0:
61,146,57375,2,0,L|53:48,1,74.70000108284,2|0,3:2|0:0,0:0:0:0:
140,13,57700,5,0,3:0:0:0:
327,96,58024,2,0,P|384:86|415:87,1,74.70000108284,2|2,0:0|0:0,0:0:0:0:
493,36,58348,1,2,3:2:0:0:
493,36,58510,2,0,L|486:183,1,112.05000162426,2|0,3:2|0:0,0:0:0:0:
469,168,58835,6,0,P|525:215|523:288,1,149.40000216568,2|2,3:2|3:2,0:0:0:0:
417,257,59321,1,0,0:0:0:0:
353,329,59483,1,2,3:2:0:0:
318,205,59646,2,0,P|328:153|343:49,1,149.40000216568,2|2,3:2|3:2,0:0:0:0:
209,349,60294,5,0,3:0:0:0:
209,349,60618,1,2,0:0:0:0:
122,311,60781,1,0,0:0:0:0:
36,349,60943,2,0,P|30:307|22:263,1,74.70000108284,2|2,3:2|3:2,0:0:0:0:
131,210,61267,2,0,P|124:246|119:283,1,74.70000108284,2|2,0:0|3:2,0:0:0:0:
85,134,61591,5,2,0:2:0:0:
208,155,61754,2,0,P|260:147|309:152,1,74.70000108284,2|0,3:2|0:0,0:0:0:0:
363,103,62078,2,0,P|313:155|328:225,1,149.40000216568,2|2,3:2|3:2,0:0:0:0:
328,225,62483,1,0,3:0:0:0:
328,225,62564,1,2,1:2:0:0:
500,350,62889,6,0,L|426:363,1,74.70000108284,2|0,3:2|0:0,0:0:0:0:
499,251,63213,2,0,L|425:237,1,74.70000108284,2|0,0:2|0:0,0:0:0:0:
467,137,63537,1,2,3:2:0:0:
472,38,63700,2,0,L|477:112,1,74.70000108284,2|0,3:2|0:0,0:0:0:0:
356,82,64024,6,0,P|284:84|246:145,1,149.40000216568,2|2,3:2|3:2,0:0:0:0:
178,276,64673,2,0,P|215:337|287:339,1,149.40000216568,2|2,3:2|3:2,0:0:0:0:
65,193,65321,1,2,3:2:0:0:
157,72,65646,5,2,0:3:0:0:
221,136,65808,2,0,L|295:126,1,74.70000108284,0|0,1:0|1:3,0:0:0:0:
328,124,66051,1,0,1:0:0:0:
328,124,66132,2,0,L|340:223,1,74.70000108284,2|0,0:0|0:0,0:0:0:0:
425,202,66375,1,2,0:0:0:0:
425,202,66456,2,0,L|404:60,1,112.05000162426,0|0,1:0|0:0,0:0:0:0:
418,68,66781,6,0,P|350:13|266:36,1,180,4|0,3:2|1:0,0:0:0:0:
161,126,67267,1,0,0:0:0:0:
94,60,67429,1,2,3:0:0:0:
104,201,67591,2,0,P|143:223|192:213,1,90,2|0,0:0|1:0,0:0:0:0:
0,162,67916,6,0,P|18:256|22:343,1,180,2|2,0:0|0:0,0:0:0:0:
118,364,68402,1,0,1:0:0:0:
203,311,68564,1,2,0:0:0:0:
341,362,68727,1,2,3:2:0:0:
303,255,68889,1,2,1:2:0:0:
303,255,68970,1,0,1:0:0:0:
303,255,69051,1,2,1:2:0:0:
427,298,69213,6,0,B|408:199|465:236|439:122,1,180,2|0,0:0|0:0,0:0:0:0:
349,45,69700,2,0,L|214:56,1,135,0|0,1:0|0:0,0:0:0:0:
193,58,70024,1,0,3:2:0:0:
222,170,70186,2,0,P|168:161|115:159,1,90,0|0,0:0|1:0,0:0:0:0:
30,78,70510,6,0,B|23:141|23:141|35:199|35:199|28:256,1,180,2|2,0:0|0:0,0:0:0:0:
165,330,70997,1,2,1:2:0:0:
71,361,71159,1,0,0:0:0:0:
165,243,71321,1,2,3:2:0:0:
249,366,71483,2,0,P|302:351|368:340,1,90,2|0,0:0|1:0,0:0:0:0:
457,380,71808,6,0,B|436:314|436:314|447:203,1,180,2|2,0:0|0:0,0:0:0:0:
417,110,72294,1,2,1:2:0:0:
279,198,72456,1,0,0:0:0:0:
300,107,72618,2,0,L|289:16,1,90,2|2,3:2|0:0,0:0:0:0:
201,139,72943,2,0,P|149:127|102:218,1,135,2|0,1:2|0:0,0:0:0:0:
105,204,73267,5,2,3:2:0:0:
90,305,73429,1,2,0:2:0:0:
3,250,73591,1,2,1:2:0:0:
19,149,73754,2,0,L|33:54,1,90,2|0,0:0|3:2,0:0:0:0:
139,44,74078,2,0,P|195:39|278:97,1,135,2|0,0:2|0:0,0:0:0:0:
274,97,74402,6,0,B|338:114|338:114|460:82,1,180,2|0,0:2|0:0,0:0:0:0:
512,167,74889,2,0,L|425:190,1,90,2|0,1:2|0:0,0:0:0:0:
318,217,75213,1,2,3:2:0:0:
449,281,75375,1,2,0:2:0:0:
449,281,75456,1,2,0:2:0:0:
449,281,75537,1,2,1:2:0:0:
318,333,75700,1,2,0:2:0:0:
292,325,75781,1,2,0:2:0:0:
266,317,75862,6,0,L|221:326,1,45,2|0,3:2|0:0,0:0:0:0:
111,358,76024,2,0,L|121:239,1,90,0|0,1:0|1:0,0:0:0:0:
202,200,76348,2,0,P|123:233|56:179,1,180,2|2,0:2|0:2,0:0:0:0:
191,113,76835,2,0,P|254:127|287:184,1,135,2|0,1:2|0:0,0:0:0:0:
307,202,77159,6,0,L|307:15,1,180,4|0,3:2|1:2,0:0:0:0:
479,46,77646,1,0,0:0:0:0:
396,103,77808,1,2,3:2:0:0:
512,173,77970,2,0,P|505:226|506:268,1,90,2|0,0:0|1:0,0:0:0:0:
409,347,78294,6,0,B|349:311|349:311|301:345|244:335,1,180,2|2,0:0|0:0,0:0:0:0:
276,241,78781,2,0,P|265:198|260:153,1,90,0|2,1:0|0:0,0:0:0:0:
292,62,79105,1,2,3:2:0:0:
166,138,79267,1,2,0:0:0:0:
80,52,79429,1,0,1:0:0:0:
149,160,79591,6,0,B|162:233|162:233|147:337,1,180,2|0,0:0|0:0,0:0:0:0:
46,359,80078,2,0,L|59:267,1,90,0|0,1:0|0:0,0:0:0:0:
237,363,80402,1,0,3:2:0:0:
312,300,80564,1,2,0:0:0:0:
474,350,80727,1,2,1:2:0:0:
409,268,80889,6,0,L|413:106,1,135,2|0,3:2|0:0,0:0:0:0:
401,112,81213,2,0,B|326:101|346:144|270:132,1,135,2|0,3:2|0:0,0:0:0:0:
197,188,81537,2,0,P|140:154|128:89,1,135,2|0,3:2|0:0,0:0:0:0:
110,75,81862,2,0,L|98:213,1,135,2|0,3:2|0:0,0:0:0:0:
19,295,82186,6,0,B|82:304|82:304|124:333|124:333|192:342,1,180,6|0,3:2|0:0,0:0:0:0:
359,257,82673,1,0,1:0:0:0:
294,345,82835,6,0,B|275:293|247:265|247:265|271:236|284:186,1,180,6|0,3:2|0:0,0:0:0:0:
337,96,83321,1,0,1:0:0:0:
426,195,83483,6,0,P|466:175|508:160,1,90,6|0,3:2|0:0,0:0:0:0:
360,108,83808,2,0,P|385:70|414:36,1,90,2|0,0:0|1:0,0:0:0:0:
247,106,84132,2,0,P|221:68|192:34,1,90,6|0,3:2|0:0,0:0:0:0:
181,193,84456,2,0,P|140:173|98:158,1,90,2|0,0:0|1:0,0:0:0:0:
101,302,84781,6,0,L|290:284,1,180,6|0,3:2|0:0,0:0:0:0:
434,354,85267,2,0,P|389:353|354:327,1,90,0|0,1:0|0:0,0:0:0:0:
333,221,85591,1,0,0:0:0:0:
419,270,85754,1,2,0:0:0:0:
441,135,85916,1,2,1:2:0:0:
361,67,86078,6,0,L|259:83,1,90,2|0,1:2|0:0,0:0:0:0:
143,153,86402,2,0,L|245:169,1,90,2|0,1:2|0:0,0:0:0:0:
54,79,86727,1,2,1:2:0:0:
36,188,86889,2,0,L|51:100,1,90,0|0,0:0|0:0,0:0:0:0:
92,294,87213,2,0,B|166:284|144:332|220:323,1,135,2|0,1:2|0:0,0:0:0:0:
236,340,87537,5,2,1:2:0:0:
328,241,87700,1,2,1:2:0:0:
417,348,87862,1,2,1:2:0:0:
417,348,88186,5,2,1:2:0:0:
437,167,88348,1,2,1:2:0:0:
437,167,88673,5,2,1:2:0:0:
359,75,88835,1,2,1:2:0:0:
269,172,88997,1,2,1:2:0:0:
179,57,89159,1,2,1:2:0:0:
120,146,89321,2,0,L|127:325,1,180,2|2,0:2|0:2,0:0:0:0:
37,283,89808,2,0,P|27:240|36:194,1,90,2|0,0:0|0:0,0:0:0:0:
214,293,90132,6,0,L|305:284,1,80.9999975280763,4|0,3:2|0:0,0:0:0:0:
292,177,90456,2,0,L|372:184,1,80.9999975280763,0|0,1:0|0:0,0:0:0:0:
465,231,90781,1,0,3:0:0:0:
465,231,90943,2,0,P|478:193|469:149,1,80.9999975280763,0|0,3:0|1:0,0:0:0:0:
355,67,91267,6,0,L|194:86,1,161.999995056153,0|0,3:0|3:0,0:0:0:0:
194,85,91754,1,0,1:0:0:0:
106,38,91916,1,0,3:0:0:0:
19,97,92078,2,0,L|28:192,1,80.9999975280763,0|0,3:0|0:0,0:0:0:0:
108,240,92402,2,0,L|99:335,1,80.9999975280763,0|0,1:2|0:0,0:0:0:0:
189,367,92727,6,0,L|199:205,1,161.999995056153,0|0,3:0|1:2,0:0:0:0:
371,265,93375,1,0,3:0:0:0:
415,341,93537,2,0,P|376:351|337:342,1,80.9999975280763,0|0,3:0|1:0,0:0:0:0:
465,263,93862,6,0,P|454:182|450:101,1,161.999995056153,0|0,3:0|3:0,0:0:0:0:
455,92,94348,2,0,P|416:94|374:89,1,80.9999975280763,0|0,1:0|3:0,0:0:0:0:
219,80,94673,1,0,3:0:0:0:
315,6,94835,1,0,1:0:0:0:
273,151,94997,2,0,P|217:170|162:147,1,121.499996292114,0|0,1:0|0:0,0:0:0:0:
146,162,95321,6,0,L|149:242,1,80.9999975280763,0|0,3:0|0:0,0:0:0:0:
44,322,95646,2,0,L|41:242,1,80.9999975280763,0|0,1:2|0:0,0:0:0:0:
38,96,95970,1,0,3:0:0:0:
0,170,96132,1,0,3:0:0:0:
0,22,96294,1,0,1:0:0:0:
122,76,96456,6,0,P|160:64|201:61,1,80.9999975280763,0|0,3:0|0:0,0:0:0:0:
280,14,96781,2,0,P|319:23|355:41,1,80.9999975280763,0|0,3:0|1:0,0:0:0:0:
431,114,97105,1,0,3:0:0:0:
461,16,97267,2,0,L|452:96,1,80.9999975280763,0|0,3:0|0:0,0:0:0:0:
355,227,97591,2,0,L|346:146,1,80.9999975280763,0|0,1:2|0:0,0:0:0:0:
429,273,97835,1,0,1:0:0:0:
429,273,97916,6,0,P|364:315|291:287,1,161.999995056153,0|0,3:0|1:2,0:0:0:0:
290,286,98564,1,0,3:0:0:0:
201,311,98727,1,0,3:0:0:0:
110,333,98889,1,0,1:0:0:0:
130,245,99051,6,0,L|110:162,1,80.9999975280763,0|0,3:0|0:0,0:0:0:0:
177,63,99375,1,0,3:0:0:0:
176,77,99456,1,0,3:0:0:0:
174,91,99537,1,0,1:2:0:0:
85,49,99700,1,0,3:0:0:0:
273,72,99862,2,0,P|331:58|367:58,1,80.9999975280763,0|0,1:3|3:3,0:0:0:0:
460,138,100186,2,0,P|401:131|359:173,1,121.499996292114,0|0,1:0|0:0,0:0:0:0:
354,197,100510,5,0,3:3:0:0:
380,311,100673,1,2,0:0:0:0:
373,307,100835,1,2,0:2:0:0:
373,316,100997,1,2,0:0:0:0:
283,270,101159,2,0,L|208:276,1,74.70000108284,2|2,3:2|0:0,0:0:0:0:
196,282,101402,1,2,0:2:0:0:
196,282,101483,1,2,1:2:0:0:
118,349,101646,6,0,P|87:289|101:225,1,135,0|0,3:0|0:0,0:0:0:0:
113,201,101970,1,2,3:2:0:0:
118,174,102051,1,0,3:0:0:0:
113,148,102132,1,0,1:0:0:0:
21,177,102294,1,2,3:2:0:0:
154,53,102456,2,0,L|206:76,1,45,2|0,3:2|0:0,0:0:0:0:
258,191,102618,2,0,L|251:134,1,45,2|2,3:2|0:0,0:0:0:0:
326,32,102781,2,0,L|280:65,1,45,2|0,1:2|0:0,0:0:0:0:
199,251,102943,1,2,3:2:0:0:
340,226,103105,6,0,P|401:224|445:243,1,90,2|0,3:2|0:0,0:0:0:0:
415,353,103429,2,0,P|353:354|309:335,1,90,2|0,1:2|0:0,0:0:0:0:
504,300,103754,1,2,3:2:0:0:
512,187,103916,2,0,L|506:276,1,90,2|0,3:2|1:3,0:0:0:0:
416,151,104240,6,0,B|410:72|453:108|445:23,1,135,2|0,3:2|0:0,0:0:0:0:
458,5,104564,1,0,3:0:0:0:
330,72,104727,2,0,P|276:65|235:53,1,90,2|0,1:2|3:0,0:0:0:0:
94,187,105051,1,2,1:2:0:0:
197,172,105213,1,0,3:0:0:0:
133,94,105375,2,0,L|124:-2,1,90,2|0,1:2|0:0,0:0:0:0:
212,190,105700,5,0,3:0:0:0:
212,190,106024,1,2,1:2:0:0:
198,279,106186,1,2,0:2:0:0:
181,367,106348,2,0,L|91:355,1,90,2|0,3:2|0:0,0:0:0:0:
266,339,106591,1,0,1:0:0:0:
266,339,106673,2,0,L|356:327,1,90,2|0,1:2|3:0,0:0:0:0:
486,276,106997,5,2,0:2:0:0:
434,371,107159,1,2,3:2:0:0:
343,235,107321,1,0,1:0:0:0:
343,235,107483,2,0,L|351:53,1,180,2|0,3:2|0:0,0:0:0:0:
336,36,107889,1,0,1:0:0:0:
336,36,107970,1,2,1:2:0:0:
249,97,108132,1,0,0:0:0:0:
110,73,108294,6,0,L|13:55,1,90,2|0,3:2|0:0,0:0:0:0:
165,167,108618,2,0,L|76:183,1,90,2|0,1:2|0:0,0:0:0:0:
39,280,108943,1,2,3:2:0:0:
136,262,109105,1,2,3:2:0:0:
239,242,109267,1,2,1:2:0:0:
305,300,109429,6,0,B|372:286|361:331|435:316,1,135,2|0,3:2|0:0,0:0:0:0:
453,303,109754,2,0,P|463:250|441:158,1,135,2|0,3:2|0:0,0:0:0:0:
474,91,110078,2,0,B|366:83|366:83|384:102,1,135,2|0,3:2|0:0,0:0:0:0:
326,161,110402,1,2,3:2:0:0:
308,10,110564,1,2,1:3:0:0:
182,90,110727,1,2,0:3:0:0:
275,90,110889,5,0,3:3:0:0:
275,90,111213,1,2,1:2:0:0:
182,90,111375,1,2,0:0:0:0:
90,88,111537,2,0,L|98:237,1,135,2|0,3:2|0:0,0:0:0:0:
84,245,111862,2,0,P|40:253|-1:232,1,90,0|0,1:0|3:0,0:0:0:0:
123,349,112186,5,2,0:0:0:0:
195,299,112348,2,0,P|234:279|278:287,1,90,2|0,3:2|1:0,0:0:0:0:
408,349,112673,2,0,B|392:292|392:292|404:217,1,135,2|0,3:2|0:0,0:0:0:0:
419,194,112997,1,2,0:0:0:0:
414,167,113078,1,2,0:0:0:0:
408,140,113159,1,2,1:2:0:0:
482,283,113321,1,2,0:0:0:0:
305,159,113483,6,0,L|322:58,1,90,2|0,3:2|0:0,0:0:0:0:
226,13,113808,2,0,L|211:101,1,90,2|0,1:2|0:0,0:0:0:0:
247,230,114132,1,2,3:2:0:0:
352,241,114294,2,0,P|309:254|265:246,1,90,2|0,3:2|1:0,0:0:0:0:
164,324,114618,6,0,L|14:308,1,135,2|0,3:2|0:0,0:0:0:0:
10,321,114943,1,0,3:0:0:0:
100,221,115105,2,0,P|101:176|91:131,1,90,2|0,1:2|3:0,0:0:0:0:
44,11,115429,2,0,P|81:34|125:48,1,90,2|0,1:2|3:0,0:0:0:0:
253,67,115754,2,0,P|214:88|179:118,1,90,2|0,1:2|0:0,0:0:0:0:
265,163,116078,5,0,3:0:0:0:
265,163,116402,1,2,1:2:0:0:
357,144,116564,1,0,0:0:0:0:
453,121,116727,2,0,P|446:165|443:210,1,90,2|0,3:2|0:0,0:0:0:0:
448,234,116970,1,0,1:0:0:0:
448,234,117051,1,2,1:2:0:0:
345,122,117213,1,0,3:0:0:0:
313,311,117375,5,2,0:2:0:0:
230,258,117537,2,0,L|125:268,1,90,2|0,3:2|1:0,0:0:0:0:
49,281,117862,1,2,3:2:0:0:
172,176,118024,2,0,B|176:132|176:132|164:87,1,90,0|0,0:0|0:0,0:0:0:0:
216,26,118267,1,0,1:0:0:0:
216,26,118348,2,0,L|304:40,1,90,2|0,1:2|0:0,0:0:0:0:
459,16,118673,6,0,B|467:83|467:83|435:194,1,180,2|2,3:2|1:2,0:0:0:0:
512,340,119321,2,0,P|440:298|387:361,1,180,2|2,3:2|1:2,0:0:0:0:
391,371,119808,6,0,L|207:362,1,180,2|2,3:2|3:2,0:0:0:0:
71,290,120294,1,2,1:2:0:0:
215,188,120456,1,2,3:2:0:0:
208,204,120537,1,0,3:0:0:0:
200,220,120618,1,2,3:2:0:0:
127,122,120781,1,0,1:0:0:0:
158,296,120943,1,0,1:3:0:0:
139,100,121105,1,0,1:3:0:0:
34,178,121267,6,0,P|16:137|21:92,1,90,4|0,0:0|0:0,0:0:0:0:
194,16,121591,1,2,0:0:0:0:
139,100,121754,1,0,0:0:0:0:
248,104,121916,1,2,3:2:0:0:
248,104,122078,1,2,3:2:0:0:
301,191,122240,1,0,0:0:0:0:
353,88,122402,1,2,3:2:0:0:
455,50,122564,5,2,0:0:0:0:
494,131,122727,2,0,L|486:232,1,90,2|0,3:2|0:0,0:0:0:0:
474,320,123051,2,0,P|414:291|351:310,1,135,2|0,3:2|0:0,0:0:0:0:
338,328,123375,2,0,L|283:318,1,45,2|0,0:0|0:0,0:0:0:0:
144,343,123537,1,2,3:2:0:0:
207,264,123700,1,0,0:0:0:0:
202,153,123862,6,0,L|207:248,1,90,0|0,3:0|0:0,0:0:0:0:
299,129,124186,2,0,P|277:85|216:53,1,90,2|2,0:0|0:0,0:0:0:0:
108,94,124510,1,2,3:2:0:0:
165,18,124673,1,2,3:2:0:0:
165,18,124754,1,0,0:0:0:0:
165,18,124835,1,0,0:0:0:0:
16,59,124997,6,0,L|29:156,1,90,2|0,3:2|0:0,0:0:0:0:
103,220,125321,2,0,L|89:317,1,90,2|0,3:2|0:0,0:0:0:0:
8,353,125646,1,2,3:2:0:0:
188,321,125808,2,0,B|288:301|251:372|357:355,1,180,2|2,3:2|3:2,0:0:0:0:
255,111,126456,5,0,3:0:0:0:
255,111,126781,1,2,0:0:0:0:
342,98,126943,1,0,0:0:0:0:
431,85,127105,1,2,3:2:0:0:
370,10,127267,1,2,3:2:0:0:
315,184,127429,2,0,L|326:280,1,90,2|2,0:0|3:2,0:0:0:0:
180,51,127754,5,2,0:2:0:0:
112,126,127916,2,0,P|64:114|16:116,1,90,2|0,3:2|0:0,0:0:0:0:
90,222,128240,2,0,B|185:239|155:167|259:186,1,180,2|2,3:2|3:2,0:0:0:0:
259,186,128646,1,0,3:0:0:0:
259,186,128727,1,2,1:2:0:0:
450,374,129051,6,0,P|411:350|388:312,1,90,2|0,3:2|0:0,0:0:0:0:
499,203,129375,2,0,P|498:247|476:286,1,90,2|0,0:2|0:0,0:0:0:0:
317,263,129700,1,2,3:2:0:0:
410,224,129862,2,0,P|365:225|326:246,1,90,2|0,3:2|0:0,0:0:0:0:
238,337,130186,6,0,P|148:318|94:319,1,135,2|0,3:2|0:0,0:0:0:0:
87,334,130510,2,0,L|105:178,1,135,2|0,3:2|0:0,0:0:0:0:
94,177,130835,2,0,P|142:146|219:228,2,180,2|2|2,3:2|3:2|3:2,0:0:0:0:
203,53,131808,5,2,0:3:0:0:
294,101,131970,2,0,P|352:82|410:76,1,90,0|0,1:0|1:0,0:0:0:0:
410,84,132213,1,0,1:3:0:0:
410,84,132294,1,2,0:0:0:0:
474,174,132456,1,2,0:0:0:0:
468,196,132537,1,2,0:0:0:0:
461,217,132618,2,0,P|396:213|326:217,1,135,2|0,1:2|0:0,0:0:0:0:
314,237,132943,6,0,B|250:264|250:264|208:232|146:230,1,180,4|0,3:2|1:0,0:0:0:0:
49,271,133429,1,0,0:0:0:0:
112,136,133591,1,2,3:2:0:0:
40,72,133754,1,2,0:0:0:0:
144,19,133916,1,0,1:0:0:0:
144,19,134078,6,0,B|237:-4|220:64|317:39,1,180,2|2,0:0|0:0,0:0:0:0:
464,102,134564,1,0,1:0:0:0:
412,10,134727,1,2,0:0:0:0:
394,157,134889,2,0,L|408:259,1,90,2|2,3:2|1:2,0:0:0:0:
422,337,135132,1,0,1:0:0:0:
422,337,135213,1,2,1:2:0:0:
311,216,135375,6,0,P|226:189|178:260,1,180,2|0,0:0|0:0,0:0:0:0:
69,324,135862,2,0,L|63:177,1,135,0|0,1:0|0:0,0:0:0:0:
63,167,136186,1,0,3:2:0:0:
137,70,136348,2,0,P|92:63|56:38,1,90,0|0,0:0|1:0,0:0:0:0:
249,105,136673,6,0,B|296:99|328:66|328:66|362:98|408:103,1,180,2|2,0:0|0:0,0:0:0:0:
501,169,137159,1,2,1:2:0:0:
406,213,137321,1,0,0:0:0:0:
498,71,137483,1,2,3:2:0:0:
501,270,137646,1,2,0:0:0:0:
330,165,137808,1,0,1:0:0:0:
244,236,137970,6,0,P|176:229|54:241,1,180,2|2,0:0|0:0,0:0:0:0:
30,322,138456,1,2,1:2:0:0:
88,145,138618,1,0,0:0:0:0:
12,90,138781,2,0,L|5:-8,1,90,2|2,3:2|0:0,0:0:0:0:
134,42,139105,2,0,B|208:24|191:74|263:59,1,135,2|0,1:2|0:0,0:0:0:0:
281,48,139429,5,2,3:2:0:0:
266,149,139591,1,2,0:2:0:0:
251,250,139754,1,2,1:2:0:0:
170,191,139916,2,0,L|75:204,1,90,2|0,0:0|3:2,0:0:0:0:
328,320,140240,2,0,L|423:307,1,90,2|0,0:2|1:0,0:0:0:0:
494,226,140564,6,0,B|423:208|364:209|364:209|355:185|368:161,1,180,2|0,0:2|0:0,0:0:0:0:
449,106,141051,2,0,P|458:60|460:16,1,90,2|0,1:2|0:0,0:0:0:0:
272,33,141375,1,2,3:2:0:0:
363,20,141537,1,2,0:2:0:0:
365,44,141618,1,2,0:2:0:0:
360,65,141700,1,2,1:2:0:0:
235,113,141862,1,2,0:2:0:0:
213,102,141943,1,2,0:2:0:0:
196,86,142024,6,0,P|184:68|176:47,1,45,2|0,3:2|0:0,0:0:0:0:
15,32,142186,1,0,1:0:0:0:
82,169,142348,2,0,L|92:62,1,90,0|2,1:0|0:2,0:0:0:0:
170,226,142673,2,0,P|99:197|22:258,1,180,2|2,3:2|1:2,0:0:0:0:
152,347,143321,6,0,L|330:320,1,180,4|0,3:2|1:2,0:0:0:0:
415,257,143808,1,0,0:0:0:0:
490,332,143970,1,2,3:2:0:0:
462,181,144132,2,0,B|419:167|419:167|372:175,1,90,2|0,0:0|1:0,0:0:0:0:
231,139,144456,6,0,B|326:146|295:75|396:87,1,180,2|2,0:0|0:0,0:0:0:0:
233,49,144943,1,0,1:0:0:0:
252,226,145105,1,2,0:0:0:0:
139,99,145267,2,0,L|49:106,1,90,2|2,3:2|0:0,0:0:0:0:
7,182,145591,1,0,1:0:0:0:
142,300,145754,6,0,B|158:236|158:236|127:126,1,180,2|0,0:0|0:0,0:0:0:0:
55,277,146240,1,0,1:0:0:0:
230,324,146402,1,0,0:0:0:0:
256,192,146564,1,0,3:2:0:0:
352,294,146727,2,0,P|403:276|452:276,1,90,2|2,0:0|1:2,0:0:0:0:
501,196,147051,6,0,P|450:175|372:182,1,135,2|0,3:2|0:0,0:0:0:0:
356,165,147375,2,0,B|370:96|370:96|356:32,1,135,2|0,3:2|0:0,0:0:0:0:
264,100,147700,2,0,B|217:98|217:98|177:108|177:108|130:106,1,135,2|0,3:2|0:0,0:0:0:0:
112,121,148024,2,0,P|79:74|93:-5,1,135,2|0,3:2|0:0,0:0:0:0:
269,10,148348,6,0,L|258:194,1,180,6|0,3:2|0:0,0:0:0:0:
303,273,148835,1,0,1:0:0:0:
134,349,148997,6,0,P|86:321|110:188,1,180,6|0,3:2|0:0,0:0:0:0:
156,263,149483,1,0,1:0:0:0:
260,358,149646,6,0,L|349:363,1,90,6|0,3:2|0:0,0:0:0:0:
303,273,149970,2,0,L|392:267,1,90,2|0,0:0|1:0,0:0:0:0:
460,171,150294,2,0,L|371:176,1,90,6|0,3:2|0:0,0:0:0:0:
417,86,150618,2,0,L|328:80,1,90,2|0,0:0|1:0,0:0:0:0:
235,149,150943,6,0,B|172:176|172:176|65:141,1,180,6|0,3:2|0:0,0:0:0:0:
167,83,151429,1,0,1:0:0:0:
176,262,151591,1,0,0:0:0:0:
90,241,151754,1,0,0:0:0:0:
113,325,151916,1,2,0:0:0:0:
251,306,152078,1,2,1:2:0:0:
390,284,152240,6,0,P|396:239|385:196,1,90,2|0,1:2|0:0,0:0:0:0:
421,109,152564,2,0,P|376:103|333:114,1,90,2|0,1:2|0:0,0:0:0:0:
257,193,152889,2,0,B|154:205|183:141|85:158,1,180,2|0,1:2|0:0,0:0:0:0:
86,158,153375,1,2,1:2:0:0:
35,58,153700,6,0,L|79:54,1,45,4|0,0:0|0:0,0:0:0:0:
163,28,153862,1,2,0:0:0:0:
163,28,153943,1,2,0:0:0:0:
163,28,154024,2,0,P|211:40|235:100,1,90,0|0,1:0|3:3,0:0:0:0:
290,162,154348,2,0,L|404:151,1,90,0|2,3:0|0:0,0:0:0:0:
448,97,154673,1,2,1:2:0:0:
431,261,154835,6,0,L|245:253,1,180,2|2,3:2|3:2,0:0:0:0:
166,297,155321,1,0,1:2:0:0:
33,194,155483,2,0,P|52:123|98:180,1,180,2|0,3:2|0:0,0:0:0:0:
82,262,155970,1,0,1:0:0:0:
181,128,156294,6,0,P|159:79|115:57,1,90,2|0,3:2|0:0,0:0:0:0:
266,91,156618,2,0,P|271:37|244:-3,1,90,2|0,1:2|0:0,0:0:0:0:
355,129,156943,1,2,3:2:0:0:
404,41,157105,2,0,P|399:85|371:119,1,90,2|0,3:2|1:0,0:0:0:0:
453,204,157429,6,0,B|435:259|435:259|452:338,1,135,2|0,3:2|0:0,0:0:0:0:
455,357,157754,2,0,P|393:331|331:352,1,135,2|0,1:2|0:0,0:0:0:0:
256,376,158078,2,0,L|113:368,1,135,2|0,3:2|0:0,0:0:0:0:
100,368,158402,2,0,B|94:280|94:280|111:235,1,135,2|0,1:2|0:0,0:0:0:0:
160,162,158727,6,0,P|118:146|74:153,1,90,2|0,0:0|3:0,0:0:0:0:
204,247,159051,1,2,0:0:0:0:
245,124,159213,2,0,L|233:34,1,90,2|0,1:2|0:0,0:0:0:0:
310,0,159537,1,0,3:0:0:0:
331,135,159700,1,0,3:0:0:0:
477,46,159862,2,0,P|434:55|387:57,1,90,2|2,1:2|0:2,0:0:0:0:
341,226,160186,5,2,3:2:0:0:
413,173,160348,1,0,0:0:0:0:
331,135,160510,1,0,1:0:0:0:
341,226,160673,1,0,0:0:0:0:
431,263,160835,1,2,3:2:0:0:
399,86,160997,1,0,3:0:0:0:
251,190,161159,1,0,1:0:0:0:
300,311,161321,6,0,L|113:326,1,180,2|0,3:2|3:0,0:0:0:0:
46,176,161808,2,0,B|38:219|38:219|51:263,1,90,0|0,1:0|0:0,0:0:0:0:
129,212,162132,1,0,3:0:0:0:
81,96,162294,5,2,1:2:0:0:
168,129,162456,1,0,1:0:0:0:
232,56,162618,2,0,P|294:74|320:134,1,135,2|0,1:2|0:0,0:0:0:0:
311,157,162943,6,0,L|311:255,1,90,2|2,3:2|1:2,0:0:0:0:
262,318,163267,1,0,0:2:0:0:
391,372,163429,2,0,P|428:346|471:336,1,90,2|2,3:2|3:2,0:0:0:0:
423,242,163754,2,0,L|421:105,1,135,2|0,1:2|0:0,0:0:0:0:
434,86,164078,6,0,B|338:59|365:127|260:105,1,180,6|2,3:2|1:2,0:0:0:0:
117,65,164564,1,0,0:0:0:0:
209,18,164727,1,2,3:2:0:0:
113,177,164889,2,0,L|103:81,1,90,2|0,3:2|1:0,0:0:0:0:
187,268,165213,6,0,B|120:271|59:285|59:285|41:270|49:235,1,180,2|2,3:2|3:2,0:0:0:0:
113,177,165700,1,0,1:0:0:0:
167,349,165862,2,0,P|232:339|271:286,1,135,2|0,3:2|0:0,0:0:0:0:
271,260,166186,1,2,3:2:0:0:
382,320,166348,2,0,L|393:209,1,90,2|0,1:2|0:0,0:0:0:0:
465,152,166673,6,0,B|403:120|403:120|294:140,1,180,2|2,3:2|1:2,0:0:0:0:
137,118,167159,1,2,0:0:0:0:
137,118,167240,1,2,0:0:0:0:
137,118,167321,2,0,L|126:23,1,90,2|0,3:2|3:0,0:0:0:0:
274,149,167646,2,0,L|285:54,1,90,2|0,1:2|0:0,0:0:0:0:
190,218,167970,5,2,3:2:0:0:
286,287,168132,2,0,P|329:279|362:249,1,90,0|2,0:0|1:2,0:0:0:0:
213,350,168456,2,0,L|33:334,1,180,2|2,3:2|3:2,0:0:0:0:
81,238,168943,1,2,3:2:0:0:
71,221,169024,1,0,3:0:0:0:
62,205,169105,2,0,L|63:154,1,45,0|0,3:0|0:0,0:0:0:0:
4,92,169267,6,0,B|47:67|74:32|74:32|96:67|132:98,1,180,6|0,3:2|1:0,0:0:0:0:
341,173,169916,1,0,3:0:0:0:
336,61,170078,2,0,L|340:150,1,90,0|0,3:0|1:0,0:0:0:0:
236,193,170402,6,0,L|229:57,1,135,0|0,3:0|0:0,0:0:0:0:
227,36,170727,1,2,3:2:0:0:
336,61,170889,2,0,L|430:49,1,90,2|2,1:2|0:2,0:0:0:0:
502,127,171213,2,0,L|490:216,1,90,2|2,3:2|3:2,0:0:0:0:
418,312,171537,2,0,P|331:288|270:326,1,135,2|0,1:2|0:0,0:0:0:0:
297,329,171862,6,0,L|171:323,1,107.999996704102,6|2,0:0|0:0,0:0:0:0:
29,325,172510,2,0,P|59:281|110:268,1,107.999996704102,2|2,0:0|0:0,0:0:0:0:
176,213,172997,1,2,0:0:0:0:
111,146,173159,2,0,L|114:25,1,107.999996704102,2|0,1:2|0:0,0:0:0:0:
252,155,173808,2,0,L|306:159,2,53.9999983520508,2|2|2,0:0|0:0|0:0,0:0:0:0:
257,190,179646,6,0,P|295:191|330:203,1,74.70000108284,0|0,0:0|0:0,0:0:0:0:
284,102,179970,2,0,P|228:104|180:132,1,112.05000162426,2|0,1:2|0:0,0:0:0:0:
170,156,180294,1,2,0:0:0:0:
85,104,180456,1,2,0:0:0:0:
99,224,180618,2,0,L|110:310,1,74.70000108284,0|0,1:0|0:0,0:0:0:0:
83,374,180943,5,2,0:0:0:0:
83,374,181105,2,0,P|120:376|155:365,1,74.70000108284,2|0,0:0|1:0,0:0:0:0:
228,298,181429,2,0,B|306:279|289:335|370:324,1,149.40000216568,2|2,0:0|0:0,0:0:0:0:
450,358,181916,2,0,B|464:322|464:322|449:288,1,74.70000108284,2|0,1:2|0:0,0:0:0:0:
367,168,182240,6,0,L|355:241,1,74.70000108284,2|0,3:2|0:0,0:0:0:0:
437,110,182564,2,0,L|506:82,1,74.70000108284,2|0,1:2|0:0,0:0:0:0:
352,79,182889,2,0,L|293:32,2,74.70000108284,0|0|0,3:2|3:3|1:2,0:0:0:0:
246,154,183375,6,0,L|149:141,1,74.70000108284,0|0,1:0|0:0,0:0:0:0:
229,170,183700,2,0,L|132:157,1,74.70000108284,0|0,1:0|0:0,0:0:0:0:
99,260,184024,2,0,L|196:247,1,74.70000108284,0|0,1:0|0:0,0:0:0:0:
116,276,184349,2,0,L|213:263,1,74.70000108284,0|0,1:0|0:0,0:0:0:0:
55,192,184673,6,0,P|26:214|17:250,1,74.70000108284,0|0,1:0|0:0,0:0:0:0:
235,331,184997,2,0,P|263:308|272:272,1,74.70000108284,0|0,1:0|0:0,0:0:0:0:
37,181,185321,2,0,P|8:203|0:239,1,74.70000108284,0|0,1:0|0:0,0:0:0:0:
257,345,185645,2,0,P|285:322|294:286,1,74.70000108284,0|0,1:0|0:0,0:0:0:0:
435,329,185970,6,0,P|422:261|410:155,1,149.40000216568,0|0,1:0|0:0,0:0:0:0:
412,181,186456,1,0,0:0:0:0:
302,76,186781,2,0,P|327:48|359:31,1,74.70000108284,0|0,1:0|0:0,0:0:0:0:
466,50,187105,1,0,0:0:0:0:
296,206,187429,5,4,3:2:0:0:
207,149,187591,1,0,3:0:0:0:
124,224,187754,1,0,1:0:0:0:
64,77,187916,1,0,3:1:0:0:
53,62,187997,1,0,3:1:0:0:
43,50,188078,2,0,L|116:60,1,74.70000108284,0|0,3:0|1:0,0:0:0:0:
191,13,188321,1,0,1:0:0:0:
199,28,188402,1,0,1:0:0:0:
204,49,188483,1,0,1:0:0:0:
203,76,188564,1,0,1:0:0:0:
196,104,188646,1,0,1:0:0:0:
165,137,188727,6,0,P|135:176|123:223,1,99.0000030212403,4|0,3:2|0:0,0:0:0:0:
106,358,189051,1,0,1:0:0:0:
41,292,189213,1,0,0:0:0:0:
194,342,189375,1,2,3:2:0:0:
245,264,189537,2,0,P|243:193|230:149,1,99.0000030212403,2|0,0:0|1:0,0:0:0:0:
321,350,189862,6,0,B|435:360|388:285|504:296,1,198.000006042481,2|0,0:0|0:0,0:0:0:0:
475,382,190348,1,0,1:0:0:0:
344,266,190510,1,2,0:0:0:0:
465,202,190673,1,2,3:2:0:0:
363,141,190835,1,2,1:2:0:0:
363,141,190916,1,0,1:0:0:0:
363,141,190997,1,2,1:2:0:0:
473,67,191159,6,0,B|357:33|357:33|284:59,1,198.000006042481,2|0,0:0|0:0,0:0:0:0:
181,108,191646,2,0,L|82:100,1,99.0000030212403,0|0,1:0|0:0,0:0:0:0:
141,19,191970,1,0,3:2:0:0:
124,194,192132,1,0,0:0:0:0:
54,97,192294,1,0,1:0:0:0:
220,190,192456,6,0,P|180:276|86:288,1,198.000006042481,2|0,0:0|0:0,0:0:0:0:
224,353,192943,2,0,P|272:348|323:353,1,99.0000030212403,2|0,1:2|0:0,0:0:0:0:
417,244,193267,1,2,3:2:0:0:
428,354,193429,1,2,0:0:0:0:
311,255,193591,1,0,1:0:0:0:
503,280,193754,6,0,P|507:208|454:158,1,148.50000453186,2|0,0:0|0:0,0:0:0:0:
432,152,194078,1,0,0:0:0:0:
384,26,194240,2,0,B|428:42|428:42|479:37,1,99.0000030212403,2|0,1:2|0:0,0:0:0:0:
330,166,194564,1,2,3:2:0:0:
282,71,194727,1,0,0:0:0:0:
217,197,194889,2,0,P|159:174|68:172,1,148.50000453186,2|0,1:2|0:0,0:0:0:0:
53,184,195213,5,2,3:2:0:0:
85,92,195375,1,2,0:2:0:0:
25,30,195537,1,2,1:2:0:0:
34,197,195700,2,0,L|51:298,1,99.0000030212403,2|0,0:0|3:2,0:0:0:0:
157,258,196024,2,0,L|140:359,1,99.0000030212403,2|0,0:2|1:0,0:0:0:0:
279,323,196348,6,0,L|261:126,1,198.000006042481,2|0,0:2|0:0,0:0:0:0:
364,218,196835,2,0,P|414:223|462:204,1,99.0000030212403,2|0,1:2|0:0,0:0:0:0:
399,127,197159,1,2,3:2:0:0:
237,232,197321,1,2,0:2:0:0:
222,227,197402,1,2,0:2:0:0:
207,221,197483,1,2,1:2:0:0:
123,72,197646,1,2,0:2:0:0:
148,63,197727,1,2,0:2:0:0:
173,53,197808,6,0,L|245:58,1,49.5000015106202,2|0,3:2|0:0,0:0:0:0:
126,157,197970,1,0,1:0:0:0:
37,116,198132,2,0,P|27:69|39:21,1,99.0000030212403,0|2,1:0|0:2,0:0:0:0:
104,243,198456,2,0,P|101:292|2:245,1,198.000006042481,0|2,3:0|1:2,0:0:0:0:
259,319,199105,6,0,B|371:337|331:260|445:277,1,198.000006042481,4|0,3:2|1:0,0:0:0:0:
290,233,199591,1,0,0:0:0:0:
246,153,199754,1,2,3:2:0:0:
307,79,199916,1,2,0:0:0:0:
351,159,200079,1,0,1:0:0:0:
213,187,200240,6,0,L|97:174,1,99.0000030212403,2|0,0:0|3:0,0:0:0:0:
391,126,200564,2,0,L|507:139,1,99.0000030212403,2|0,0:0|1:0,0:0:0:0:
274,35,200889,1,0,0:0:0:0:
172,97,201051,1,2,3:2:0:0:
85,27,201213,1,2,0:0:0:0:
174,72,201375,1,0,1:0:0:0:
114,175,201537,6,0,B|80:245|80:245|101:363,1,198.000006042481,2|0,0:0|0:0,0:0:0:0:
203,349,202024,2,0,L|181:252,1,99.0000030212403,0|0,1:0|0:0,0:0:0:0:
281,180,202348,1,0,3:2:0:0:
397,252,202510,1,2,0:0:0:0:
449,183,202673,1,2,1:2:0:0:
392,113,202835,6,0,P|390:52|487:45,1,148.50000453186,2|0,3:2|0:0,0:0:0:0:
487,12,203159,2,0,L|483:160,1,148.50000453186,2|0,3:2|0:0,0:0:0:0:
466,293,203483,2,0,P|399:278|317:289,1,148.50000453186,2|0,3:2|0:0,0:0:0:0:
302,303,203808,2,0,B|266:240|266:240|300:171,1,148.50000453186,2|0,3:2|0:0,0:0:0:0:
250,85,204132,6,0,B|184:98|184:98|127:73|127:73|60:87,1,198.000006042481,6|0,3:2|0:0,0:0:0:0:
197,9,204618,1,0,1:0:0:0:
119,166,204781,6,0,B|117:213|81:242|81:242|128:279|130:336,1,198.000006042481,6|0,3:2|0:0,0:0:0:0:
195,240,205267,1,0,1:0:0:0:
351,369,205429,6,0,P|386:344|394:284,1,99.0000030212403,6|0,3:2|0:0,0:0:0:0:
316,247,205754,2,0,P|281:272|273:332,1,99.0000030212403,2|0,0:0|1:0,0:0:0:0:
395,199,206078,2,0,L|436:98,1,99.0000030212403,6|0,3:2|0:0,0:0:0:0:
361,32,206402,2,0,L|324:124,1,99.0000030212403,2|0,0:0|1:0,0:0:0:0:
160,190,206727,1,6,3:2:0:0:
77,145,206889,6,0,P|76:61|154:91,1,198.000006042481,0|0,3:2|3:0,0:0:0:0:
99,347,207537,1,0,3:0:0:0:
179,296,207700,1,2,0:0:0:0:
262,350,207862,1,2,1:2:0:0:
306,242,208024,6,0,L|294:132,1,99.0000030212403,2|0,1:2|0:0,0:0:0:0:
419,301,208348,2,0,L|431:191,1,99.0000030212403,2|0,1:2|0:0,0:0:0:0:
354,47,208673,2,0,B|281:54|216:44|216:44|195:66|212:100,1,198.000006042481,2|0,1:2|0:0,0:0:0:0:
306,242,209159,1,2,1:2:0:0:
306,242,209483,5,2,1:2:0:0:
190,306,209646,1,2,1:2:0:0:
79,240,209808,1,2,1:2:0:0:
79,240,210132,5,2,1:2:0:0:
194,77,210295,1,2,1:2:0:0:
306,242,210457,1,2,1:2:0:0:
195,193,210781,5,2,1:2:0:0:
305,135,210943,1,2,1:2:0:0:
307,345,211105,1,2,1:2:0:0:
307,345,211429,5,2,1:2:0:0:
447,235,211591,1,2,1:2:0:0:
305,135,211754,1,2,1:2:0:0:
88,60,212078,5,2,1:2:0:0:
129,207,212240,1,2,1:2:0:0:
64,52,212402,1,2,1:2:0:0:
279,10,212727,5,2,1:2:0:0:
236,250,212889,1,2,1:2:0:0:
480,157,213213,5,2,1:2:0:0:
307,171,213375,1,2,1:2:0:0:
403,316,213537,1,2,1:2:0:0:
386,83,213700,1,2,1:2:0:0:
236,250,213862,1,2,1:2:0:0:
