osu file format v14

[General]
AudioFilename: nami.mp3
AudioLeadIn: 0
PreviewTime: 66700
Countdown: 1
SampleSet: Soft
StackLeniency: 0.7
Mode: 0
LetterboxInBreaks: 0
WidescreenStoryboard: 1

[Editor]
DistanceSpacing: 1
BeatDivisor: 4
GridSize: 32
TimelineZoom: 1

[Metadata]
Title:Koishiteiku Planet
TitleUnicode:コイシテイク・プラネット
Artist:*namirin
ArtistUnicode:*namirin
Creator:Trynna
Version:Easy
Source:osu!
Tags:featured artist nami mappers' guild namiguild noffy kalibe
BeatmapID:1915095
BeatmapSetID:916990

[Difficulty]
HPDrainRate:3
CircleSize:3
OverallDifficulty:3
ApproachRate:4
SliderMultiplier:1
SliderTickRate:1

[Events]
//Background and Video events
0,0,"noffy edit made it even better.jpg",0,0
//Break Periods
2,174456,182055
//Storyboard Layer 0 (Background)
//Storyboard Layer 1 (Fail)
//Storyboard Layer 2 (Pass)
//Storyboard Layer 3 (Foreground)
//Storyboard Sound Samples

[TimingPoints]
619,324.324324324324,4,2,0,50,1,0
619,-100,4,2,0,50,0,0
10997,-100,4,2,1,70,0,1
14727,-100,4,2,0,70,0,1
23970,-100,4,2,1,60,0,0
34348,-100,4,2,1,55,0,0
66781,-100,4,2,1,70,0,1
80889,-100,4,2,0,70,0,1
90132,-100,4,2,1,60,0,0
100510,-100,4,2,1,55,0,0
132943,-100,4,2,1,70,0,1
147051,-100,4,2,0,70,0,1
153700,-100,4,2,1,60,0,0
171862,-100,4,2,1,40,0,0
183375,-100,4,2,1,55,0,0
188727,-100,4,2,1,85,0,1
202835,-100,4,2,0,85,0,1
209483,-100,4,2,0,68,0,1
213862,-100,4,2,0,68,0,0

[Colours]
Combo1 : 232,172,247
Combo2 : 243,234,116
Combo3 : 185,248,129
Combo4 : 141,222,245

[HitObjects]
88,121,9700,6,0,L|137:114,1,50,2|0,1:2|1:0,0:0:0:0:
202,37,10186,2,0,P|245:94|223:162,1,150,0|0,1:0|1:0,0:0:0:0:
169,247,10997,6,0,L|181:346,1,100,4|0,3:2|1:2,0:0:0:0:
265,291,11646,2,0,B|322:296|322:296|362:315|362:315|410:317,1,150,2|2,3:2|0:0,0:0:0:0:
480,249,12456,1,2,0:0:0:0:
465,99,12943,2,0,L|415:99,1,50,2|2,3:2|0:0,0:0:0:0:
344,170,13429,6,0,B|303:107|303:107|330:37,1,150,2|0,0:0|1:0,0:0:0:0:
235,9,14240,2,0,L|215:55,1,50,0|2,3:0|0:0,0:0:0:0:
127,102,14727,2,0,L|141:200,1,100,2|2,3:2|3:2,0:0:0:0:
112,296,15375,2,0,P|162:298|206:276,1,100,2|2,3:2|3:2,0:0:0:0:
300,313,16024,6,0,B|325:204|254:230|276:119,1,200,6|6,3:2|3:2,0:0:0:0:
476,117,17321,2,0,P|476:190|404:139,1,200,6|6,3:2|3:2,0:0:0:0:
405,40,18294,1,2,0:0:0:0:
304,29,18618,6,0,P|231:41|186:99,1,150,6|0,3:2|1:0,0:0:0:0:
217,193,19429,2,0,B|190:242|190:242|188:274|188:274|154:329,1,150,0|2,0:0|1:2,0:0:0:0:
56,325,20240,1,2,1:2:0:0:
15,233,20564,2,0,P|30:162|40:85,1,150,2|2,1:2|1:2,0:0:0:0:
128,37,21375,6,0,B|173:57|173:57|222:45,1,100,2|2,1:2|1:2,0:0:0:0:
285,123,22024,2,0,L|340:116,1,50,2|2,1:2|1:2,0:0:0:0:
413,177,22510,2,0,B|470:94|470:94|430:3,1,200,2|2,1:2|0:2,0:0:0:0:
334,116,23646,1,2,0:0:0:0:
329,215,23970,6,0,L|322:320,1,100,4|0,3:2|1:0,0:0:0:0:
220,354,24618,2,0,P|153:327|137:257,1,150,0|0,3:0|3:0,0:0:0:0:
69,184,25429,1,0,3:0:0:0:
194,100,25916,2,0,P|183:54|185:0,1,100,0|0,3:0|1:2,0:0:0:0:
276,41,26564,6,0,L|378:39,1,100,0|0,3:0|1:2,0:0:0:0:
471,67,27213,2,0,B|494:118|494:118|479:216,1,150,0|0,3:0|3:0,0:0:0:0:
394,257,28024,1,0,3:0:0:0:
458,333,28348,2,0,L|507:326,1,50,0|0,3:0|3:0,0:0:0:0:
307,318,29159,6,0,P|287:272|291:223,1,100,0|0,3:0|1:2,0:0:0:0:
217,155,29808,2,0,L|221:4,1,150,0|0,3:0|3:0,0:0:0:0:
122,22,30618,1,0,3:0:0:0:
119,172,31105,2,0,P|138:218|182:248,1,100,0|0,3:0|1:2,0:0:0:0:
203,343,31754,6,0,P|252:333|302:332,1,100,0|0,3:0|1:2,0:0:0:0:
385,276,32402,2,0,B|366:203|409:217|384:128,1,150,0|0,3:0|3:0,0:0:0:0:
429,39,33213,1,0,3:0:0:0:
330,53,33537,2,0,P|280:48|244:37,1,50,0|0,3:0|1:3,0:0:0:0:
183,22,34024,2,0,B|175:71|175:71|188:119,1,100,0|0,1:0|3:3,0:0:0:0:
156,214,34673,5,2,1:2:0:0:
224,286,34997,2,0,P|271:273|303:235,1,100,2|0,3:2|1:0,0:0:0:0:
335,140,35646,2,0,P|399:211|376:304,1,200,2|0,0:0|0:0,0:0:0:0:
462,356,36618,1,2,1:2:0:0:
496,261,36943,6,0,P|498:211|482:164,1,100,2|2,3:2|1:2,0:0:0:0:
422,84,37591,2,0,L|424:34,1,50,2|2,3:2|3:2,0:0:0:0:
324,22,38078,2,0,L|309:172,1,150,2|2,3:2|1:2,0:0:0:0:
352,261,38889,2,0,P|404:287|449:283,2,100,2|2|0,1:2|1:2|3:0,0:0:0:0:
252,245,39862,5,2,1:2:0:0:
154,266,40186,2,0,P|154:213|150:154,1,100,2|2,3:2|1:2,0:0:0:0:
224,98,40835,2,0,B|341:112|296:46|414:57,1,200,2|0,0:2|0:0,0:0:0:0:
383,152,41808,1,2,1:2:0:0:
475,207,42132,6,0,P|463:255|455:305,1,100,2|2,3:2|1:2,0:0:0:0:
357,325,42781,2,0,P|349:301|343:276,1,50,2|2,3:2|3:2,0:0:0:0:
279,200,43267,2,0,P|247:237|242:286,2,100,2|2|2,3:2|3:2|3:2,0:0:0:0:
339,120,44240,2,0,P|268:99|201:130,1,150,2|0,3:2|3:3,0:0:0:0:
122,192,45051,5,2,1:2:0:0:
41,133,45375,2,0,P|53:85|42:36,1,100,2|0,3:2|1:0,0:0:0:0:
145,42,46024,2,0,L|193:30,1,50,2|2,0:0|3:2,0:0:0:0:
272,99,46510,2,0,B|326:103|326:103|367:125|367:125|426:129,1,150,2|2,3:2|1:2,0:0:0:0:
484,201,47321,5,2,3:2:0:0:
419,276,47646,1,2,1:2:0:0:
339,214,47970,2,0,P|314:217|289:222,1,50,2|2,3:2|3:2,0:0:0:0:
224,298,48456,2,0,P|168:249|159:176,1,150,2|2,3:2|1:2,0:0:0:0:
124,83,49267,2,0,P|79:60|30:65,2,100,2|2|0,1:2|1:2|3:0,0:0:0:0:
222,99,50240,5,2,1:2:0:0:
307,47,50564,2,0,P|356:46|404:33,1,100,2|2,3:2|1:2,0:0:0:0:
483,95,51213,2,0,P|470:167|460:306,1,200,2|0,0:2|0:0,0:0:0:0:
369,336,52186,1,2,1:2:0:0:
281,285,52510,6,0,P|264:232|212:203,1,100,2|2,3:2|1:2,0:0:0:0:
147,149,53159,2,0,P|83:186|62:256,1,150,2|2,3:2|3:2,0:0:0:0:
192,331,54132,1,2,1:2:0:0:
280,285,54456,2,0,L|379:297,1,100,2|0,3:2|1:3,0:0:0:0:
411,201,55105,6,0,B|300:213|340:133|226:149,1,200,4|2,0:0|3:2,0:0:0:0:
136,105,56078,1,0,0:0:0:0:
211,39,56402,2,0,L|260:35,1,50,2|2,0:0|3:2,0:0:0:0:
355,67,56889,2,0,P|421:36|490:62,1,150,2|2,3:2|3:2,0:0:0:0:
427,140,57700,6,0,L|440:239,1,100,0|2,3:0|0:0,0:0:0:0:
373,312,58348,2,0,L|321:304,1,50,2|2,3:2|3:2,0:0:0:0:
232,346,58835,1,2,3:2:0:0:
136,316,59159,2,0,P|76:273|65:201,1,150,2|2,3:2|3:2,0:0:0:0:
147,144,59970,1,2,3:2:0:0:
242,174,60294,6,0,P|253:125|242:77,1,100,0|2,3:0|0:0,0:0:0:0:
312,5,60943,2,0,L|381:19,1,50,2|2,3:2|3:2,0:0:0:0:
458,38,61429,2,0,L|453:137,1,100,2|2,3:2|3:2,0:0:0:0:
385,212,62078,2,0,L|400:379,1,150,2|2,3:2|1:2,0:0:0:0:
298,353,62889,2,0,L|286:241,1,100,2|2,3:2|0:2,0:0:0:0:
295,154,63537,2,0,P|261:89|190:78,1,150,2|2,3:2|3:2,0:0:0:0:
91,92,64348,6,0,P|46:71|25:27,2,100,2|2|2,3:2|3:2|3:2,0:0:0:0:
151,172,65321,1,2,3:2:0:0:
93,254,65646,2,0,L|91:311,1,50,2|0,0:3|1:0,0:0:0:0:
179,351,66132,2,0,B|232:351|221:326|275:323,1,100,2|0,0:0|1:0,0:0:0:0:
369,351,66781,6,0,P|380:302|370:254,1,100,4|0,3:2|1:0,0:0:0:0:
299,184,67429,2,0,B|290:110|333:133|325:39,1,150,2|2,3:0|0:0,0:0:0:0:
226,60,68240,2,0,P|158:33|90:59,1,150,2|2,0:0|3:2,0:0:0:0:
155,194,69213,6,0,L|150:350,1,150,2|0,0:0|1:0,0:0:0:0:
248,326,70024,2,0,L|297:327,1,50,0|0,3:2|0:0,0:0:0:0:
397,325,70510,2,0,P|368:257|302:225,1,150,2|2,0:0|1:2,0:0:0:0:
202,222,71321,1,2,3:2:0:0:
119,96,71808,6,0,B|173:69|173:69|260:89,1,150,2|2,0:0|1:2,0:0:0:0:
343,33,72618,2,0,L|441:47,1,100,2|2,3:2|1:2,0:0:0:0:
466,144,73267,2,0,B|384:134|407:182|322:173,1,150,2|2,3:2|0:0,0:0:0:0:
259,251,74078,1,2,0:2:0:0:
163,223,74402,6,0,P|134:156|167:92,1,150,2|2,0:2|1:2,0:0:0:0:
89,29,75213,2,0,P|54:65|33:110,1,100,2|2,3:2|1:2,0:0:0:0:
42,210,75862,2,0,L|32:259,1,50,2|0,3:2|1:0,0:0:0:0:
83,345,76348,2,0,B|132:348|132:348|181:333|181:333|230:333,1,150,2|2,0:2|1:2,0:0:0:0:
316,280,77159,6,0,P|280:245|232:235,1,100,4|0,3:2|1:2,0:0:0:0:
160,166,77808,2,0,P|169:93|229:53,1,150,2|2,3:2|0:0,0:0:0:0:
323,88,78618,2,0,B|409:94|377:40|464:54,1,150,2|2,0:0|3:2,0:0:0:0:
508,197,79591,2,0,L|500:346,1,150,2|0,0:0|1:0,0:0:0:0:
412,299,80402,1,0,3:2:0:0:
270,348,80889,2,0,P|223:329|174:327,1,100,2|2,3:2|3:2,0:0:0:0:
108,252,81537,2,0,P|61:270|12:272,1,100,2|2,3:2|3:2,0:0:0:0:
44,176,82186,6,0,P|136:151|207:215,1,200,6|6,3:2|3:2,0:0:0:0:
381,314,83483,2,0,B|363:203|431:249|406:121,1,200,6|6,3:2|3:2,0:0:0:0:
379,25,84456,1,2,0:0:0:0:
288,66,84781,6,0,L|138:58,1,150,6|0,3:2|1:0,0:0:0:0:
52,109,85591,1,0,0:0:0:0:
90,254,86078,2,0,P|130:239|195:237,1,100,2|2,1:2|1:2,0:0:0:0:
259,304,86727,2,0,B|314:304|314:304|352:287|352:287|405:287,1,150,2|2,1:2|1:2,0:0:0:0:
499,319,87537,6,0,P|497:343|490:368,2,50,2|2|2,1:2|1:2|1:2,0:0:0:0:
488,219,88186,2,0,P|489:194|496:169,1,50,2|2,1:2|1:2,0:0:0:0:
423,100,88673,2,0,P|354:108|257:22,1,200,2|2,1:2|0:2,0:0:0:0:
104,31,89808,1,2,0:0:0:0:
58,120,90132,6,0,L|69:219,1,100,4|0,3:2|1:0,0:0:0:0:
48,317,90781,2,0,P|117:340|180:304,1,150,0|0,3:0|3:0,0:0:0:0:
242,226,91591,1,0,3:0:0:0:
376,293,92078,2,0,L|475:286,1,100,0|0,3:0|1:2,0:0:0:0:
422,202,92727,6,0,P|410:153|418:104,1,100,0|0,3:0|1:2,0:0:0:0:
455,11,93375,2,0,P|381:4|323:49,1,150,0|0,3:0|3:0,0:0:0:0:
305,148,94186,1,0,3:0:0:0:
212,186,94510,2,0,L|162:177,1,50,0|0,3:0|3:0,0:0:0:0:
33,331,95321,6,0,L|132:341,1,100,0|0,3:0|1:2,0:0:0:0:
224,301,95970,2,0,B|298:301|279:353|360:352,1,150,0|0,3:0|3:0,0:0:0:0:
451,312,96781,1,0,3:0:0:0:
379,180,97267,2,0,L|383:74,1,100,0|0,3:0|1:2,0:0:0:0:
289,43,97916,6,0,L|285:142,1,100,0|0,3:0|1:2,0:0:0:0:
209,208,98564,2,0,P|257:265|251:338,1,150,0|0,3:0|3:0,0:0:0:0:
159,298,99375,1,0,3:0:0:0:
65,334,99700,2,0,L|8:340,1,50,0|0,3:0|1:3,0:0:0:0:
26,239,100186,2,0,B|19:190|38:197|28:139,1,100,0|0,1:0|3:3,0:0:0:0:
58,44,100835,5,2,0:2:0:0:
150,81,101159,1,2,3:2:0:0:
291,31,101646,2,0,B|370:14|350:65|436:46,1,150,0|0,3:0|1:0,0:0:0:0:
505,118,102456,1,2,3:2:0:0:
437,191,102781,1,2,1:2:0:0:
493,273,103105,6,0,P|505:320|495:369,1,100,2|2,3:2|1:2,0:0:0:0:
407,321,103754,2,0,P|348:307|323:382,1,150,2|2,3:2|3:2,0:0:0:0:
174,344,104727,1,2,1:2:0:0:
113,264,105051,2,0,P|63:257|15:269,2,100,2|2|0,1:2|1:2|3:0,0:0:0:0:
193,204,106024,5,2,1:2:0:0:
292,194,106348,2,0,P|340:205|389:199,1,100,2|2,3:2|1:2,0:0:0:0:
430,108,106997,2,0,P|350:54|263:94,1,200,2|0,0:2|0:0,0:0:0:0:
181,151,107970,1,2,1:2:0:0:
89,109,108294,6,0,P|67:155|40:196,1,100,2|2,3:2|1:2,0:0:0:0:
73,291,108943,2,0,B|153:280|131:334|214:323,1,150,2|2,3:2|3:2,0:0:0:0:
305,282,109754,2,0,P|358:292|392:341,1,100,2|2,3:2|3:2,0:0:0:0:
475,278,110402,2,0,L|482:227,1,50,2|2,3:2|1:3,0:0:0:0:
467,129,110889,5,0,3:3:0:0:
373,164,111213,2,0,P|324:158|275:140,1,100,2|2,1:2|3:2,0:0:0:0:
184,179,111862,1,0,1:0:0:0:
182,79,112186,2,0,P|248:22|349:62,1,200,2|0,0:0|0:0,0:0:0:0:
431,110,113159,1,2,1:2:0:0:
403,206,113483,6,0,L|301:199,1,100,2|2,3:2|1:2,0:0:0:0:
225,262,114132,2,0,P|201:192|232:125,1,150,2|2,3:2|3:2,0:0:0:0:
190,34,114943,2,0,L|137:44,1,50,0|2,3:0|1:2,0:0:0:0:
59,100,115429,2,0,L|42:1,2,100,2|2|0,1:2|1:2|3:0,0:0:0:0:
129,171,116402,5,2,1:2:0:0:
59,243,116727,2,0,P|44:290|51:339,1,100,2|2,3:2|1:2,0:0:0:0:
139,297,117375,2,0,B|249:269|209:357|327:333,1,200,2|0,0:2|0:0,0:0:0:0:
396,261,118348,1,2,1:2:0:0:
491,231,118673,6,0,P|494:181|471:137,1,100,2|2,3:2|1:2,0:0:0:0:
385,85,119321,2,0,P|327:132|312:204,1,150,2|2,3:2|3:2,0:0:0:0:
197,299,120294,1,2,1:2:0:0:
118,361,120618,2,0,P|62:364|19:342,1,100,2|0,3:2|1:3,0:0:0:0:
88,268,121267,5,4,0:0:0:0:
88,68,121916,2,0,L|92:9,1,50,2|2,3:2|3:2,0:0:0:0:
191,0,122402,2,0,L|186:99,1,100,2|2,3:2|3:2,0:0:0:0:
260,168,123051,2,0,P|333:162|376:103,1,150,2|2,3:2|3:2,0:0:0:0:
467,62,123862,5,0,3:0:0:0:
459,261,124510,2,0,L|396:258,1,50,2|2,3:2|3:2,0:0:0:0:
334,325,124997,2,0,P|291:301|243:289,1,100,2|2,3:2|3:2,0:0:0:0:
99,334,125808,2,0,L|94:234,1,100,2|2,3:2|3:2,0:0:0:0:
27,159,126456,5,0,3:0:0:0:
225,151,127105,2,0,L|273:141,1,50,2|2,3:2|3:2,0:0:0:0:
366,102,127591,2,0,P|379:149|360:194,1,100,2|2,3:2|3:2,0:0:0:0:
269,234,128240,2,0,L|290:389,1,150,2|2,3:2|1:2,0:0:0:0:
380,340,129051,5,2,3:2:0:0:
478,358,129375,1,2,0:2:0:0:
490,258,129700,2,0,L|503:107,1,150,2|2,3:2|3:2,0:0:0:0:
416,58,130510,6,0,P|366:59|327:90,2,100,2|2|2,3:2|3:2|3:2,0:0:0:0:
400,156,131483,1,2,3:2:0:0:
308,196,131808,2,0,P|255:187|150:179,1,150,2|2,0:3|0:0,0:0:0:0:
75,124,132618,1,0,1:0:0:0:
63,223,132943,6,0,P|85:266|131:284,1,100,4|0,3:2|1:0,0:0:0:0:
207,347,133591,2,0,P|274:313|348:303,1,150,2|2,3:2|0:0,0:0:0:0:
435,354,134402,2,0,B|453:306|453:306|433:204,1,150,2|2,0:0|3:2,0:0:0:0:
443,59,135375,6,0,P|374:86|304:66,1,150,2|0,0:0|1:0,0:0:0:0:
214,21,136186,2,0,L|144:27,1,50,0|0,3:2|0:0,0:0:0:0:
83,84,136673,2,0,P|89:158|98:233,1,150,2|2,0:0|1:2,0:0:0:0:
54,323,137483,1,2,3:2:0:0:
200,289,137970,6,0,P|274:317|341:276,1,150,2|2,0:0|1:2,0:0:0:0:
263,213,138781,2,0,P|257:144|257:93,1,100,2|2,3:2|1:2,0:0:0:0:
324,40,139429,2,0,B|407:29|380:85|466:69,1,150,2|2,3:2|0:0,0:0:0:0:
503,162,140240,1,2,0:2:0:0:
459,251,140564,6,0,P|385:254|332:305,1,150,2|2,0:2|1:2,0:0:0:0:
246,357,141375,2,0,P|228:311|237:262,1,100,2|2,3:2|1:2,0:0:0:0:
293,179,142024,2,0,L|281:121,1,50,2|0,3:2|1:0,0:0:0:0:
314,35,142510,2,0,B|264:33|264:33|217:49|217:49|166:45,1,150,2|2,0:2|1:2,0:0:0:0:
68,65,143321,6,0,B|76:92|92:110|92:110|83:158,1,100,4|0,3:2|1:2,0:0:0:0:
163,217,143970,2,0,L|149:375,1,150,2|2,3:2|0:0,0:0:0:0:
247,344,144781,2,0,B|327:330|311:379|392:365,1,150,2|2,0:0|3:2,0:0:0:0:
422,218,145754,6,0,P|362:241|360:177,1,150,2|0,0:0|1:0,0:0:0:0:
439,116,146564,1,0,3:2:0:0:
301,55,147051,2,0,P|260:83|235:126,1,100,2|2,3:2|3:2,0:0:0:0:
163,196,147700,2,0,P|203:224|228:267,1,100,2|2,3:2|3:2,0:0:0:0:
187,358,148348,6,0,P|95:327|70:234,1,200,6|6,3:2|3:2,0:0:0:0:
107,37,149646,2,0,B|175:37|175:37|230:63|230:63|301:61,1,200,6|6,3:2|3:2,0:0:0:0:
384,116,150618,1,2,0:0:0:0:
450,41,150943,6,0,P|489:102|468:172,1,150,6|0,3:2|1:0,0:0:0:0:
379,217,151754,2,0,B|373:283|373:283|395:366,1,150,0|2,0:0|1:2,0:0:0:0:
295,351,152564,1,2,1:2:0:0:
196,331,152889,2,0,B|117:316|130:362|49:346,1,150,2|2,1:2|1:2,0:0:0:0:
77,248,153700,6,0,P|38:159|78:70,1,200,4|0,0:0|3:0,0:0:0:0:
200,157,154835,2,0,P|247:158|299:148,1,100,2|2,3:2|3:2,0:0:0:0:
383,202,155483,2,0,P|410:133|383:65,1,150,2|0,3:2|1:0,0:0:0:0:
474,24,156294,5,2,3:2:0:0:
508,117,156618,2,0,P|505:166|490:214,1,100,2|2,1:2|3:2,0:0:0:0:
398,333,157429,2,0,P|350:320|301:313,1,100,2|2,3:2|1:2,0:0:0:0:
217,255,158078,2,0,P|169:268|120:275,1,100,2|2,3:2|1:2,0:0:0:0:
193,143,158889,6,0,P|242:140|284:165,1,100,0|2,3:0|1:2,0:0:0:0:
365,107,159537,2,0,P|366:82|373:58,1,50,0|0,3:0|3:0,0:0:0:0:
224,42,160186,2,0,P|174:44|130:66,1,100,2|0,3:2|1:0,0:0:0:0:
30,54,160835,1,2,3:2:0:0:
31,203,161321,6,0,B|109:212|94:167|174:172,1,150,2|0,3:2|1:0,0:0:0:0:
159,271,162132,2,0,L|170:331,1,50,0|2,3:0|1:2,0:0:0:0:
263,350,162618,2,0,L|361:333,1,100,2|2,1:2|3:2,0:0:0:0:
458,306,163267,2,0,P|420:244|348:236,1,150,0|2,0:2|1:2,0:0:0:0:
256,196,164078,6,0,L|254:96,1,100,6|2,3:2|1:2,0:0:0:0:
197,13,164727,1,2,3:2:0:0:
346,18,165213,2,0,P|390:27|440:51,1,100,2|2,3:2|3:2,0:0:0:0:
463,148,165862,2,0,B|444:207|444:207|445:295,1,150,2|2,3:2|1:2,0:0:0:0:
362,352,166673,6,0,P|317:333|267:329,1,100,2|2,3:2|1:2,0:0:0:0:
171,356,167321,2,0,P|167:306|180:258,1,100,2|2,3:2|1:2,0:0:0:0:
140,166,167970,2,0,P|69:187|0:163,2,150,2|2|2,3:2|3:2|3:2,0:0:0:0:
210,95,169267,5,6,3:2:0:0:
304,128,169591,1,0,1:0:0:0:
399,99,169916,2,0,L|409:-2,1,100,0|0,3:0|1:0,0:0:0:0:
501,36,170564,2,0,L|491:135,1,100,0|2,3:0|1:2,0:0:0:0:
474,234,171213,2,0,P|425:224|382:246,1,100,2|2,3:2|1:2,0:0:0:0:
256,192,171862,12,2,173159,1:2:0:0:
364,109,183375,6,0,P|349:62|307:36,1,100,0|0,1:0|1:0,0:0:0:0:
207,36,184024,2,0,P|165:61|150:108,1,100,0|0,1:0|1:0,0:0:0:0:
204,192,184673,2,0,L|304:192,1,100,0|0,1:0|1:0,0:0:0:0:
300,291,185321,2,0,L|200:291,1,100,0|0,1:0|1:0,0:0:0:0:
151,378,185970,6,0,P|117:256|220:191,1,250,0|0,1:0|1:0,0:0:0:0:
380,97,187429,2,0,P|333:98|210:5,1,200,4|0,3:2|3:0,0:0:0:0:
41,121,188727,6,0,L|49:220,1,100,4|0,3:2|1:0,0:0:0:0:
46,320,189375,2,0,B|129:315|108:272|184:272,1,150,2|2,3:2|0:0,0:0:0:0:
273,317,190186,2,0,P|330:316|413:366,1,150,0|2,0:0|3:2,0:0:0:0:
469,223,191159,6,0,B|470:174|470:174|458:125|458:125|459:73,1,150,2|0,0:0|1:0,0:0:0:0:
373,23,191970,2,0,L|323:25,1,50,0|0,3:2|0:0,0:0:0:0:
246,89,192456,2,0,B|196:62|196:62|102:62,1,150,2|2,0:0|1:2,0:0:0:0:
32,133,193267,1,2,3:2:0:0:
88,272,193754,6,0,B|164:272|143:236|230:231,1,150,2|2,0:0|1:2,0:0:0:0:
308,293,194564,2,0,P|353:309|399:292,1,100,2|2,3:2|1:2,0:0:0:0:
352,203,195213,2,0,P|338:129|356:57,1,150,2|2,3:2|0:0,0:0:0:0:
449,19,196024,1,2,0:2:0:0:
471,116,196348,6,0,L|469:289,1,150,2|2,0:2|1:2,0:0:0:0:
398,336,197159,2,0,P|351:316|292:304,1,100,2|2,3:2|1:2,0:0:0:0:
211,344,197808,2,0,L|161:337,1,50,2|0,3:2|1:0,0:0:0:0:
71,381,198294,2,0,B|60:330|60:330|83:292|78:235,1,150,2|2,0:2|1:2,0:0:0:0:
154,169,199105,6,0,P|202:179|251:170,1,100,4|0,3:2|1:0,0:0:0:0:
316,94,199754,2,0,P|379:64|459:98,1,150,2|2,3:2|0:0,0:0:0:0:
388,167,200564,2,0,P|397:236|398:316,1,150,2|2,0:0|3:2,0:0:0:0:
256,364,201537,6,0,B|203:357|203:357|164:337|164:337|109:331,1,150,2|0,0:0|1:0,0:0:0:0:
43,258,202348,1,0,3:2:0:0:
157,161,202835,2,0,L|156:55,1,100,2|2,3:2|3:2,0:0:0:0:
255,64,203483,2,0,L|255:163,1,100,2|2,3:2|3:2,0:0:0:0:
322,238,204132,6,0,B|430:248|406:180|512:197,1,200,6|6,3:2|3:2,0:0:0:0:
366,334,205429,2,0,P|269:322|219:240,1,200,6|6,3:2|3:2,0:0:0:0:
185,43,206727,6,0,P|114:24|51:62,1,150,6|0,3:2|1:0,0:0:0:0:
128,126,207537,1,0,3:0:0:0:
48,253,208024,2,0,L|59:366,1,100,2|2,1:2|1:2,0:0:0:0:
143,295,208673,2,0,B|220:286|203:342|289:328,1,150,2|2,1:2|1:2,0:0:0:0:
355,258,209483,6,0,L|411:243,2,50,2|2|2,1:2|1:2|1:2,0:0:0:0:
277,194,210132,2,0,L|271:94,1,100,2|2,1:2|1:2,0:0:0:0:
182,48,210781,2,0,L|125:38,2,50,2|2|2,1:2|1:2|1:2,0:0:0:0:
144,140,211429,2,0,P|133:188|138:237,1,100,2|2,1:2|1:2,0:0:0:0:
84,321,212078,6,0,L|36:304,2,50,2|2|2,1:2|1:2|1:2,0:0:0:0:
177,357,212727,2,0,L|225:340,1,50,2|2,1:2|1:2,0:0:0:0:
323,336,213213,2,0,P|329:261|272:145,1,200,2|2,1:2|1:2,0:0:0:0:
