osu file format v14

[General]
AudioFilename: himen.mp3
AudioLeadIn: 0
PreviewTime: 60285
Countdown: 0
SampleSet: Soft
StackLeniency: 0.4
Mode: 0
LetterboxInBreaks: 0
WidescreenStoryboard: 0

[Editor]
Bookmarks: 85313,90706,168909,193178
DistanceSpacing: 1
BeatDivisor: 4
GridSize: 16
TimelineZoom: 1.6

[Metadata]
Title:Koi no Hime Hime Pettanko
TitleUnicode:恋のヒメヒメぺったんこ
Artist:*namirin
ArtistUnicode:*なみりん
Creator:sahuang
Version:joker's Normal
Source:弱虫ペダル
Tags:My Angel Azusa pata-mon joker left beomsan enon utaite nami なみ nnd nico nico douga ニコニコ動画 Tamura Yukari 田村 ゆかり Yowapeda Pedal
BeatmapID:1301967
BeatmapSetID:613083

[Difficulty]
HPDrainRate:4
CircleSize:3
OverallDifficulty:4
ApproachRate:5
SliderMultiplier:1.1
SliderTickRate:1

[Events]
//Background and Video events
0,0,"hime.jpg",0,0
//Break Periods
2,85313,89506
2,168909,178495
2,193178,202765
//Storyboard Layer 0 (Background)
//Storyboard Layer 1 (Fail)
//Storyboard Layer 2 (Pass)
//Storyboard Layer 3 (Foreground)
//Storyboard Sound Samples

[TimingPoints]
1718,337.078651685393,4,2,1,50,1,0
1718,-100,4,2,1,50,0,0
6437,-100,4,2,1,50,0,0
6774,-100,4,2,1,50,0,0
7111,-100,4,2,2,60,0,0
16549,-100,4,2,2,50,0,0
17897,-100,4,2,2,50,0,0
21942,-100,4,2,2,60,0,0
23291,-100,4,2,2,60,0,0
24639,-100,4,2,2,60,0,0
28347,-100,4,2,2,60,0,0
28684,-100,4,2,2,60,0,0
32729,-100,4,2,2,60,0,0
34077,-100,4,2,2,60,0,0
35425,-100,4,2,2,60,0,0
37953,-100,4,2,2,60,0,0
38796,-100,4,2,2,50,0,0
47560,-100,4,2,2,50,0,0
48740,-100,4,2,2,60,0,0
58178,-100,4,2,2,70,0,0
60369,-100,4,2,2,40,0,0
61043,-100,4,2,2,80,0,1
71156,-100,4,2,2,80,0,0
71830,-100,4,2,2,80,0,1
77223,-100,4,2,2,80,0,1
79246,-100,4,2,2,80,0,1
79920,-100,4,2,2,80,0,1
83796,-100,4,2,2,80,0,1
85313,-100,4,2,1,60,0,0
90032,-100,4,2,1,50,0,0
90369,-100,4,2,1,60,0,0
90706,-100,4,2,1,40,0,0
98628,-100,4,2,1,60,0,0
101156,-100,4,2,1,60,0,0
101493,-100,4,2,2,60,0,0
102841,-100,4,2,2,60,0,0
104189,-100,4,2,2,60,0,0
105538,-100,4,2,2,60,0,0
106886,-100,4,2,2,60,0,0
108234,-100,4,2,2,60,0,0
111605,-100,4,2,2,60,0,0
120369,-100,4,2,2,60,0,0
121549,-100,4,2,2,60,0,0
133178,-100,4,2,2,60,0,0
133852,-100,4,2,2,60,0,1
139246,-100,4,2,2,60,0,1
141942,-100,4,2,2,60,0,1
143965,-100,4,2,2,60,0,0
144639,-100,4,2,2,60,0,1
148684,-100,4,2,2,60,0,1
152729,-100,4,2,2,60,0,1
156605,-100,4,2,2,60,0,1
158122,-100,4,2,2,60,0,0
163515,-100,4,2,2,60,0,0
167560,-100,4,2,2,60,0,0
168909,-100,4,2,2,60,0,0
178178,-100,4,2,2,60,0,0
179695,-100,4,2,2,60,0,0
203965,-100,4,2,2,60,0,1
209358,-100,4,2,2,60,0,1
213234,-100,4,2,2,60,0,1
214077,-100,4,2,2,60,0,0
214751,-100,4,2,2,60,0,1
220144,-100,4,2,2,60,0,1
222167,-100,4,2,2,60,0,1
226717,-100,4,2,2,60,0,1
228234,-100,4,2,1,60,0,0
232279,-100,4,2,1,60,0,0
233628,-100,4,2,1,60,0,0
235987,-100,4,2,1,60,0,0
236324,-100,4,2,1,5,0,0

[Colours]
Combo1 : 255,168,125
Combo2 : 255,128,128
Combo3 : 158,158,207
Combo4 : 255,108,255

[HitObjects]
339,250,1718,6,0,P|272:245|215:267,1,110,2|2,0:0|0:0,0:0:0:0:
184,284,2223,1,0,0:0:0:0:
184,284,2392,2,0,P|117:289|60:267,1,110,2|10,0:0|0:0,0:0:0:0:
26,178,3066,2,0,L|141:160,1,110,2|2,0:0|0:0,0:0:0:0:
162,113,3571,1,0,0:0:0:0:
162,113,3740,2,0,L|277:131,1,110,2|10,0:0|0:0,0:0:0:0:
371,86,4414,6,0,P|377:161|346:209,1,110,2|2,0:0|0:0,0:0:0:0:
330,235,4920,1,0,0:0:0:0:
330,235,5088,2,0,L|343:360,1,110,2|10,0:0|0:0,0:0:0:0:
233,321,5762,2,0,L|173:337,1,55,2|0,0:0|0:0,0:0:0:0:
131,307,6100,2,0,L|71:291,1,55,10|0,0:0|0:0,0:0:0:0:
43,249,6437,2,0,P|30:189|48:136,1,110,2|2,0:0|0:1,0:0:0:0:
120,65,7111,6,0,L|252:74,1,110,4|0,0:0|0:0,0:0:0:0:
328,23,7785,2,0,L|460:32,1,110,0|0,0:0|0:0,0:0:0:0:
479,66,8291,1,2,0:0:0:0:
479,66,8459,2,0,P|488:129|471:194,1,110,4|0,0:0|0:0,0:0:0:0:
438,211,8965,2,0,B|363:257|349:172|261:238,1,165,0|8,0:0|0:0,0:0:0:0:
190,162,9807,6,0,L|63:178,1,110,4|0,0:0|0:0,0:0:0:0:
9,259,10482,2,0,P|57:283|111:282,1,110,0|0,0:0|0:0,0:0:0:0:
162,261,10987,1,2,0:0:0:0:
162,261,11156,2,0,P|216:259|264:284,1,110,4|0,0:0|0:0,0:0:0:0:
304,321,11661,2,0,B|360:348|411:338|411:338|443:284,1,165,0|2,0:0|0:0,0:0:0:0:
457,182,12504,6,0,L|519:172,2,55,4|0|8,0:0|0:0|0:0,0:0:0:0:
360,129,13178,2,0,P|300:117|247:133,1,110,2|8,0:0|0:0,0:0:0:0:
208,160,13684,1,0,0:0:0:0:
208,160,13852,2,0,P|152:175|86:167,1,110,4|8,0:0|0:0,0:0:0:0:
50,148,14358,2,0,P|21:214|49:304,1,165,0|8,0:0|0:0,0:0:0:0:
153,321,15201,6,0,L|145:389,2,55,4|0|8,0:0|0:0|0:0,0:0:0:0:
251,272,15875,2,0,L|262:150,1,110,2|8,0:0|0:0,0:0:0:0:
270,108,16380,1,0,0:0:0:0:
270,108,16549,2,0,P|320:25|401:134,1,275,4|2,0:0|0:0,0:0:0:0:
391,180,17560,1,8,0:0:0:0:
416,287,17897,5,4,0:0:0:0:
306,294,18234,2,0,L|239:281,1,55,8|0,0:0|0:0,0:0:0:0:
226,234,18571,2,0,P|167:243|104:225,1,110,2|8,0:0|0:0,0:0:0:0:
37,156,19246,2,0,L|51:36,1,110,2|2,0:0|0:0,0:0:0:0:
98,61,19751,2,0,P|160:78|222:50,1,110,8|2,0:0|0:0,0:0:0:0:
250,39,20257,1,8,0:0:0:0:
348,88,20594,5,2,0:0:0:0:
454,61,20931,2,0,P|460:115|454:169,1,110,8|0,0:0|0:0,0:0:0:0:
437,222,21437,2,0,L|442:282,1,55,2|8,0:0|0:0,0:0:0:0:
363,353,21942,2,0,L|240:342,1,110,2|8,0:0|0:0,0:0:0:0:
235,290,22448,2,0,P|250:225|238:169,1,110,8|2,0:0|0:0,0:0:0:0:
225,131,22953,1,8,0:0:0:0:
131,72,23291,5,2,0:0:0:0:
36,133,23628,2,0,L|45:206,1,55,8|0,0:0|0:0,0:0:0:0:
56,241,23965,2,0,P|104:256|182:234,1,110,0|8,0:0|0:0,0:0:0:0:
269,225,24639,2,0,L|390:238,1,110,2|8,0:0|0:0,0:0:0:0:
433,240,25144,2,0,P|448:179|432:125,1,110,10|2,0:0|0:0,0:0:0:0:
417,82,25650,1,8,0:0:0:0:
417,82,25819,6,0,L|299:96,1,110,4|2,0:0|0:0,0:0:0:0:
256,75,26324,2,0,L|265:1,2,55,2|2|8,0:0|0:0|0:0,0:0:0:0:
164,136,26998,1,8,0:0:0:0:
164,136,27167,2,0,L|176:261,1,110,4|2,0:0|0:0,0:0:0:0:
139,287,27673,2,0,L|130:354,2,55,2|2|8,0:0|0:0|0:0,0:0:0:0:
350,348,28684,5,4,0:0:0:0:
442,288,29021,2,0,L|437:212,1,55,2|0,0:0|0:0,0:0:0:0:
399,193,29358,2,0,P|349:171|281:186,1,110,0|8,0:0|0:0,0:0:0:0:
200,232,30032,2,0,L|85:224,1,110,2|2,0:0|0:0,0:0:0:0:
54,182,30538,2,0,P|43:132|59:68,1,110,8|2,0:0|0:0,0:0:0:0:
85,29,31043,1,8,0:0:0:0:
187,69,31380,5,2,0:0:0:0:
288,27,31717,2,0,L|401:38,1,110,8|0,0:0|0:0,0:0:0:0:
436,76,32223,2,0,L|431:148,1,55,2|8,0:0|0:0,0:0:0:0:
409,238,32729,2,0,P|356:221|296:226,1,110,2|8,3:2|3:2,0:0:0:0:
258,257,33234,2,0,P|205:274|145:269,1,110,2|2,0:0|0:0,0:0:0:0:
97,260,33740,1,8,3:2:0:0:
25,176,34077,5,2,0:0:0:0:
68,75,34414,2,0,L|131:64,1,55,8|0,0:0|0:0,0:0:0:0:
177,60,34751,2,0,L|192:177,1,110,0|8,0:0|0:0,0:0:0:0:
258,257,35425,2,0,P|353:281|386:273,1,110,2|8,0:0|0:0,0:0:0:0:
405,244,35931,2,0,P|378:149|354:125,1,110,2|0,0:0|0:0,0:0:0:0:
340,97,36437,1,8,0:0:0:0:
236,60,36774,6,0,L|107:49,2,110,2|8|0,0:0|0:0|0:0,0:0:0:0:
236,114,37616,2,0,L|231:189,1,55,2|8,0:0|0:0,0:0:0:0:
224,223,37953,2,0,P|178:245|106:234,1,110,6|2,0:0|0:0,0:0:0:0:
73,215,38459,2,0,L|67:153,2,55,2|2|8,0:0|0:0|3:2,0:0:0:0:
90,323,39133,1,8,3:2:0:0:
190,368,39470,6,0,P|243:377|312:348,1,110,4|0,3:2|0:0,0:0:0:0:
384,295,40144,2,0,L|376:181,1,110,2|8,0:0|0:0,0:0:0:0:
314,94,40819,2,0,P|366:75|421:86,2,110,0|0|2,0:0|0:0|0:0,0:0:0:0:
229,164,41830,1,8,0:0:0:0:
145,235,42167,6,0,P|93:254|38:243,1,110,2|0,0:0|0:0,0:0:0:0:
0,205,42673,2,0,B|11:159|11:159|-30:104|16:35,1,165,2|8,0:0|0:0,0:0:0:0:
115,25,43515,2,0,P|167:25|221:50,1,110
260,84,44021,2,0,P|309:106|364:107,1,110,2|8,0:0|0:0,0:0:0:0:
417,96,44526,1,8,0:0:0:0:
487,181,44864,6,0,L|478:300,1,110,4|0,0:0|0:0,0:0:0:0:
385,349,45538,2,0,P|327:351|281:323,1,110,2|8,0:0|0:0,0:0:0:0:
198,255,46212,2,0,L|82:266,2,110,0|0|2,0:0|0:0|0:0,0:0:0:0:
263,166,47223,1,8,0:0:0:0:
325,66,47560,6,0,P|368:53|443:72,1,110,4|8,0:0|0:0,0:0:0:0:
479,90,48066,2,0,L|470:167,1,55,2|8,0:0|0:0,0:0:0:0:
463,198,48403,1,2,0:0:0:0:
397,285,48740,2,0,P|331:306|277:295,1,110,4|2,0:0|0:0,0:0:0:0:
238,287,49246,1,8,0:0:0:0:
238,287,49414,2,0,L|251:172,1,110,2|2,0:0|0:0,0:0:0:0:
224,128,49920,1,4,0:0:0:0:
300,48,50257,6,0,P|349:41|417:69,1,110,4|8,0:0|0:0,0:0:0:0:
482,138,50931,2,0,L|474:198,1,55,8|2,0:0|0:0,0:0:0:0:
463,246,51268,1,8,0:0:0:0:
354,225,51605,2,0,P|295:215|234:240,1,110,4|8,0:0|0:0,0:0:0:0:
198,254,52111,2,0,P|139:264|78:239,1,110,6|2,0:0|0:0,0:0:0:0:
61,203,52616,2,0,L|54:130,1,55,8|8,0:0|0:0,0:0:0:0:
85,102,52953,6,0,L|209:111,1,110,2|8,0:0|0:0,0:0:0:0:
304,122,53628,2,0,L|313:194,1,55,8|2,0:0|0:0,0:0:0:0:
322,230,53965,1,8,0:0:0:0:
425,268,54302,2,0,L|447:152,1,110,4|8,0:0|0:0,0:0:0:0:
409,123,54807,2,0,P|339:110|293:128,1,110,6|2,0:0|0:0,0:0:0:0:
254,146,55313,1,8,0:0:0:0:
254,146,55482,6,0,L|131:130,1,110,4|2,0:0|0:0,0:0:0:0:
90,128,55987,1,8,0:0:0:0:
51,230,56324,2,0,L|-16:252,2,55,2|2|8,0:0|0:0|0:0,0:0:0:0:
99,255,56830,2,0,P|142:276|216:267,1,110,4|2,0:0|0:0,0:0:0:0:
253,252,57335,2,0,P|328:236|372:251,1,110,8|8,0:0|0:0,0:0:0:0:
413,248,57841,2,0,L|427:186,1,55,2|8,0:0|0:0,0:0:0:0:
438,140,58178,1,6,0:0:0:0:
256,192,58262,12,4,59526,0:0:0:0:
162,81,61043,6,0,P|215:60|287:80,1,110,4|8,3:2|3:2,0:0:0:0:
314,93,61549,1,0,0:0:0:0:
314,93,61717,2,0,L|432:80,1,110,2|8,3:2|3:2,0:0:0:0:
465,116,62223,1,0,0:0:0:0:
465,116,62392,2,0,L|455:190,1,55,2|0,3:2|0:0,0:0:0:0:
441,223,62729,2,0,L|455:294,1,55,8|0,3:2|0:0,0:0:0:0:
405,304,63066,2,0,P|333:329|292:315,1,110,2|8,3:2|3:2,0:0:0:0:
212,254,63740,6,0,L|97:266,1,110,4|8,3:2|3:2,0:0:0:0:
56,235,64246,1,0,0:0:0:0:
56,235,64414,2,0,P|46:157|63:108,1,110,2|8,3:2|3:2,0:0:0:0:
79,79,64920,1,0,0:0:0:0:
79,79,65088,2,0,L|157:64,1,55,2|0,3:2|0:0,0:0:0:0:
179,98,65425,2,0,L|241:112,1,55,8|0,3:2|0:0,0:0:0:0:
280,82,65762,2,0,P|352:64|406:86,1,110,2|8,3:2|3:2,0:0:0:0:
459,154,66437,6,0,L|445:274,1,110,6|8,0:0|0:0,0:0:0:0:
349,314,67111,2,0,L|336:383,2,55,2|0|8,3:2|0:0|3:2,0:0:0:0:
317,269,67616,2,0,L|297:153,1,110,0|0,0:0|0:0,0:0:0:0:
279,108,68122,2,0,P|231:90|154:96,1,110,8|2,3:2|3:2,0:0:0:0:
84,155,68796,2,0,L|96:231,1,55,8|0,3:2|0:0,0:0:0:0:
103,263,69133,6,0,P|151:281|228:275,1,110,2|8,3:2|3:2,0:0:0:0:
301,220,69807,2,0,L|413:209,1,110,2|8,3:2|3:2,0:0:0:0:
437,161,70313,2,0,P|450:105|427:45,1,110,4|0,0:0|0:0,0:0:0:0:
397,15,70819,1,8,3:2:0:0:
300,67,71156,2,0,L|191:61,1,110,2|8,3:2|3:2,0:0:0:0:
135,60,71661,1,0,0:0:0:0:
135,60,71830,6,0,P|125:115|143:187,1,110,4|8,3:2|3:2,0:0:0:0:
148,226,72335,1,0,0:0:0:0:
148,226,72504,2,0,P|201:215|256:219,1,110,2|8,3:2|3:2,0:0:0:0:
309,234,73010,1,0,0:0:0:0:
309,234,73178,2,0,L|371:209,1,55,2|0,3:2|0:0,0:0:0:0:
387,165,73515,2,0,L|459:188,1,55,8|0,3:2|0:0,0:0:0:0:
486,210,73852,2,0,P|496:289|473:335,1,110,2|8,3:2|3:2,0:0:0:0:
386,363,74526,6,0,L|262:351,1,110,4|8,3:2|3:2,0:0:0:0:
221,344,75032,1,0,0:0:0:0:
221,344,75201,2,0,P|233:278|216:226,1,110,2|8,3:2|3:2,0:0:0:0:
189,193,75706,1,0,0:0:0:0:
189,193,75875,2,0,L|196:126,1,55,2|0,3:2|0:0,0:0:0:0:
148,108,76212,2,0,L|138:33,1,55,8|0,3:2|0:0,0:0:0:0:
184,19,76549,2,0,L|303:29,1,110,2|8,3:2|3:2,0:0:0:0:
401,47,77223,6,0,P|412:109|397:170,1,110,6|8,0:0|3:2,0:0:0:0:
380,204,77729,1,0,0:0:0:0:
380,204,77897,2,0,L|253:214,1,110,2|8,3:2|3:2,0:0:0:0:
215,215,78403,1,0,0:0:0:0:
215,215,78571,2,0,P|161:197|104:210,1,110,2|8,3:2|3:2,0:0:0:0:
63,236,79077,1,0,0:0:0:0:
63,236,79246,2,0,B|29:133|29:133|58:66,1,165,6|0,0:0|0:0,0:0:0:0:
86,38,79920,6,0,P|146:27|208:54,1,110,6|8,0:0|3:2,0:0:0:0:
274,114,80594,2,0,P|334:126|388:112,1,110,2|8,3:2|3:2,0:0:0:0:
430,91,81100,1,2,0:0:0:0:
430,91,81268,2,0,L|419:219,1,110,8|8,3:2|3:2,0:0:0:0:
414,255,81774,1,8,0:0:0:0:
414,255,81942,2,0,P|343:245|293:266,1,110,8|8,3:2|3:2,0:0:0:0:
260,285,82448,1,8,0:0:0:0:
163,231,82785,6,0,P|137:157|155:110,1,110,4|0,0:0|0:0,0:0:0:0:
168,79,83291,1,8,3:2:0:0:
168,79,83459,2,0,L|243:94,1,55,0|8,0:0|3:2,0:0:0:0:
271,65,83796,2,0,P|326:42|398:56,1,110,4|2,0:0|0:0,0:0:0:0:
428,60,84302,1,8,3:2:0:0:
428,60,84470,2,0,L|422:189,1,110,2|8,0:0|0:0,0:0:0:0:
419,224,84976,1,8,3:2:0:0:
189,256,90706,5,4,0:0:0:0:
209,147,91043,2,0,P|282:144|331:167,1,110,2|2,0:0|0:0,0:0:0:0:
417,197,91717,2,0,L|407:259,1,55,2|0,0:0|0:0,0:0:0:0:
385,302,92055,2,0,P|332:318|278:311,1,110,2|2,0:0|0:0,0:0:0:0:
227,290,92560,2,0,L|98:303,1,110,2|2,0:0|0:0,0:0:0:0:
64,285,93066,1,2,0:0:0:0:
38,177,93403,5,2,0:0:0:0:
84,77,93740,2,0,L|207:86,1,110,2|0,0:0|0:0,0:0:0:0:
246,99,94246,2,0,L|235:160,1,55,2|2,0:0|0:0,0:0:0:0:
276,255,94751,2,0,P|338:261|396:229,1,110,2|2,0:0|0:0,0:0:0:0:
426,211,95257,2,0,L|416:95,1,110,2|2,0:0|0:0,0:0:0:0:
409,46,95762,1,2,0:0:0:0:
318,109,96100,5,2,0:0:0:0:
228,173,96437,2,0,L|236:253,1,55,2|0,0:0|0:0,0:0:0:0:
245,281,96773,2,0,P|296:298|362:290,1,110,2|2,0:0|0:0,0:0:0:0:
453,253,97448,2,0,L|442:132,1,110,2|2,0:0|0:0,0:0:0:0:
436,89,97953,2,0,P|362:71|311:97,1,110,2|2,0:0|0:0,0:0:0:0:
283,106,98459,1,2,0:0:0:0:
283,106,98628,6,0,L|164:102,1,110,4|2,0:0|0:0,0:0:0:0:
127,71,99133,2,0,L|52:68,2,55,2|2|8,0:0|0:0|0:0,0:0:0:0:
211,213,99976,2,0,L|92:217,1,110,4|2,0:0|0:0,0:0:0:0:
55,248,100481,2,0,L|-20:251,2,55,2|2|8,0:0|0:0|0:0,0:0:0:0:
256,337,101493,5,4,0:0:0:0:
361,306,101830,2,0,L|376:249,1,55,2|0,0:0|0:0,0:0:0:0:
341,209,102167,2,0,L|329:90,1,110,0|8,0:0|0:0,0:0:0:0:
238,38,102841,2,0,P|174:37|117:60,1,110,2|2,0:0|0:0,0:0:0:0:
85,83,103347,2,0,L|103:208,1,110,8|2,0:0|0:0,0:0:0:0:
116,244,103852,1,8,0:0:0:0:
220,210,104189,5,2,0:0:0:0:
323,171,104526,2,0,P|386:154|446:175,1,110,8|0,0:0|0:0,0:0:0:0:
479,185,105032,2,0,L|471:251,1,55,2|8,0:0|0:0,0:0:0:0:
422,337,105538,2,0,L|307:330,1,110,2|8,3:2|3:2,0:0:0:0:
267,297,106043,2,0,P|189:282|146:297,1,110,2|2,0:0|0:0,0:0:0:0:
112,315,106549,1,8,3:2:0:0:
87,207,106886,5,2,0:0:0:0:
68,98,107223,2,0,L|131:81,1,55,8|0,0:0|0:0,0:0:0:0:
165,50,107560,2,0,P|223:69|288:59,1,110,0|8,0:0|0:0,0:0:0:0:
377,38,108234,2,0,L|362:166,1,110,2|8,0:0|0:0,0:0:0:0:
406,182,108740,2,0,L|421:310,1,110,2|0,0:0|0:0,0:0:0:0:
379,329,109246,1,8,0:0:0:0:
278,284,109583,6,0,L|144:294,2,110,2|8|0,0:0|0:0|0:0,0:0:0:0:
318,247,110425,2,0,P|322:216|319:182,1,55,2|8,0:0|0:0,0:0:0:0:
306,139,110762,2,0,P|257:117|180:129,1,110,6|2,0:0|0:0,0:0:0:0:
149,135,111268,2,0,L|76:117,2,55,2|2|8,0:0|0:0|3:2,0:0:0:0:
128,242,111942,1,8,3:2:0:0:
111,350,112279,6,0,L|234:362,1,110,4|0,3:2|0:0,0:0:0:0:
276,261,112953,2,0,L|385:253,1,110,2|8,0:0|0:0,0:0:0:0:
472,184,113628,2,0,P|490:132|470:70,2,110,0|0|2,0:0|0:0|0:0,0:0:0:0:
375,131,114639,1,8,0:0:0:0:
281,73,114976,6,0,P|215:47|164:60,1,110,2|0,0:0|0:0,0:0:0:0:
134,87,115482,2,0,B|108:144|140:195|140:195|117:266,1,165,2|8,0:0|0:0,0:0:0:0:
54,329,116324,2,0,P|110:355|172:343,1,110,0|0,0:0|0:0,0:0:0:0:
206,326,116830,2,0,P|234:274|232:212,1,110,2|8,0:0|0:0,0:0:0:0:
224,170,117335,1,8,0:0:0:0:
196,63,117673,6,0,L|309:70,1,110,4|0,0:0|0:0,0:0:0:0:
375,155,118347,2,0,P|361:214|379:276,1,110,2|8,0:0|0:0,0:0:0:0:
478,237,119021,2,0,P|492:296|474:358,2,110,0|0|2,0:0|0:0|0:0,0:0:0:0:
493,128,120032,1,8,0:0:0:0:
407,60,120369,6,0,P|344:57|288:84,1,110,4|8,0:0|0:0,0:0:0:0:
254,103,120875,2,0,L|123:93,1,110,2|2,0:0|0:0,0:0:0:0:
73,178,121549,2,0,P|74:269|86:292,1,110,4|2,0:0|0:0,0:0:0:0:
105,333,122055,1,8,0:0:0:0:
105,333,122223,2,0,L|221:342,1,110,2|2,0:0|0:0,0:0:0:0:
261,312,122729,1,4,0:0:0:0:
220,209,123066,6,0,P|215:151|231:96,1,110,4|8,0:0|0:0,0:0:0:0:
312,31,123740,2,0,L|385:43,1,55,8|2,0:0|0:0,0:0:0:0:
420,50,124077,1,8,0:0:0:0:
494,130,124414,2,0,L|483:247,1,110,4|8,0:0|0:0,0:0:0:0:
447,281,124920,2,0,P|395:300|335:286,1,110,6|2,0:0|0:0,0:0:0:0:
297,258,125425,2,0,L|240:265,1,55,8|8,0:0|0:0,0:0:0:0:
202,226,125762,6,0,P|217:133|210:111,1,110,2|8,0:0|0:0,0:0:0:0:
129,48,126437,2,0,L|72:60,1,55,8|2,0:0|0:0,0:0:0:0:
21,71,126774,1,8,0:0:0:0:
2,179,127111,2,0,B|-10:239|9:299,1,110,4|8,0:0|0:0,0:0:0:0:
27,338,127616,2,0,L|145:347,1,110,6|2,0:0|0:0,0:0:0:0:
182,315,128122,1,8,0:0:0:0:
182,315,128291,6,0,P|243:330|307:311,1,110,4|2,0:0|0:0,0:0:0:0:
337,296,128796,1,8,0:0:0:0:
404,209,129133,2,0,L|466:202,2,55,2|2|8,0:0|0:0|0:0,0:0:0:0:
362,172,129639,2,0,P|293:149|243:156,1,110,4|2,0:0|0:0,0:0:0:0:
208,177,130144,2,0,L|142:184,1,55,8|2,0:0|0:0,0:0:0:0:
97,187,130482,2,0,P|81:124|96:68,1,110,8|8,0:0|0:0,0:0:0:0:
115,32,130987,1,6,0:0:0:0:
256,192,131071,12,4,132335,0:0:0:0:
352,268,133852,6,0,L|238:278,1,110,4|8,3:2|3:2,0:0:0:0:
190,259,134358,1,0,0:0:0:0:
190,259,134526,2,0,P|178:197|188:143,1,110,2|8,3:2|3:2,0:0:0:0:
205,100,135032,1,0,0:0:0:0:
205,100,135201,2,0,L|141:77,1,55,2|0,3:2|0:0,0:0:0:0:
98,80,135538,2,0,L|31:98,1,55,8|0,3:2|0:0,0:0:0:0:
3,130,135875,2,0,P|-9:185|4:247,1,110,2|8,3:2|3:2,0:0:0:0:
80,312,136549,6,0,L|200:292,1,110,4|8,3:2|3:2,0:0:0:0:
245,277,137055,1,0,0:0:0:0:
245,277,137223,2,0,L|380:291,1,110,2|8,3:2|3:2,0:0:0:0:
403,262,137729,1,0,0:0:0:0:
403,262,137897,2,0,L|413:189,1,55,2|0,3:2|0:0,0:0:0:0:
372,167,138234,2,0,L|359:98,1,55,8|0,3:2|0:0,0:0:0:0:
349,59,138571,2,0,P|281:36|225:52,1,110,2|8,3:2|3:2,0:0:0:0:
179,131,139246,6,0,L|188:247,1,110,6|8,0:0|0:0,0:0:0:0:
97,303,139920,2,0,L|91:368,2,55,2|0|8,3:2|0:0|3:2,0:0:0:0:
60,262,140425,1,0,0:0:0:0:
60,262,140594,2,0,L|51:192,1,55,2|0,3:2|0:0,0:0:0:0:
68,154,140931,2,0,L|77:98,1,55,8|0,3:2|0:0,0:0:0:0:
116,61,141268,2,0,P|174:45|229:62,1,110,2|8,3:2|3:2,0:0:0:0:
296,137,141942,6,0,L|432:127,1,110,10|8,3:2|3:2,0:0:0:0:
447,164,142448,2,0,P|456:237|435:289,1,110,0|0,0:0|0:0,0:0:0:0:
414,316,142953,1,8,3:2:0:0:
414,316,143122,2,0,L|298:307,1,110,4|0,0:0|0:0,0:0:0:0:
254,331,143628,1,8,3:2:0:0:
157,278,143965,2,0,L|145:157,1,110,2|8,3:2|3:2,0:0:0:0:
178,124,144470,1,0,0:0:0:0:
178,124,144639,6,0,P|237:137|294:131,1,110,4|8,3:2|3:2,0:0:0:0:
336,110,145144,1,0,0:0:0:0:
336,110,145313,2,0,P|390:106|444:118,1,110,2|8,3:2|3:2,0:0:0:0:
494,140,145819,1,0,0:0:0:0:
494,140,145987,2,0,L|500:207,1,55,2|0,3:2|0:0,0:0:0:0:
470,241,146324,2,0,L|459:303,1,55,8|0,3:2|0:0,0:0:0:0:
409,316,146661,2,0,P|357:338|294:327,1,110,2|8,3:2|3:2,0:0:0:0:
218,264,147335,6,0,L|93:273,1,110,4|8,3:2|3:2,0:0:0:0:
62,241,147841,1,0,0:0:0:0:
62,241,148010,2,0,P|52:164|64:121,1,110,2|8,3:2|3:2,0:0:0:0:
88,87,148515,1,0,0:0:0:0:
88,87,148684,2,0,L|166:72,1,55,2|0,3:2|0:0,0:0:0:0:
179,36,149021,2,0,L|249:46,1,55,8|0,3:2|0:0,0:0:0:0:
274,80,149358,2,0,P|326:74|385:101,1,110,2|8,3:2|3:2,0:0:0:0:
420,197,150032,6,0,L|306:217,1,110,6|8,0:0|3:2,0:0:0:0:
258,229,150538,1,0,0:0:0:0:
258,229,150706,2,0,P|185:207|137:222,1,110,2|8,3:2|3:2,0:0:0:0:
100,227,151212,1,0,0:0:0:0:
100,227,151380,2,0,L|83:111,1,110,2|8,3:2|3:2,0:0:0:0:
110,69,151886,1,0,0:0:0:0:
110,69,152055,2,0,B|156:41|214:34|214:34|266:79,1,165,6|0,0:0|0:0,0:0:0:0:
287,114,152729,6,0,P|276:174|286:233,1,110,6|8,0:0|3:2,0:0:0:0:
369,289,153403,2,0,L|489:275,1,110,2|8,3:2|3:2,0:0:0:0:
494,223,153909,1,2,0:0:0:0:
494,223,154077,2,0,P|509:162|493:112,1,110,4|8,0:0|3:2,0:0:0:0:
465,71,154583,1,8,0:0:0:0:
465,71,154751,2,0,L|346:83,1,110,8|8,3:2|3:2,0:0:0:0:
310,50,155257,1,8,0:0:0:0:
254,144,155594,6,0,P|260:206|250:264,1,110,4|0,0:0|0:0,0:0:0:0:
225,300,156100,1,8,3:2:0:0:
225,300,156268,2,0,L|163:319,1,55,0|8,0:0|3:2,0:0:0:0:
120,298,156605,2,0,P|54:305|8:277,1,110,4|2,0:0|0:0,0:0:0:0:
4,231,157111,1,8,3:2:0:0:
4,231,157279,2,0,L|21:107,1,110,2|8,0:0|0:0,0:0:0:0:
30,68,157785,1,8,3:2:0:0:
135,37,158122,6,0,P|199:27|257:55,1,110,4|0,0:0|0:0,0:0:0:0:
342,83,158796,2,0,L|332:197,1,110,0|0,0:0|0:0,0:0:0:0:
288,225,159302,1,2,0:0:0:0:
288,225,159470,2,0,L|306:341,1,110,4|0,0:0|0:0,0:0:0:0:
259,365,159976,2,0,B|175:392|181:306|80:351,1,165,0|8,0:0|0:0,0:0:0:0:
29,259,160819,6,0,P|85:236|153:246,1,110,4|0,0:0|0:0,0:0:0:0:
237,274,161493,2,0,P|291:275|341:253,1,110,0|0,0:0|0:0,0:0:0:0:
388,226,161998,1,2,0:0:0:0:
388,226,162167,2,0,L|380:109,1,110,4|0,0:0|0:0,0:0:0:0:
346,72,162673,2,0,B|293:35|246:28|246:28|198:70,1,165,0|2,0:0|0:0,0:0:0:0:
140,153,163515,6,0,L|66:143,2,55,4|0|8,0:0|0:0|0:0,0:0:0:0:
204,241,164189,2,0,P|269:243|321:217,1,110,2|8,0:0|0:0,0:0:0:0:
352,190,164695,1,0,0:0:0:0:
352,190,164864,2,0,L|360:120,1,55,4|0,0:0|0:0,0:0:0:0:
392,91,165201,1,8,0:0:0:0:
392,91,165369,2,0,P|482:97|502:182,1,165,0|8,0:0|0:0,0:0:0:0:
494,267,166212,6,0,L|503:333,2,55,4|0|8,0:0|0:0|0:0,0:0:0:0:
398,212,166886,2,0,P|333:204|282:228,1,110,2|8,0:0|0:0,0:0:0:0:
247,251,167392,1,0,0:0:0:0:
247,251,167560,2,0,P|175:278|160:132,1,275,4|2,0:0|0:0,0:0:0:0:
207,107,168571,1,8,0:0:0:0:
116,209,179695,6,0,L|246:223,1,110,2|8,0:0|0:0,0:0:0:0:
321,166,180369,2,0,L|452:149,1,110,0|8,0:0|0:0,0:0:0:0:
501,68,181043,2,0,P|443:45|374:58,1,110,2|8,0:0|0:0,0:0:0:0:
343,65,181549,2,0,B|235:93|235:93|171:76,1,165,0|8,0:0|0:0,0:0:0:0:
129,68,182223,1,0,0:0:0:0:
129,68,182392,6,0,P|121:150|138:189,1,110,2|8,0:0|0:0,0:0:0:0:
148,225,182897,1,0,0:0:0:0:
148,225,183066,2,0,L|274:241,1,110,0|8,0:0|0:0,0:0:0:0:
362,208,183740,2,0,L|436:195,2,55,2|0|8,0:0|0:0|0:0,0:0:0:0:
319,172,184246,2,0,P|302:101|319:53,1,110,0|0,0:0|0:0,0:0:0:0:
347,25,184751,1,8,0:0:0:0:
456,31,185088,6,0,P|469:83|467:147,1,110,6|8,0:0|0:0,0:0:0:0:
455,248,185762,2,0,L|334:259,1,110,8|8,0:0|0:0,0:0:0:0:
290,251,186268,1,0,0:0:0:0:
290,251,186437,2,0,L|211:259,2,55,2|0|8,0:0|0:0|0:0,0:0:0:0:
296,196,186942,2,0,P|307:142|291:90,1,110,0|0,0:0|0:0,0:0:0:0:
258,46,187448,1,8,0:0:0:0:
154,82,187785,6,0,L|95:72,1,55,6|0,0:0|0:0,0:0:0:0:
46,88,188122,2,0,P|33:162|44:212,1,110,8|0,0:0|0:0,0:0:0:0:
53,248,188628,1,0,0:0:0:0:
53,248,188796,2,0,L|167:257,1,110,12|6,0:0|0:0,0:0:0:0:
214,259,189302,1,0,0:0:0:0:
214,259,189470,2,0,P|264:246|331:254,1,110,8|8,0:0|0:0,0:0:0:0:
424,211,190144,1,12,0:0:0:0:
426,92,190482,6,0,L|365:83,1,55,6|0,0:0|0:0,0:0:0:0:
315,75,190819,2,0,P|232:95|192:78,1,110,8|8,0:0|0:0,0:0:0:0:
112,39,191493,1,2,0:0:0:0:
74,79,191661,2,0,P|63:137|83:196,1,110,6|8,0:0|0:0,0:0:0:0:
103,233,192167,2,0,L|97:296,1,55,8|8,0:0|0:0,0:0:0:0:
67,333,192504,1,4,0:0:0:0:
245,83,203965,6,0,L|125:96,1,110,4|8,3:2|3:2,0:0:0:0:
92,128,204470,1,0,0:0:0:0:
92,128,204639,2,0,P|81:200|97:249,1,110,2|8,3:2|3:2,0:0:0:0:
114,284,205144,1,0,0:0:0:0:
114,284,205313,2,0,L|186:301,1,55,2|0,3:2|0:0,0:0:0:0:
212,264,205650,2,0,L|271:252,1,55,8|0,3:2|0:0,0:0:0:0:
313,280,205987,2,0,P|363:272|421:289,1,110,2|8,3:2|3:2,0:0:0:0:
506,221,206661,6,0,L|494:109,1,110,4|8,3:2|3:2,0:0:0:0:
454,73,207167,1,0,0:0:0:0:
454,73,207335,2,0,P|383:50|335:67,1,110,2|8,3:2|3:2,0:0:0:0:
306,91,207841,1,0,0:0:0:0:
306,91,208010,2,0,L|319:160,1,55,2|0,3:2|0:0,0:0:0:0:
286,191,208347,2,0,L|280:252,1,55,8|0,3:2|0:0,0:0:0:0:
240,283,208684,2,0,P|161:304|112:287,1,110,2|8,3:2|3:2,0:0:0:0:
34,253,209358,6,0,L|21:135,1,110,6|8,0:0|0:0,0:0:0:0:
102,68,210032,2,0,L|92:7,2,55,2|0|8,3:2|0:0|3:2,0:0:0:0:
147,99,210538,1,0,0:0:0:0:
147,99,210706,2,0,L|160:165,1,55,2|0,3:2|0:0,0:0:0:0:
204,181,211043,2,0,L|195:260,1,55,8|0,3:2|0:0,0:0:0:0:
211,289,211380,2,0,P|271:296|335:266,1,110,2|8,3:2|3:2,0:0:0:0:
395,202,212055,6,0,L|383:82,1,110,10|8,3:2|3:2,0:0:0:0:
340,58,212560,2,0,P|292:44|211:65,1,110,0|0,0:0|0:0,0:0:0:0:
182,74,213066,1,8,3:2:0:0:
182,74,213234,2,0,L|199:195,1,110,4|0,0:0|0:0,0:0:0:0:
175,233,213740,1,8,3:2:0:0:
65,221,214077,2,0,P|48:163|54:108,1,110,2|8,3:2|3:2,0:0:0:0:
72,66,214583,1,0,0:0:0:0:
72,66,214751,6,0,L|200:75,1,110,4|8,3:2|3:2,0:0:0:0:
227,104,215257,1,0,0:0:0:0:
227,104,215425,2,0,P|278:121|338:108,1,110,2|8,3:2|3:2,0:0:0:0:
384,94,215931,1,0,0:0:0:0:
384,94,216100,2,0,L|454:110,1,55,2|0,3:2|0:0,0:0:0:0:
474,147,216437,2,0,L|467:222,1,55,8|0,3:2|0:0,0:0:0:0:
455,255,216774,2,0,P|403:281|343:270,1,110,2|8,3:2|3:2,0:0:0:0:
251,233,217448,6,0,L|140:246,1,110,4|8,3:2|3:2,0:0:0:0:
94,218,217953,1,0,0:0:0:0:
94,218,218122,2,0,P|82:154|91:107,1,110,2|8,3:2|3:2,0:0:0:0:
114,61,218628,1,0,0:0:0:0:
114,61,218796,2,0,L|185:42,1,55,2|0,3:2|0:0,0:0:0:0:
207,83,219133,2,0,L|268:98,1,55,8|0,3:2|0:0,0:0:0:0:
310,72,219470,2,0,P|392:57|434:72,1,110,2|8,3:2|3:2,0:0:0:0:
482,151,220144,6,0,L|363:189,1,110,6|8,0:0|3:2,0:0:0:0:
324,199,220650,1,0,0:0:0:0:
324,199,220819,2,0,P|262:191|201:215,1,110,2|8,3:2|3:2,0:0:0:0:
173,237,221324,1,0,0:0:0:0:
173,237,221493,2,0,L|103:226,1,55,2|0,3:2|0:0,0:0:0:0:
77,192,221830,2,0,L|62:125,1,55,8|0,3:2|0:0,0:0:0:0:
94,91,222167,2,0,B|132:73|132:73|211:92|211:92|268:72,1,165,6|0,0:0|0:0,0:0:0:0:
301,98,222841,6,0,L|291:222,1,110,6|8,0:0|3:2,0:0:0:0:
339,307,223515,2,0,P|410:306|453:279,1,110,2|8,3:2|3:2,0:0:0:0:
488,256,224021,1,2,0:0:0:0:
488,256,224189,2,0,L|474:139,1,110,8|8,3:2|3:2,0:0:0:0:
465,92,224695,1,8,0:0:0:0:
465,92,224864,2,0,P|393:69|338:81,1,110,8|8,3:2|3:2,0:0:0:0:
306,85,225369,1,8,0:0:0:0:
226,160,225706,6,0,L|236:272,1,110,4|0,0:0|0:0,0:0:0:0:
193,304,226212,1,8,3:2:0:0:
193,304,226380,2,0,L|128:320,1,55,0|8,0:0|3:2,0:0:0:0:
88,296,226717,2,0,P|68:247|78:184,1,110,4|2,0:0|0:0,0:0:0:0:
116,153,227223,1,8,3:2:0:0:
116,153,227392,2,0,L|246:161,1,110,2|8,0:0|0:0,0:0:0:0:
269,126,227897,1,8,3:2:0:0:
320,28,228234,6,0,P|374:28|443:65,1,110,2|2,3:2|0:0,0:0:0:0:
464,88,228740,1,0,0:0:0:0:
464,88,228909,2,0,L|459:212,1,110,2|10,0:0|0:0,0:0:0:0:
411,296,229583,2,0,P|364:308|294:289,1,110,2|2,3:2|0:0,0:0:0:0:
253,276,230088,1,0,0:0:0:0:
253,276,230257,2,0,P|200:263|146:275,1,110,2|10,0:0|0:0,0:0:0:0:
62,204,230931,6,0,L|78:86,1,110,2|0,3:2|0:0,0:0:0:0:
113,53,231437,1,0,0:0:0:0:
113,53,231605,2,0,P|183:38|240:56,1,110,2|10,0:0|0:0,0:0:0:0:
298,122,232279,2,0,L|288:236,1,110,2|0,3:2|0:0,0:0:0:0:
320,276,232785,1,0,0:0:0:0:
320,276,232953,2,0,P|380:294|437:282,1,110,2|8,0:0|0:0,0:0:0:0:
486,194,233628,6,0,P|497:138|483:82,1,110,2|2,3:2|0:0,0:0:0:0:
390,32,234302,2,0,P|336:50|294:90,1,110,2|2,3:2|0:0,0:0:0:0:
247,183,234976,2,0,B|235:246|195:278|195:278|139:255|99:202,1,220,2|2,3:2|0:0,0:0:0:0:
56,116,235987,2,0,P|109:103|174:125,1,110,4|0,0:0|0:0,0:0:0:0:
