osu file format v14

[General]
AudioFilename: himen.mp3
AudioLeadIn: 0
PreviewTime: 60285
Countdown: 0
SampleSet: Soft
StackLeniency: 0.4
Mode: 0
LetterboxInBreaks: 0
WidescreenStoryboard: 0

[Editor]
Bookmarks: 193178
DistanceSpacing: 1.5
BeatDivisor: 4
GridSize: 16
TimelineZoom: 1.6

[Metadata]
Title:Koi no Hime Hime Pettanko
TitleUnicode:恋のヒメヒメぺったんこ
Artist:*namirin
ArtistUnicode:*なみりん
Creator:sahuang
Version:Sweet Sweet Angel
Source:弱虫ペダル
Tags:My Angel Azusa pata-mon joker left beomsan enon utaite nami なみ nnd nico nico douga ニコニコ動画 Tamura Yukari 田村 ゆかり Yowapeda Pedal
BeatmapID:1443674
BeatmapSetID:613083

[Difficulty]
HPDrainRate:6
CircleSize:4
OverallDifficulty:9
ApproachRate:9.3
SliderMultiplier:1.7
SliderTickRate:1

[Events]
//Background and Video events
0,0,"hime.jpg",0,0
//Break Periods
2,193178,203291
//Storyboard Layer 0 (Background)
//Storyboard Layer 1 (Fail)
//Storyboard Layer 2 (Pass)
//Storyboard Layer 3 (Foreground)
//Storyboard Sound Samples

[TimingPoints]
1718,337.078651685393,4,2,1,50,1,0
1718,-125,4,2,1,50,0,0
6437,-166.666666666667,4,2,1,50,0,0
6689,-166.666666666667,4,2,1,5,0,0
6774,-80,4,2,1,50,0,0
7026,-80,4,2,1,5,0,0
7111,-100,4,2,2,60,0,0
16549,-142.857142857143,4,2,2,50,0,0
17307,-142.857142857143,4,2,2,5,0,0
17392,-142.857142857143,4,2,2,50,0,0
17897,-125,4,2,2,50,0,0
21942,-100,4,2,2,60,0,0
23291,-125,4,2,2,60,0,0
24639,-100,4,2,2,60,0,0
28347,-83.3333333333333,4,2,2,60,0,0
28600,-83.3333333333333,4,2,2,5,0,0
28684,-125,4,2,2,60,0,0
32729,-100,4,2,2,60,0,0
34077,-125,4,2,2,60,0,0
35425,-100,4,2,2,60,0,0
37953,-90.9090909090909,4,2,2,60,0,0
38796,-142.857142857143,4,2,2,50,0,0
47560,-117.647058823529,4,2,2,50,0,0
48740,-100,4,2,2,60,0,0
58178,-83.3333333333333,4,2,2,70,0,0
60369,-200,4,2,2,40,0,0
61043,-83.3333333333333,4,2,2,80,0,1
71156,-83.3333333333333,4,2,2,80,0,0
71830,-83.3333333333333,4,2,2,80,0,1
77223,-90.9090909090909,4,2,2,80,0,1
79246,-111.111111111111,4,2,2,80,0,1
79920,-83.3333333333333,4,2,2,80,0,1
83796,-71.4285714285714,4,2,2,80,0,1
85313,-125,4,2,1,60,0,0
90032,-200,4,2,1,50,0,0
90369,-83.3333333333333,4,2,1,60,0,0
90622,-83.3333333333333,4,2,1,5,0,0
90706,-133.333333333333,4,2,1,40,0,0
98628,-117.647058823529,4,2,1,60,0,0
101156,-153.846153846153,4,2,1,60,0,0
101409,-153.846153846153,4,2,1,5,0,0
101493,-125,4,2,2,60,0,0
102841,-100,4,2,2,60,0,0
104189,-125,4,2,2,60,0,0
105538,-100,4,2,2,60,0,0
106886,-125,4,2,2,60,0,0
108234,-100,4,2,2,60,0,0
110173,-100,4,2,2,5,0,0
110257,-100,4,2,2,60,0,0
111605,-142.857142857143,4,2,2,60,0,0
120369,-100,4,2,2,60,0,0
120622,-100,4,2,2,5,0,0
120706,-100,4,2,2,60,0,0
121549,-83.3333333333333,4,2,2,60,0,0
133178,-200,4,2,2,60,0,0
133852,-83.3333333333333,4,2,2,60,0,1
139246,-100,4,2,2,60,0,1
141942,-83.3333333333333,4,2,2,60,0,1
143965,-83.3333333333333,4,2,2,60,0,0
144639,-83.3333333333333,4,2,2,60,0,1
148684,-100,4,2,2,60,0,1
152729,-83.3333333333333,4,2,2,60,0,1
156605,-71.4285714285714,4,2,2,60,0,1
158122,-125,4,2,2,60,0,0
162925,-125,4,2,2,5,0,0
163010,-125,4,2,2,60,0,0
163515,-100,4,2,2,60,0,0
167560,-133.333333333333,4,2,2,60,0,0
168319,-133.333333333333,4,2,2,5,0,0
168403,-133.333333333333,4,2,2,60,0,0
168909,-100,4,2,2,60,0,0
178178,-83.3333333333333,4,2,2,60,0,0
179695,-90.9090909090909,4,2,2,60,0,0
203965,-76.9230769230769,4,2,2,60,0,1
209358,-90.9090909090909,4,2,2,60,0,1
213234,-83.3333333333333,4,2,2,60,0,1
214077,-76.9230769230769,4,2,2,60,0,0
214751,-83.3333333333333,4,2,2,60,0,1
220144,-90.9090909090909,4,2,2,60,0,1
222167,-100,4,2,2,60,0,1
226717,-71.4285714285714,4,2,2,60,0,1
228234,-125,4,2,1,40,0,0
232279,-111.111111111111,4,2,1,40,0,0
233628,-100,4,2,1,40,0,0
235987,-66.6666666666667,4,2,1,40,0,0
236324,-66.6666666666667,4,2,1,5,0,0

[Colours]
Combo1 : 255,168,125
Combo2 : 255,128,128
Combo3 : 158,158,207
Combo4 : 255,108,255

[HitObjects]
361,204,1718,5,2,0:0:0:0:
448,151,1886,1,0,0:0:0:0:
448,151,1970,1,0,0:0:0:0:
448,151,2055,1,2,0:0:0:0:
450,253,2223,1,0,0:0:0:0:
361,204,2392,2,0,P|346:156|351:120,1,68,2|0,0:0|0:0,0:0:0:0:
232,43,2729,2,0,L|305:49,1,68,10|0,0:0|0:0,0:0:0:0:
196,164,3066,5,2,0:0:0:0:
249,251,3234,1,0,0:0:0:0:
249,251,3319,1,0,0:0:0:0:
249,251,3403,1,2,0:0:0:0:
147,253,3571,1,0,0:0:0:0:
196,164,3740,2,0,P|244:149|280:154,1,68,2|0,0:0|0:0,0:0:0:0:
407,274,4077,2,0,L|325:272,1,68,10|0,0:0|0:0,0:0:0:0:
442,134,4414,5,2,0:0:0:0:
355,187,4583,1,0,0:0:0:0:
355,187,4667,1,0,0:0:0:0:
355,187,4751,1,2,0:0:0:0:
353,85,4920,1,0,0:0:0:0:
353,85,5004,1,0,0:0:0:0:
353,85,5088,2,0,P|318:72|286:68,1,68,2|0,0:0|0:0,0:0:0:0:
146,153,5425,2,0,P|180:149|212:137,1,68,10|0,0:0|0:0,0:0:0:0:
60,99,5762,5,2,0:0:0:0:
53,201,5931,1,0,0:0:0:0:
137,258,6100,1,10,0:0:0:0:
228,213,6268,1,0,0:0:0:0:
312,270,6437,6,0,P|339:258|397:259,1,76.4999976654053,2|0,0:0|0:0,0:0:0:0:
425,325,6774,6,0,B|411:293|425:260|425:260|415:235|415:235|429:206|417:166,1,159.375,2|0,0:1|0:0,0:0:0:0:
385,83,7111,6,0,P|358:35|242:38,1,170,4|0,0:0|0:0,0:0:0:0:
312,270,7785,2,0,L|301:100,1,170,0|0,0:0|0:0,0:0:0:0:
224,219,8291,1,2,0:0:0:0:
372,186,8459,2,0,P|296:169|221:223,1,170,4|0,0:0|0:0,0:0:0:0:
249,345,8965,2,0,P|325:362|400:308,1,170,0|0,0:0|0:0,0:0:0:0:
223,218,9470,1,8,0:0:0:0:
357,141,9639,1,2,0:0:0:0:
223,218,9807,6,0,B|141:242|141:242|54:229,1,170,4|0,0:0|0:0,0:0:0:0:
296,62,10482,2,0,P|358:55|336:147,1,170,0|0,0:0|0:0,0:0:0:0:
212,124,10987,1,2,0:0:0:0:
309,284,11156,2,0,B|364:274|364:274|421:299|421:299|473:286,1,170,4|0,0:0|0:0,0:0:0:0:
261,200,11661,2,0,L|272:372,1,170,0|8,0:0|0:0,0:0:0:0:
82,276,12167,1,2,0:0:0:0:
78,265,12251,1,2,0:0:0:0:
77,255,12335,1,2,0:0:0:0:
76,244,12420,1,2,0:0:0:0:
77,234,12504,5,4,0:0:0:0:
187,124,12673,1,0,0:0:0:0:
227,269,12841,1,8,0:0:0:0:
196,131,13010,1,0,0:0:0:0:
196,131,13094,1,0,0:0:0:0:
196,131,13178,2,0,L|302:118,1,85,2|0,0:0|0:0,0:0:0:0:
440,119,13515,1,8,0:0:0:0:
378,268,13684,1,0,0:0:0:0:
367,271,13768,1,0,0:0:0:0:
357,272,13852,6,0,P|304:272|265:247,1,85,4|0,0:0|0:0,0:0:0:0:
158,112,14189,2,0,L|167:215,1,85,8|0,0:0|0:0,0:0:0:0:
173,234,14442,1,0,0:0:0:0:
173,234,14526,1,0,0:0:0:0:
318,320,14695,1,0,0:0:0:0:
295,160,14864,2,0,P|348:160|387:185,1,85,8|0,0:0|0:0,0:0:0:0:
318,320,15201,5,4,0:0:0:0:
409,192,15369,1,0,0:0:0:0:
236,239,15538,1,8,0:0:0:0:
404,314,15706,1,0,0:0:0:0:
415,318,15791,1,0,0:0:0:0:
425,319,15875,1,2,0:0:0:0:
436,320,15959,1,0,0:0:0:0:
446,319,16043,1,0,0:0:0:0:
480,154,16212,2,0,P|478:109|453:66,1,85,8|0,0:0|0:0,0:0:0:0:
276,150,16549,6,0,B|229:172|169:150|169:150|153:195|153:195|110:168|31:189,1,267.749991828919,4|0,0:0|0:0,0:0:0:0:
23,205,17392,1,2,0:0:0:0:
223,61,17560,1,8,0:0:0:0:
145,350,17897,5,4,0:0:0:0:
145,350,18234,2,0,L|220:339,1,68,8|0,0:0|0:0,0:0:0:0:
342,252,18571,2,0,P|346:219|333:183,1,68,2|0,0:0|0:0,0:0:0:0:
140,201,18909,2,0,P|136:234|146:266,1,68,8|0,0:0|0:0,0:0:0:0:
243,222,19246,5,2,0:0:0:0:
243,222,19583,1,2,0:0:0:0:
357,360,19751,2,0,P|376:317|300:312,1,136,8|2,0:0|0:0,0:0:0:0:
404,220,20257,2,0,P|357:203|319:207,1,68,8|0,0:0|0:0,0:0:0:0:
190,310,20594,5,2,0:0:0:0:
173,189,20762,1,0,0:0:0:0:
75,262,20931,2,0,L|3:256,1,68,8|0,0:0|0:0,0:0:0:0:
173,189,21268,2,0,L|214:129,1,68,0|2,0:0|0:0,0:0:0:0:
190,310,21605,2,0,L|220:375,1,68,8|0,0:0|0:0,0:0:0:0:
75,262,21942,6,0,P|27:236|69:144,1,170,2|8,0:0|0:0,0:0:0:0:
238,196,22448,2,0,B|287:207|287:207|418:171,1,170,8|2,0:0|0:0,0:0:0:0:
248,79,22953,1,8,0:0:0:0:
402,175,23122,1,0,0:0:0:0:
253,249,23291,6,0,L|167:243,1,68,2|0,0:0|0:0,0:0:0:0:
161,35,23628,2,0,P|155:69|165:123,1,68,8|0,0:0|0:0,0:0:0:0:
253,249,23965,1,0,0:0:0:0:
281,130,24133,1,2,0:0:0:0:
130,199,24302,1,8,0:0:0:0:
281,130,24470,1,0,0:0:0:0:
201,316,24639,6,0,B|253:326|253:326|316:303|316:303|377:320,1,170,2|8,0:0|0:0,0:0:0:0:
485,125,25144,2,0,B|433:115|433:115|370:138|370:138|309:121,1,170,10|2,0:0|0:0,0:0:0:0:
441,205,25650,1,8,0:0:0:0:
366,48,25819,6,0,P|304:35|235:125,1,170,4|2,0:0|0:0,0:0:0:0:
331,255,26324,1,2,0:0:0:0:
321,124,26493,1,2,0:0:0:0:
331,255,26661,1,8,0:0:0:0:
419,108,26830,1,2,0:0:0:0:
243,192,26998,1,8,0:0:0:0:
393,349,27167,6,0,P|461:302|467:221,1,170,4|2,0:0|0:0,0:0:0:0:
266,222,27673,2,0,L|278:324,1,85,2|2,0:0|0:0,0:0:0:0:
347,122,28010,1,8,0:0:0:0:
143,183,28178,1,8,3:2:0:0:
141,193,28262,1,8,3:2:0:0:
139,203,28347,2,0,P|137:116|60:105,1,152.999995330811,8|0,3:2|3:2,0:0:0:0:
93,18,28684,6,0,P|131:22|169:46,1,68,4|0,0:0|0:0,0:0:0:0:
289,205,29021,2,0,P|285:243|261:281,1,68,2|0,0:0|0:0,0:0:0:0:
224,148,29358,1,0,0:0:0:0:
379,116,29526,1,2,0:0:0:0:
224,148,29695,2,0,L|147:142,1,68,8|0,0:0|0:0,0:0:0:0:
330,263,30032,5,2,0:0:0:0:
330,263,30369,1,2,0:0:0:0:
169,294,30538,2,0,L|15:282,1,136,8|2,0:0|0:0,0:0:0:0:
235,245,31043,2,0,P|251:281|247:318,1,68,8|0,0:0|0:0,0:0:0:0:
44,188,31380,6,0,L|48:112,1,68,2|0,0:0|0:0,0:0:0:0:
171,48,31717,1,8,0:0:0:0:
149,207,31886,1,0,0:0:0:0:
74,39,32055,1,0,0:0:0:0:
251,115,32223,1,2,0:0:0:0:
70,155,32392,1,8,0:0:0:0:
171,48,32560,1,0,0:0:0:0:
216,244,32729,6,0,B|295:211|305:270|385:232,1,170,2|8,3:2|3:2,0:0:0:0:
117,232,33234,2,0,P|126:292|215:345,1,170,2|2,0:0|0:0,0:0:0:0:
228,151,33740,1,8,3:2:0:0:
216,244,33909,1,0,0:0:0:0:
403,240,34077,5,2,0:0:0:0:
391,147,34246,1,0,0:0:0:0:
432,61,34414,2,0,P|462:53|507:55,1,68,8|0,0:0|0:0,0:0:0:0:
294,144,34751,2,0,P|258:153|220:149,1,68,0|2,0:0|0:0,0:0:0:0:
74,87,35088,1,8,0:0:0:0:
191,40,35257,1,0,0:0:0:0:
96,196,35425,6,0,B|85:242|85:242|102:368,1,170,2|8,0:0|0:0,0:0:0:0:
329,292,35931,2,0,P|300:240|173:243,1,170,2|0,0:0|0:0,0:0:0:0:
233,317,36437,1,8,0:0:0:0:
432,223,36605,1,2,0:0:0:0:
233,317,36774,5,2,0:0:0:0:
410,334,36942,1,2,0:0:0:0:
305,173,37111,2,0,L|329:291,1,85,8|0,0:0|0:0,0:0:0:0:
165,176,37448,2,0,L|189:58,1,85,0|2,0:0|0:0,0:0:0:0:
305,173,37785,1,8,0:0:0:0:
73,320,37953,6,0,B|107:224|42:231|73:137,1,187.000005706787,6|2,0:0|0:0,0:0:0:0:
269,94,38459,1,2,0:0:0:0:
137,55,38628,1,2,0:0:0:0:
269,94,38796,6,0,L|321:106,3,29.7499990921021,8|0|0|0,3:2|3:2|3:2|0:0,0:0:0:0:
373,42,39133,1,8,3:2:0:0:
387,36,39217,1,0,3:2:0:0:
403,33,39302,1,0,3:2:0:0:
419,33,39386,1,0,3:2:0:0:
434,36,39470,6,0,L|426:169,1,118.999996368408,4|0,3:2|0:0,0:0:0:0:
338,276,39976,1,0,0:0:0:0:
338,276,40144,2,0,P|288:258|220:275,1,118.999996368408,2|8,0:0|0:0,0:0:0:0:
91,182,40650,6,0,P|85:152|92:123,1,59.4999981842042,2|0,0:0|0:0,0:0:0:0:
189,153,40987,2,0,P|199:125|218:103,1,59.4999981842042,2|0,0:0|0:0,0:0:0:0:
289,173,41324,1,2,0:0:0:0:
289,173,41493,2,0,P|337:183|421:158,1,118.999996368408,2|8,0:0|0:0,0:0:0:0:
189,153,42167,6,0,B|182:191|182:191|193:233|193:233|187:270,1,118.999996368408,2|0,0:0|0:0,0:0:0:0:
87,274,42673,1,2,0:0:0:0:
87,274,42841,2,0,B|94:236|94:236|83:194|83:194|89:157,1,118.999996368408,2|8,0:0|0:0,0:0:0:0:
189,153,43347,5,2,0:0:0:0:
204,159,43684,1,2,0:0:0:0:
219,165,44021,1,2,0:0:0:0:
317,110,44189,5,2,0:0:0:0:
317,110,44358,1,8,0:0:0:0:
392,226,44526,1,8,0:0:0:0:
317,110,44695,1,2,0:0:0:0:
298,296,44864,6,0,L|165:288,1,118.999996368408,4|0,0:0|0:0,0:0:0:0:
67,224,45369,1,2,0:0:0:0:
67,224,45538,2,0,P|85:174|68:106,1,118.999996368408,2|8,0:0|0:0,0:0:0:0:
169,15,46043,6,0,P|163:45|170:74,1,59.4999981842042,2|0,0:0|0:0,0:0:0:0:
267,44,46380,2,0,P|277:72|296:94,1,59.4999981842042,2|0,0:0|0:0,0:0:0:0:
367,24,46717,1,2,0:0:0:0:
367,24,46886,2,0,P|415:14|491:54,1,118.999996368408,2|8,0:0|0:0,0:0:0:0:
407,131,47392,1,2,0:0:0:0:
471,285,47560,6,0,L|303:292,1,144.500002756119,4|8,0:0|0:0,0:0:0:0:
137,188,48066,1,2,0:0:0:0:
137,188,48150,1,8,0:0:0:0:
137,188,48234,1,8,0:0:0:0:
340,142,48403,1,2,0:0:0:0:
340,142,48487,1,8,0:0:0:0:
340,142,48571,1,8,0:0:0:0:
138,357,48740,6,0,P|132:265|143:147,1,170,4|2,0:0|0:0,0:0:0:0:
370,111,49246,1,8,0:0:0:0:
251,274,49414,1,2,0:0:0:0:
165,77,49583,1,8,0:0:0:0:
377,120,49751,1,2,0:0:0:0:
377,120,49835,1,2,0:0:0:0:
377,120,49920,1,4,0:0:0:0:
226,194,50088,1,2,0:0:0:0:
329,335,50257,6,0,P|359:316|385:265,1,85,4|0,0:0|0:0,0:0:0:0:
226,194,50594,2,0,L|132:186,1,85,8|0,0:0|0:0,0:0:0:0:
312,104,50931,1,8,0:0:0:0:
226,194,51100,1,2,0:0:0:0:
164,83,51268,2,0,L|70:75,1,85,8|0,0:0|0:0,0:0:0:0:
312,104,51605,6,0,L|406:96,1,85,4|0,0:0|0:0,0:0:0:0:
471,230,51942,1,8,0:0:0:0:
258,188,52111,2,0,P|216:132|239:34,1,170,6|2,0:0|0:0,0:0:0:0:
383,188,52616,1,8,0:0:0:0:
247,278,52785,1,8,0:0:0:0:
235,280,52869,1,8,0:0:0:0:
225,282,52953,6,0,L|126:272,1,85,2|0,0:0|0:0,0:0:0:0:
8,110,53291,2,0,P|0:143|18:214,1,85,8|0,0:0|0:0,0:0:0:0:
171,135,53628,1,8,0:0:0:0:
46,266,53796,1,2,0:0:0:0:
171,135,53965,2,0,L|269:127,1,85,8|0,0:0|0:0,0:0:0:0:
377,206,54302,5,4,0:0:0:0:
354,63,54470,1,2,0:0:0:0:
490,110,54639,1,8,0:0:0:0:
355,223,54807,2,0,P|230:244|171:231,1,170,6|2,0:0|0:0,0:0:0:0:
330,91,55313,1,8,0:0:0:0:
363,311,55482,6,0,P|238:332|177:323,1,170,4|2,0:0|0:0,0:0:0:0:
77,187,55987,1,8,0:0:0:0:
238,221,56156,1,0,0:0:0:0:
74,304,56324,1,2,0:0:0:0:
172,140,56493,1,2,0:0:0:0:
196,327,56661,1,8,0:0:0:0:
172,140,56830,6,0,P|167:103|169:42,1,85,4|0,0:0|0:0,0:0:0:0:
319,212,57167,1,2,0:0:0:0:
361,74,57335,1,8,0:0:0:0:
176,168,57504,1,2,0:0:0:0:
361,74,57673,1,8,0:0:0:0:
232,279,57841,1,2,0:0:0:0:
209,35,58010,1,8,0:0:0:0:
138,311,58178,6,0,P|201:375|321:323,1,203.999993774414,6|2,0:0|0:0,0:0:0:0:
403,169,58684,1,8,0:0:0:0:
232,279,58852,1,2,0:0:0:0:
274,76,59021,1,8,0:0:0:0:
374,277,59189,1,2,0:0:0:0:
149,137,59358,1,8,0:0:0:0:
124,138,59442,1,0,0:0:0:0:
100,147,59526,5,4,0:0:0:0:
435,215,59864,5,4,0:0:0:0:
190,311,60032,1,4,0:0:0:0:
345,61,60369,6,0,L|356:148,1,85,0|0,0:0|0:0,0:0:0:0:
324,231,60875,1,0,0:0:0:0:
235,65,61043,5,4,3:2:0:0:
435,178,61212,1,2,0:0:0:0:
238,261,61380,2,0,L|129:249,1,101.999996887207,8|0,3:2|0:0,0:0:0:0:
235,65,61717,5,2,3:2:0:0:
435,178,61886,1,0,0:0:0:0:
238,261,62054,2,0,L|129:249,1,101.999996887207,8|0,3:2|0:0,0:0:0:0:
18,152,62392,5,2,3:2:0:0:
218,145,62560,1,0,0:0:0:0:
105,314,62729,1,8,3:2:0:0:
98,114,62897,1,0,0:0:0:0:
265,243,63066,2,0,L|253:359,1,101.999996887207,2|0,3:2|0:0,0:0:0:0:
339,173,63403,1,8,3:2:0:0:
135,222,63571,1,0,0:0:0:0:
374,266,63740,6,0,P|419:232|437:183,1,101.999996887207,4|0,3:2|0:0,0:0:0:0:
265,243,64077,1,8,3:2:0:0:
416,102,64246,1,0,0:0:0:0:
480,324,64414,1,2,3:2:0:0:
339,173,64583,1,0,0:0:0:0:
286,372,64751,2,0,P|265:325|265:272,1,101.999996887207,8|0,3:2|0:0,0:0:0:0:
377,299,65088,5,2,3:2:0:0:
164,285,65257,1,0,0:0:0:0:
377,299,65425,1,8,3:2:0:0:
164,285,65594,1,0,0:0:0:0:
263,92,65762,2,0,L|274:212,1,101.999996887207,2|0,3:2|0:0,0:0:0:0:
377,299,66100,1,8,3:2:0:0:
171,292,66268,1,0,0:0:0:0:
171,292,66352,1,8,0:0:0:0:
171,292,66437,5,6,0:0:0:0:
377,299,66605,1,0,0:0:0:0:
263,92,66774,2,0,L|274:212,1,101.999996887207,8|0,0:0|0:0,0:0:0:0:
416,131,67111,1,2,3:2:0:0:
257,6,67279,1,0,0:0:0:0:
416,131,67448,2,0,L|405:251,1,101.999996887207,8|0,3:2|0:0,0:0:0:0:
268,338,67785,5,6,0:0:0:0:
238,167,67953,1,0,0:0:0:0:
109,284,68122,2,0,L|-6:296,1,101.999996887207,8|0,3:2|0:0,0:0:0:0:
238,167,68459,2,0,L|223:47,1,101.999996887207,2|0,3:2|0:0,0:0:0:0:
115,134,68796,1,8,3:2:0:0:
359,85,68965,1,0,0:0:0:0:
352,288,69133,6,0,L|216:288,1,101.999996887207,2|0,3:2|0:0,0:0:0:0:
115,134,69470,1,8,3:2:0:0:
359,85,69639,1,0,0:0:0:0:
148,229,69807,1,2,3:2:0:0:
391,199,69976,1,0,0:0:0:0:
234,56,70144,1,8,3:2:0:0:
195,340,70313,6,0,P|244:368|379:290,1,203.999993774414,4|0,0:0|0:0,0:0:0:0:
305,45,70819,1,8,3:2:0:0:
280,259,70987,1,0,0:0:0:0:
280,259,71071,1,0,0:0:0:0:
280,259,71156,1,2,3:2:0:0:
305,45,71324,1,8,0:0:0:0:
143,169,71493,1,8,3:2:0:0:
428,158,71661,1,0,0:0:0:0:
143,169,71830,6,0,L|34:154,1,101.999996887207,4|0,3:2|0:0,0:0:0:0:
318,250,72167,2,0,P|347:210|348:142,1,101.999996887207,8|0,3:2|0:0,0:0:0:0:
203,107,72504,1,2,3:2:0:0:
152,271,72673,1,0,0:0:0:0:
318,250,72841,2,0,L|433:235,1,101.999996887207,8|0,3:2|0:0,0:0:0:0:
247,210,73178,5,2,3:2:0:0:
369,348,73347,1,0,0:0:0:0:
342,108,73515,1,8,3:2:0:0:
257,311,73684,1,0,0:0:0:0:
218,42,73852,1,2,3:2:0:0:
257,331,74021,1,0,0:0:0:0:
78,153,74189,1,8,3:2:0:0:
356,78,74358,1,0,0:0:0:0:
257,351,74526,6,0,L|246:249,1,101.999996887207,4|0,3:2|0:0,0:0:0:0:
356,78,74863,1,8,3:2:0:0:
441,240,75032,1,0,0:0:0:0:
246,209,75201,2,0,P|192:204|141:227,1,101.999996887207,2|0,3:2|0:0,0:0:0:0:
358,384,75538,2,0,L|354:282,1,101.999996887207,8|0,3:2|0:0,0:0:0:0:
148,221,75875,5,2,3:2:0:0:
349,99,76043,1,0,0:0:0:0:
269,334,76212,1,8,3:2:0:0:
216,97,76380,1,0,0:0:0:0:
433,246,76549,2,0,L|323:259,1,101.999996887207,2|0,3:2|0:0,0:0:0:0:
316,256,76802,1,0,0:0:0:0:
316,256,76886,1,8,3:2:0:0:
164,343,77055,1,0,0:0:0:0:
148,157,77223,6,0,P|191:131|251:130,1,93.5000028533936,6|0,0:0|0:0,0:0:0:0:
416,288,77560,2,0,P|373:262|313:261,1,93.5000028533936,8|0,3:2|0:0,0:0:0:0:
164,343,77897,2,0,L|146:137,1,187.000005706787,2|8,3:2|3:2,0:0:0:0:
223,16,78403,1,0,0:0:0:0:
306,150,78571,5,2,3:2:0:0:
147,156,78740,1,0,0:0:0:0:
333,60,78909,1,8,3:2:0:0:
95,71,79077,1,0,0:0:0:0:
72,74,79161,1,8,0:0:0:0:
51,85,79246,6,0,P|36:156|47:253,1,152.999995330811,6|0,0:0|0:0,0:0:0:0:
268,376,79920,5,6,0:0:0:0:
42,235,80088,1,8,0:0:0:0:
338,230,80257,1,8,3:2:0:0:
268,376,80594,5,2,3:2:0:0:
42,235,80762,1,8,0:0:0:0:
338,230,80931,1,8,3:2:0:0:
192,140,81100,1,2,0:0:0:0:
152,338,81268,6,0,L|159:216,1,101.999996887207,8|2,3:2|0:0,0:0:0:0:
353,328,81605,1,8,3:2:0:0:
341,134,81774,1,8,0:0:0:0:
251,299,81942,1,8,3:2:0:0:
243,69,82111,1,2,0:0:0:0:
68,217,82279,1,8,3:2:0:0:
413,195,82448,1,8,0:0:0:0:
152,77,82785,5,4,0:0:0:0:
141,289,82953,1,8,3:2:0:0:
337,83,83122,1,0,0:0:0:0:
353,289,83291,1,8,3:2:0:0:
152,77,83459,1,0,0:0:0:0:
141,289,83628,1,8,3:2:0:0:
437,196,83796,6,0,L|182:205,1,237.999992736817,4|2,0:0|0:0,0:0:0:0:
337,83,84302,1,8,3:2:0:0:
353,289,84470,1,2,0:0:0:0:
149,31,84807,5,8,0:0:0:0:
132,335,84976,1,8,3:2:0:0:
154,180,85313,5,2,3:2:0:0:
67,233,85482,2,0,L|63:277,2,34,0|0|2,0:0|0:0|0:0,0:0:0:0:
65,131,85819,1,0,0:0:0:0:
154,180,85987,2,0,P|169:228|164:264,1,68,2|0,0:0|0:0,0:0:0:0:
283,341,86324,2,0,L|210:335,1,68,10|0,0:0|0:0,0:0:0:0:
324,221,86661,5,2,3:2:0:0:
271,134,86830,2,0,L|271:91,2,34,0|0|2,0:0|0:0|0:0,0:0:0:0:
373,132,87167,1,0,0:0:0:0:
324,221,87335,2,0,P|276:236|240:231,1,68,2|0,0:0|0:0,0:0:0:0:
113,111,87673,2,0,L|197:101,1,68,10|0,0:0|0:0,0:0:0:0:
78,251,88010,5,2,3:2:0:0:
165,198,88178,2,0,L|204:202,2,34,0|0|2,0:0|0:0|0:0,0:0:0:0:
167,300,88515,1,0,0:0:0:0:
167,300,88600,1,0,0:0:0:0:
167,300,88684,2,0,P|202:313|234:317,1,68,2|0,0:0|0:0,0:0:0:0:
373,231,89021,2,0,P|339:235|308:248,1,68,10|0,0:0|0:0,0:0:0:0:
460,286,89358,5,2,3:2:0:0:
467,184,89526,1,0,0:0:0:0:
383,127,89695,1,2,0:0:0:0:
292,172,89864,1,0,0:0:0:0:
208,115,90032,6,0,L|161:125,1,42.5,2|0,0:0|0:0,0:0:0:0:
131,98,90257,6,0,L|105:96,1,14.1666666666667,0|0,0:0|0:0,0:0:0:0:
80,77,90369,6,0,P|115:122|39:142,1,152.999995330811,10|0,0:0|0:0,0:0:0:0:
8,152,90706,6,0,L|15:303,1,127.500004863739,4|2,0:0|0:0,0:0:0:0:
84,344,91212,1,0,0:0:0:0:
170,304,91380,2,0,L|242:294,1,63.7500024318696,2|0,0:0|0:0,0:0:0:0:
317,340,91717,2,0,L|389:350,1,63.7500024318696,2|0,0:0|0:0,0:0:0:0:
467,254,92055,6,0,P|467:185|435:120,1,127.500004863739,2|2,0:0|0:0,0:0:0:0:
318,148,92560,2,0,P|315:211|340:269,1,127.500004863739,2|2,0:0|0:0,0:0:0:0:
318,148,93066,2,0,L|254:157,1,63.7500024318696,2|0,0:0|0:0,0:0:0:0:
170,97,93403,5,2,0:0:0:0:
88,146,93571,1,0,0:0:0:0:
76,241,93740,2,0,L|78:321,1,63.7500024318696,2|0,0:0|0:0,0:0:0:0:
203,353,94077,2,0,L|205:273,1,63.7500024318696,0|2,0:0|0:0,0:0:0:0:
321,227,94414,2,0,L|323:307,1,63.7500024318696,2|0,0:0|0:0,0:0:0:0:
399,192,94751,6,0,P|367:155|276:152,1,127.500004863739,2|2,0:0|0:0,0:0:0:0:
184,213,95257,2,0,L|39:205,1,127.500004863739,2|2,0:0|0:0,0:0:0:0:
20,84,95762,2,0,L|91:77,1,63.7500024318696,2|0,0:0|0:0,0:0:0:0:
191,128,96100,5,2,0:0:0:0:
180,21,96268,1,0,0:0:0:0:
277,66,96437,1,2,0:0:0:0:
277,66,96605,1,0,0:0:0:0:
191,128,96774,5,2,0:0:0:0:
180,21,96942,1,0,0:0:0:0:
277,66,97111,1,2,0:0:0:0:
277,66,97279,1,0,0:0:0:0:
321,219,97448,6,0,P|321:188|323:156,1,63.7500024318696,2|0,0:0|0:0,0:0:0:0:
404,98,97785,1,2,0:0:0:0:
415,191,97953,2,0,P|422:253|420:329,1,127.500004863739,2|2,0:0|0:0,0:0:0:0:
337,365,98459,1,2,0:0:0:0:
228,296,98628,6,0,P|184:286|82:302,1,144.500002756119,4|2,0:0|0:0,0:0:0:0:
86,299,99133,1,2,0:0:0:0:
6,372,99302,1,2,0:0:0:0:
46,198,99470,1,8,0:0:0:0:
86,299,99639,1,2,0:0:0:0:
6,372,99807,1,2,0:0:0:0:
62,170,99976,6,0,L|215:161,1,144.500002756119,4|2,0:0|0:0,0:0:0:0:
307,121,100482,1,2,0:0:0:0:
380,201,100650,1,2,0:0:0:0:
206,161,100819,1,8,0:0:0:0:
307,121,100987,1,2,0:0:0:0:
297,291,101156,6,0,L|289:196,1,82.8749962062838,8|0,3:2|3:2,0:0:0:0:
307,121,101493,5,4,0:0:0:0:
307,121,101830,2,0,L|223:132,1,68,2|0,0:0|0:0,0:0:0:0:
78,167,102167,1,0,0:0:0:0:
253,215,102335,1,2,0:0:0:0:
98,256,102504,1,8,0:0:0:0:
136,94,102673,1,0,0:0:0:0:
253,215,102841,6,0,L|258:389,1,170,2|2,0:0|0:0,0:0:0:0:
428,254,103347,2,0,L|423:80,1,170,8|2,0:0|0:0,0:0:0:0:
249,131,103852,2,0,P|244:181|257:224,1,85,8|0,0:0|0:0,0:0:0:0:
286,53,104189,6,0,P|241:45|193:67,1,68,2|0,0:0|0:0,0:0:0:0:
252,214,104526,2,0,L|341:208,1,68,8|0,0:0|0:0,0:0:0:0:
211,303,104864,2,0,P|174:318|123:305,1,68,0|2,0:0|0:0,0:0:0:0:
319,209,105201,2,0,L|408:203,1,68,8|0,0:0|0:0,0:0:0:0:
438,353,105538,6,0,P|337:373|269:342,1,170,2|8,3:2|3:2,0:0:0:0:
172,155,106043,2,0,B|129:128|129:128|147:272,1,170,2|2,0:0|0:0,0:0:0:0:
346,211,106549,1,8,3:2:0:0:
164,337,106717,1,0,0:0:0:0:
346,211,106886,6,0,L|417:214,1,68,2|0,0:0|0:0,0:0:0:0:
276,127,107223,1,8,0:0:0:0:
259,246,107392,1,0,0:0:0:0:
159,92,107560,1,0,0:0:0:0:
259,246,107729,1,2,0:0:0:0:
276,127,107897,2,0,L|366:115,1,68,8|0,0:0|0:0,0:0:0:0:
165,215,108234,6,0,P|109:205|105:309,1,170,2|8,0:0|0:0,0:0:0:0:
231,348,108740,2,0,B|289:319|364:335|364:335|330:371,1,170,2|0,0:0|0:0,0:0:0:0:
256,213,109246,2,0,L|256:128,1,85,8|2,0:0|0:0,0:0:0:0:
176,16,109583,5,2,0:0:0:0:
121,140,109751,1,2,0:0:0:0:
256,128,109920,2,0,L|409:132,1,127.5,8|0,0:0|0:0,0:0:0:0:
423,116,110257,1,0,0:0:0:0:
362,227,110425,1,2,0:0:0:0:
454,315,110594,1,8,0:0:0:0:
383,131,110762,6,0,B|322:121|322:121|278:147|206:139,1,170,6|2,0:0|0:0,0:0:0:0:
101,69,111268,1,2,0:0:0:0:
210,13,111437,1,2,0:0:0:0:
101,69,111605,6,0,L|89:121,3,29.7499990921021,8|0|0|0,3:2|3:2|3:2|0:0,0:0:0:0:
141,177,111942,1,8,3:2:0:0:
147,191,112026,1,0,3:2:0:0:
150,207,112111,1,0,3:2:0:0:
150,223,112195,1,0,3:2:0:0:
147,238,112279,6,0,L|14:230,1,118.999996368408,4|0,3:2|0:0,0:0:0:0:
231,301,112785,1,0,0:0:0:0:
231,301,112953,2,0,P|249:251|232:183,1,118.999996368408,2|8,0:0|0:0,0:0:0:0:
283,79,113459,6,0,L|347:81,1,59.4999981842042,2|0,0:0|0:0,0:0:0:0:
366,197,113796,2,0,L|430:199,1,59.4999981842042,2|0,0:0|0:0,0:0:0:0:
449,315,114133,1,2,0:0:0:0:
449,315,114302,2,0,P|392:337|327:321,1,118.999996368408,2|8,0:0|0:0,0:0:0:0:
143,187,114976,6,0,B|105:180|105:180|63:191|63:191|26:185,1,118.999996368408,2|0,0:0|0:0,0:0:0:0:
21,85,115482,1,2,0:0:0:0:
21,85,115650,2,0,B|59:92|59:92|101:81|101:81|138:87,1,118.999996368408,2|8,0:0|0:0,0:0:0:0:
143,187,116156,5,2,0:0:0:0:
137,202,116493,1,2,0:0:0:0:
131,217,116830,1,2,0:0:0:0:
199,314,116998,5,2,0:0:0:0:
199,314,117167,1,8,0:0:0:0:
276,165,117335,1,8,0:0:0:0:
199,314,117504,1,2,0:0:0:0:
364,313,117673,6,0,P|408:292|420:211,1,118.999996368408,4|0,0:0|0:0,0:0:0:0:
378,119,118178,1,2,0:0:0:0:
378,119,118347,2,0,L|260:120,1,118.999996368408,2|8,0:0|0:0,0:0:0:0:
168,43,118852,6,0,P|138:37|109:44,1,59.4999981842042,2|0,0:0|0:0,0:0:0:0:
139,141,119189,2,0,P|111:151|89:170,1,59.4999981842042,2|0,0:0|0:0,0:0:0:0:
159,241,119526,1,2,0:0:0:0:
259,120,119695,1,2,0:0:0:0:
56,98,119864,1,0,0:0:0:0:
76,281,120032,1,8,0:0:0:0:
278,235,120201,1,2,0:0:0:0:
292,233,120285,1,0,0:0:0:0:
307,231,120369,6,0,P|345:196|364:111,1,127.5,4|0,0:0|0:0,0:0:0:0:
352,83,120706,1,8,0:0:0:0:
396,308,120875,1,2,0:0:0:0:
155,41,121212,1,2,0:0:0:0:
170,345,121549,6,0,B|152:283|152:283|172:213|172:213|162:141,1,203.999993774414,4|2,0:0|0:0,0:0:0:0:
262,282,122055,1,8,0:0:0:0:
75,90,122223,2,0,P|121:50|249:86,1,203.999993774414,2|2,0:0|0:0,0:0:0:0:
255,97,122644,1,2,0:0:0:0:
259,111,122729,1,4,0:0:0:0:
121,233,122897,1,2,0:0:0:0:
365,206,123066,6,0,L|480:193,1,101.999996887207,4|0,0:0|0:0,0:0:0:0:
190,292,123403,2,0,P|141:275|120:220,1,101.999996887207,8|0,0:0|0:0,0:0:0:0:
307,128,123740,1,8,0:0:0:0:
266,337,123909,1,2,0:0:0:0:
119,151,124077,2,0,P|142:107|190:92,1,101.999996887207,8|0,0:0|0:0,0:0:0:0:
338,241,124414,5,4,0:0:0:0:
113,270,124583,1,0,0:0:0:0:
338,241,124751,1,8,0:0:0:0:
190,92,124920,2,0,L|82:103,1,101.999996887207,6|0,0:0|0:0,0:0:0:0:
251,12,125257,1,2,0:0:0:0:
319,132,125425,1,8,0:0:0:0:
455,74,125594,1,8,0:0:0:0:
455,74,125678,1,8,0:0:0:0:
455,74,125762,6,0,B|471:124|471:124|456:182,1,101.999996887207,2|0,0:0|0:0,0:0:0:0:
187,280,126100,2,0,B|171:230|171:230|186:172,1,101.999996887207,8|0,0:0|0:0,0:0:0:0:
362,149,126437,1,8,0:0:0:0:
253,37,126605,1,2,0:0:0:0:
362,149,126774,2,0,L|370:263,1,101.999996887207,8|0,0:0|0:0,0:0:0:0:
82,193,127111,6,0,L|198:180,1,101.999996887207,4|2,0:0|0:0,0:0:0:0:
369,250,127448,1,8,0:0:0:0:
114,299,127616,2,0,B|69:337|69:337|83:169,1,203.999993774414,6|2,0:0|0:0,0:0:0:0:
211,77,128122,1,8,0:0:0:0:
369,250,128291,6,0,P|393:312|286:319,1,203.999993774414,4|2,0:0|0:0,0:0:0:0:
280,161,128796,1,8,0:0:0:0:
186,296,128965,1,0,0:0:0:0:
298,137,129133,1,2,0:0:0:0:
320,354,129302,1,2,0:0:0:0:
316,113,129470,1,8,0:0:0:0:
96,208,129639,6,0,L|200:195,1,101.999996887207,4|0,0:0|0:0,0:0:0:0:
423,92,129976,1,2,0:0:0:0:
200,74,130144,1,8,0:0:0:0:
316,275,130313,1,2,0:0:0:0:
200,74,130482,1,8,0:0:0:0:
415,202,130650,1,2,0:0:0:0:
200,287,130819,1,8,0:0:0:0:
447,296,130987,6,0,P|511:233|459:113,1,203.999993774414,6|2,0:0|0:0,0:0:0:0:
283,42,131493,1,8,0:0:0:0:
317,262,131661,1,2,0:0:0:0:
418,52,131830,1,8,0:0:0:0:
180,172,131998,1,2,0:0:0:0:
398,306,132167,1,8,0:0:0:0:
423,305,132251,1,0,0:0:0:0:
447,296,132335,5,4,0:0:0:0:
44,200,132673,5,4,0:0:0:0:
380,145,132841,1,4,0:0:0:0:
148,61,133178,6,0,L|157:152,1,85,0|0,0:0|0:0,0:0:0:0:
246,207,133684,1,0,0:0:0:0:
262,85,133852,5,4,3:2:0:0:
73,209,134021,1,2,0:0:0:0:
310,271,134189,2,0,L|419:253,1,101.999996887207,8|0,3:2|0:0,0:0:0:0:
262,85,134526,5,2,3:2:0:0:
73,209,134695,1,0,0:0:0:0:
310,271,134863,2,0,L|419:253,1,101.999996887207,8|0,3:2|0:0,0:0:0:0:
509,147,135201,5,2,3:2:0:0:
340,142,135369,1,0,0:0:0:0:
496,311,135538,1,8,3:2:0:0:
356,351,135706,1,0,0:0:0:0:
252,182,135875,2,0,P|247:116|266:79,1,101.999996887207,2|0,3:2|0:0,0:0:0:0:
370,247,136212,1,8,3:2:0:0:
140,203,136380,1,0,0:0:0:0:
379,149,136549,6,0,P|384:215|365:252,1,101.999996887207,4|0,3:2|0:0,0:0:0:0:
235,334,136886,1,8,3:2:0:0:
174,119,137055,1,0,0:0:0:0:
129,355,137223,1,2,3:2:0:0:
277,128,137392,1,0,0:0:0:0:
33,228,137560,2,0,L|20:99,1,101.999996887207,8|0,3:2|0:0,0:0:0:0:
206,201,137897,5,2,3:2:0:0:
43,314,138066,1,0,0:0:0:0:
112,89,138234,1,8,3:2:0:0:
216,296,138403,1,0,0:0:0:0:
351,126,138571,2,0,P|364:72|344:25,1,101.999996887207,2|0,3:2|0:0,0:0:0:0:
205,141,138909,1,8,3:2:0:0:
331,292,139077,1,0,0:0:0:0:
344,294,139161,1,8,0:0:0:0:
356,297,139246,5,6,0:0:0:0:
273,82,139414,1,0,0:0:0:0:
216,296,139583,1,8,0:0:0:0:
419,208,139751,1,0,0:0:0:0:
180,151,139920,2,0,L|85:161,1,85,2|0,3:2|0:0,0:0:0:0:
356,297,140257,2,0,L|451:307,1,85,8|0,3:2|0:0,0:0:0:0:
304,133,140594,5,2,3:2:0:0:
266,335,140762,1,0,0:0:0:0:
89,249,140931,2,0,L|173:240,1,85,8|0,3:2|0:0,0:0:0:0:
401,155,141268,2,0,P|401:103|363:57,1,85,2|0,3:2|0:0,0:0:0:0:
378,64,141521,1,0,0:0:0:0:
367,57,141605,1,8,3:2:0:0:
172,116,141774,1,0,0:0:0:0:
267,330,141942,6,0,L|498:312,1,203.999993774414,10|8,3:2|3:2,0:0:0:0:
220,206,142448,1,0,0:0:0:0:
427,154,142616,1,2,3:2:0:0:
252,87,142785,1,0,0:0:0:0:
252,87,142869,1,0,0:0:0:0:
252,87,142953,1,8,3:2:0:0:
267,327,143122,6,0,P|218:355|83:277,1,203.999993774414,4|0,0:0|0:0,0:0:0:0:
142,36,143628,1,8,3:2:0:0:
191,243,143796,1,0,0:0:0:0:
191,243,143880,1,0,0:0:0:0:
191,243,143965,1,2,3:2:0:0:
142,36,144133,1,8,0:0:0:0:
326,155,144302,1,8,3:2:0:0:
63,196,144470,1,0,0:0:0:0:
326,155,144639,6,0,L|435:140,1,101.999996887207,4|0,3:2|0:0,0:0:0:0:
191,243,144976,2,0,P|162:203|161:135,1,101.999996887207,8|0,3:2|0:0,0:0:0:0:
294,42,145313,1,2,3:2:0:0:
320,251,145482,1,0,0:0:0:0:
294,42,145650,2,0,L|185:27,1,101.999996887207,8|0,3:2|0:0,0:0:0:0:
320,251,145987,5,2,3:2:0:0:
68,300,146156,1,0,0:0:0:0:
145,119,146324,1,8,3:2:0:0:
253,326,146493,1,0,0:0:0:0:
268,105,146661,1,2,3:2:0:0:
253,345,146830,1,0,0:0:0:0:
387,203,146998,1,8,3:2:0:0:
123,145,147167,1,0,0:0:0:0:
252,363,147335,6,0,L|262:261,1,101.999996887207,4|0,3:2|0:0,0:0:0:0:
276,66,147672,1,8,3:2:0:0:
145,234,147841,1,0,0:0:0:0:
369,251,148010,2,0,L|492:238,1,101.999996887207,2|0,3:2|0:0,0:0:0:0:
225,183,148347,2,0,P|177:194|142:241,1,101.999996887207,8|0,3:2|0:0,0:0:0:0:
243,307,148684,5,2,3:2:0:0:
298,132,148852,1,0,0:0:0:0:
53,187,149021,2,0,P|40:232|53:279,1,85,8|0,3:2|0:0,0:0:0:0:
298,132,149358,2,0,L|300:43,1,85,2|0,3:2|0:0,0:0:0:0:
140,143,149695,1,8,3:2:0:0:
251,313,149864,1,0,0:0:0:0:
251,313,149948,1,0,0:0:0:0:
251,313,150032,5,6,0:0:0:0:
385,106,150201,1,0,0:0:0:0:
396,335,150369,1,8,3:2:0:0:
255,92,150538,1,0,0:0:0:0:
465,213,150706,2,0,L|342:225,1,85,2|0,3:2|0:0,0:0:0:0:
380,221,150959,1,0,0:0:0:0:
380,221,151043,1,8,3:2:0:0:
120,272,151212,1,0,0:0:0:0:
255,92,151380,5,2,3:2:0:0:
297,314,151549,1,0,0:0:0:0:
234,66,151717,1,8,3:2:0:0:
120,272,151886,1,0,0:0:0:0:
123,295,151970,1,8,0:0:0:0:
134,316,152055,6,0,B|185:327|207:309|207:309|239:323|239:323|264:309|320:317,1,170,6|0,0:0|0:0,0:0:0:0:
463,140,152729,5,6,0:0:0:0:
392,347,152897,1,8,0:0:0:0:
317,70,153066,1,8,3:2:0:0:
463,140,153403,5,2,3:2:0:0:
392,347,153571,1,8,0:0:0:0:
317,70,153740,1,8,3:2:0:0:
185,239,153909,1,2,0:0:0:0:
425,256,154077,6,0,L|303:249,1,101.999996887207,4|2,0:0|0:0,0:0:0:0:
124,107,154414,1,8,3:2:0:0:
415,55,154583,1,8,0:0:0:0:
248,286,154751,1,8,3:2:0:0:
273,66,154920,1,2,0:0:0:0:
452,201,155088,1,8,3:2:0:0:
128,292,155257,1,8,0:0:0:0:
128,292,155594,5,4,0:0:0:0:
416,278,155762,1,8,3:2:0:0:
133,115,155931,1,0,0:0:0:0:
384,107,156100,1,8,3:2:0:0:
128,292,156268,1,0,0:0:0:0:
416,278,156437,1,8,3:2:0:0:
195,25,156605,6,0,P|112:6|140:116,1,237.999992736817,4|2,0:0|0:0,0:0:0:0:
384,107,157111,1,8,3:2:0:0:
141,209,157279,1,2,0:0:0:0:
421,325,157616,5,8,0:0:0:0:
141,209,157785,1,8,3:2:0:0:
421,325,158122,6,0,L|430:227,2,68,4|0|0,0:0|0:0|0:0,0:0:0:0:
181,345,158796,2,0,L|171:185,1,136,0|0,0:0|0:0,0:0:0:0:
228,125,159302,1,2,0:0:0:0:
296,199,159470,2,0,P|226:228|156:194,1,136,4|0,0:0|0:0,0:0:0:0:
327,82,159976,2,0,L|331:309,1,204,0|8,0:0|0:0,0:0:0:0:
139,207,160819,6,0,P|122:171|123:141,2,68,4|0|0,0:0|0:0|0:0,0:0:0:0:
337,159,161493,2,0,L|179:158,1,136,0|0,0:0|0:0,0:0:0:0:
125,226,161998,1,2,0:0:0:0:
221,261,162167,2,0,L|356:261,1,136,4|0,0:0|0:0,0:0:0:0:
422,126,162673,2,0,P|387:92|317:97,1,102,0|0,0:0|0:0,0:0:0:0:
304,115,163010,5,8,0:0:0:0:
357,372,163178,1,2,0:0:0:0:
73,247,163515,5,4,0:0:0:0:
213,284,163684,1,0,0:0:0:0:
179,143,163852,1,8,0:0:0:0:
81,256,164021,1,0,0:0:0:0:
81,256,164105,1,0,0:0:0:0:
81,256,164189,2,0,L|88:351,1,85,2|0,0:0|0:0,0:0:0:0:
265,208,164526,2,0,L|272:113,1,85,8|0,0:0|0:0,0:0:0:0:
263,81,164779,1,0,0:0:0:0:
263,81,164864,5,4,0:0:0:0:
391,114,165032,1,0,0:0:0:0:
178,152,165201,1,8,0:0:0:0:
362,224,165369,1,0,0:0:0:0:
372,224,165453,1,0,0:0:0:0:
382,222,165538,2,0,L|486:222,1,85,0|0,0:0|0:0,0:0:0:0:
304,342,165875,2,0,L|200:342,1,85,8|0,0:0|0:0,0:0:0:0:
182,320,166128,1,0,0:0:0:0:
182,320,166212,6,0,P|199:278|193:219,1,85,4|0,0:0|0:0,0:0:0:0:
168,97,166549,1,8,0:0:0:0:
57,194,166717,1,0,0:0:0:0:
53,205,166802,1,0,0:0:0:0:
52,215,166886,1,2,0:0:0:0:
51,226,166970,1,0,0:0:0:0:
52,236,167054,1,0,0:0:0:0:
182,320,167223,2,0,P|228:315|274:330,1,85,8|0,0:0|0:0,0:0:0:0:
464,330,167560,6,0,P|500:312|393:279,1,286.875010943413,4|0,0:0|0:0,0:0:0:0:
392,297,168403,5,2,0:0:0:0:
354,49,168571,1,8,0:0:0:0:
114,324,168909,6,0,P|98:244|122:146,1,170,6|8,0:0|0:0,0:0:0:0:
262,60,169414,2,0,L|269:150,1,85,0|0,0:0|0:0,0:0:0:0:
426,146,169751,2,0,L|351:197,1,85,0|8,0:0|0:0,0:0:0:0:
433,334,170088,6,0,L|351:295,1,85,0|2,0:0|0:0,0:0:0:0:
268,349,170425,1,0,0:0:0:0:
179,297,170594,1,8,0:0:0:0:
180,195,170762,1,2,0:0:0:0:
180,195,170847,1,2,0:0:0:0:
180,195,170931,1,2,0:0:0:0:
268,144,171100,1,0,0:0:0:0:
356,195,171268,1,8,0:0:0:0:
356,297,171437,1,0,0:0:0:0:
268,144,171605,6,0,P|202:98|99:134,1,170,6|8,0:0|0:0,0:0:0:0:
28,270,172111,2,0,P|21:314|40:363,1,85,0|0,0:0|0:0,0:0:0:0:
139,302,172448,2,0,P|173:330|225:338,1,85,0|8,0:0|0:0,0:0:0:0:
226,225,172785,6,0,P|267:209|300:168,1,85,2|0,0:0|0:0,0:0:0:0:
201,112,173122,1,0,0:0:0:0:
308,60,173291,1,2,0:0:0:0:
394,141,173459,1,2,0:0:0:0:
398,152,173544,1,2,0:0:0:0:
399,162,173628,1,2,0:0:0:0:
400,173,173712,1,2,0:0:0:0:
399,183,173796,1,2,0:0:0:0:
324,276,173965,1,8,0:0:0:0:
215,227,174133,2,0,L|158:225,1,42.5,0|0,0:0|0:0,0:0:0:0:
123,149,174302,6,0,L|129:338,1,170,6|8,0:0|0:0,0:0:0:0:
24,214,174807,1,0,0:0:0:0:
128,318,174976,1,0,0:0:0:0:
27,308,175144,1,0,0:0:0:0:
172,225,175313,1,8,0:0:0:0:
13,189,175482,6,0,P|11:131|107:70,1,170,0|0,0:0|0:0,0:0:0:0:
265,168,175987,1,8,0:0:0:0:
106,170,176156,1,2,0:0:0:0:
106,170,176240,1,2,0:0:0:0:
106,170,176324,1,2,0:0:0:0:
253,71,176493,1,0,0:0:0:0:
176,237,176661,1,8,0:0:0:0:
130,57,176830,1,0,0:0:0:0:
297,191,176998,6,0,L|393:183,2,85,2|0|8,0:0|0:0|0:0,0:0:0:0:
191,318,177504,2,0,P|173:261|180:224,1,85,0|0,0:0|0:0,0:0:0:0:
366,102,177841,2,0,P|384:159|377:196,1,85,0|8,0:0|0:0,0:0:0:0:
81,166,178178,6,0,L|182:156,1,101.999996887207,6|0,0:0|0:0,0:0:0:0:
298,268,178515,1,0,0:0:0:0:
298,268,178600,1,0,0:0:0:0:
298,268,178684,2,0,P|302:296|296:325,3,50.9999984436036,8|2|2|2,0:0|0:0|0:0|0:0,0:0:0:0:
218,294,179021,6,0,P|201:316|176:332,3,50.9999984436036,2|2|2|2,0:0|0:0|0:0|0:0,0:0:0:0:
145,252,179358,1,8,0:0:0:0:
130,231,179442,1,2,0:0:0:0:
121,207,179526,1,2,0:0:0:0:
120,182,179610,1,2,0:0:0:0:
125,157,179695,6,0,L|116:52,1,93.5000028533936,2|0,0:0|0:0,0:0:0:0:
291,61,180032,2,0,L|396:52,1,93.5000028533936,8|0,0:0|0:0,0:0:0:0:
387,227,180369,2,0,L|396:332,1,93.5000028533936,0|0,0:0|0:0,0:0:0:0:
221,323,180706,2,0,L|116:332,1,93.5000028533936,8|0,0:0|0:0,0:0:0:0:
255,149,181043,6,0,P|267:192|257:251,1,93.5000028533936,2|0,0:0|0:0,0:0:0:0:
150,205,181380,1,8,0:0:0:0:
175,66,181549,2,0,P|233:35|344:80,1,187.000005706787,0|0,0:0|0:0,0:0:0:0:
331,262,182055,1,8,0:0:0:0:
255,149,182223,1,0,0:0:0:0:
424,256,182392,6,0,L|311:263,1,93.5000028533936,2|0,0:0|0:0,0:0:0:0:
156,323,182729,2,0,L|269:330,1,93.5000028533936,8|0,0:0|0:0,0:0:0:0:
169,86,183066,2,0,L|162:199,1,93.5000028533936,0|0,0:0|0:0,0:0:0:0:
57,374,183403,2,0,L|50:261,1,93.5000028533936,8|0,0:0|0:0,0:0:0:0:
169,86,183740,6,0,P|211:71|269:79,1,93.5000028533936,2|0,0:0|0:0,0:0:0:0:
386,175,184077,1,8,0:0:0:0:
228,200,184246,1,0,0:0:0:0:
400,144,184414,1,0,0:0:0:0:
302,274,184583,1,0,0:0:0:0:
414,113,184751,1,8,0:0:0:0:
376,348,184920,1,0,0:0:0:0:
376,348,185004,1,0,0:0:0:0:
376,348,185088,6,0,L|387:247,1,93.5000028533936,6|0,0:0|0:0,0:0:0:0:
323,155,185341,1,0,0:0:0:0:
305,165,185425,2,0,L|209:165,1,93.5000028533936,8|0,0:0|0:0,0:0:0:0:
99,201,185678,1,0,0:0:0:0:
89,217,185762,2,0,P|99:269|89:308,1,93.5000028533936,8|0,0:0|0:0,0:0:0:0:
9,154,186100,1,8,0:0:0:0:
190,236,186268,1,0,0:0:0:0:
128,46,186437,6,0,L|134:157,1,93.5000028533936,2|0,0:0|0:0,0:0:0:0:
142,296,186774,1,8,0:0:0:0:
262,152,186942,2,0,P|328:158|362:265,1,187.000005706787,0|0,0:0|0:0,0:0:0:0:
142,296,187448,1,8,0:0:0:0:
286,230,187616,1,0,0:0:0:0:
142,296,187785,6,0,L|43:286,1,93.5000028533936,6|0,0:0|0:0,0:0:0:0:
217,122,188122,1,8,0:0:0:0:
220,334,188291,1,0,0:0:0:0:
369,113,188459,1,0,0:0:0:0:
379,328,188628,1,0,0:0:0:0:
120,213,188796,1,12,0:0:0:0:
369,113,188965,1,0,0:0:0:0:
220,334,189133,6,0,L|216:226,1,93.5000028533936,6|0,0:0|0:0,0:0:0:0:
276,11,189470,1,8,0:0:0:0:
375,219,189639,1,0,0:0:0:0:
108,127,189807,1,8,0:0:0:0:
369,113,189976,1,0,0:0:0:0:
220,334,190144,1,12,0:0:0:0:
200,63,190313,1,0,0:0:0:0:
220,334,190482,5,6,0:0:0:0:
369,113,190650,1,0,0:0:0:0:
76,192,190819,1,8,0:0:0:0:
404,273,190987,1,0,0:0:0:0:
76,192,191156,1,8,0:0:0:0:
404,273,191324,1,2,0:0:0:0:
415,272,191408,1,2,0:0:0:0:
425,270,191492,1,2,0:0:0:0:
436,267,191577,1,2,0:0:0:0:
445,263,191661,5,6,0:0:0:0:
96,288,191998,2,0,L|34:299,1,46.7500014266968,8|0,0:0|0:0,0:0:0:0:
123,192,192167,2,0,L|59:192,1,46.7500014266968,8|0,0:0|0:0,0:0:0:0:
96,96,192335,2,0,L|34:85,1,46.7500014266968,8|0,0:0|0:0,0:0:0:0:
256,192,192504,5,4,0:0:0:0:
138,235,203965,5,4,3:2:0:0:
395,162,204133,1,2,0:0:0:0:
255,378,204302,2,0,L|267:248,1,110.499994941712,8|0,3:2|0:0,0:0:0:0:
138,235,204639,5,2,3:2:0:0:
395,162,204807,1,0,0:0:0:0:
255,378,204976,2,0,L|267:248,1,110.499994941712,8|0,3:2|0:0,0:0:0:0:
288,58,205314,5,2,3:2:0:0:
94,180,205482,1,0,0:0:0:0:
288,58,205651,1,8,3:2:0:0:
265,267,205819,1,0,0:0:0:0:
166,82,205988,1,2,3:2:0:0:
371,222,206156,1,0,0:0:0:0:
140,238,206325,1,8,3:2:0:0:
360,88,206493,1,0,0:0:0:0:
140,238,206662,6,0,L|150:352,1,110.499994941712,4|0,3:2|0:0,0:0:0:0:
350,198,206998,2,0,L|360:84,1,110.499994941712,8|0,3:2|0:0,0:0:0:0:
431,304,207336,2,0,L|322:315,1,110.499994941712,2|0,3:2|0:0,0:0:0:0:
140,238,207673,1,8,3:2:0:0:
379,167,207841,1,0,0:0:0:0:
214,338,208010,5,2,3:2:0:0:
247,87,208178,1,0,0:0:0:0:
321,315,208347,1,8,3:2:0:0:
247,87,208515,1,0,0:0:0:0:
55,265,208684,2,0,P|109:274|161:246,1,110.499994941712,2|0,3:2|0:0,0:0:0:0:
157,249,208937,1,0,0:0:0:0:
157,249,209021,1,8,3:2:0:0:
329,75,209190,1,0,0:0:0:0:
329,75,209274,1,8,0:0:0:0:
329,75,209359,5,6,0:0:0:0:
140,111,209526,1,0,0:0:0:0:
358,199,209695,1,8,0:0:0:0:
211,28,209864,1,0,0:0:0:0:
176,222,210032,1,2,3:2:0:0:
329,75,210201,1,0,0:0:0:0:
287,264,210369,1,8,3:2:0:0:
140,111,210538,1,0,0:0:0:0:
421,103,210706,6,0,P|418:52|390:7,1,93.5000028533936,2|0,3:2|0:0,0:0:0:0:
267,146,211043,1,8,3:2:0:0:
371,280,211212,1,0,0:0:0:0:
329,75,211380,2,0,P|290:54|224:61,1,93.5000028533936,2|0,3:2|0:0,0:0:0:0:
151,299,211717,1,8,3:2:0:0:
267,146,211886,1,0,0:0:0:0:
81,128,212055,6,0,L|76:222,1,93.5000028533936,6|0,0:0|0:0,0:0:0:0:
151,299,212392,1,8,3:2:0:0:
128,46,212561,1,2,0:0:0:0:
267,146,212729,1,2,3:2:0:0:
76,221,212897,1,0,0:0:0:0:
223,64,213066,1,8,3:2:0:0:
434,179,213234,6,0,P|462:228|384:363,1,203.999993774414,4|0,0:0|0:0,0:0:0:0:
151,299,213741,1,8,3:2:0:0:
355,257,213909,1,0,0:0:0:0:
355,257,213993,1,0,0:0:0:0:
355,257,214078,1,2,3:2:0:0:
66,192,214246,1,8,0:0:0:0:
306,137,214415,1,8,3:2:0:0:
151,299,214583,1,0,0:0:0:0:
168,115,214752,6,0,L|180:12,1,101.999996887207,4|0,3:2|0:0,0:0:0:0:
397,334,215088,2,0,L|385:231,1,101.999996887207,8|0,3:2|0:0,0:0:0:0:
132,257,215425,1,2,3:2:0:0:
342,120,215594,1,0,0:0:0:0:
242,332,215762,1,8,3:2:0:0:
168,115,215931,1,0,0:0:0:0:
364,219,216100,6,0,L|467:210,1,101.999996887207,2|0,3:2|0:0,0:0:0:0:
289,103,216437,1,8,3:2:0:0:
216,341,216605,1,0,0:0:0:0:
308,90,216774,1,2,3:2:0:0:
136,252,216942,1,0,0:0:0:0:
327,77,217111,1,8,3:2:0:0:
56,163,217279,1,0,0:0:0:0:
364,219,217448,6,0,L|465:208,1,101.999996887207,4|0,3:2|0:0,0:0:0:0:
327,77,217784,1,8,3:2:0:0:
292,312,217954,1,0,0:0:0:0:
327,77,218123,2,0,L|219:69,1,101.999996887207,2|0,3:2|0:0,0:0:0:0:
120,236,218459,2,0,P|127:296|165:339,1,101.999996887207,8|0,3:2|0:0,0:0:0:0:
389,227,218797,5,2,3:2:0:0:
125,148,218965,1,0,0:0:0:0:
403,214,219133,1,8,3:2:0:0:
108,156,219302,1,0,0:0:0:0:
417,201,219470,2,0,L|410:68,1,101.999996887207,2|0,3:2|0:0,0:0:0:0:
273,257,219807,1,8,3:2:0:0:
257,42,219977,1,0,0:0:0:0:
257,42,220061,1,0,0:0:0:0:
257,42,220145,5,6,0:0:0:0:
128,267,220314,1,0,0:0:0:0:
120,44,220482,1,8,3:2:0:0:
273,257,220651,1,0,0:0:0:0:
47,171,220819,2,0,L|172:158,1,93.5000028533936,2|0,3:2|0:0,0:0:0:0:
153,161,221071,1,0,0:0:0:0:
167,161,221156,1,8,3:2:0:0:
280,341,221325,1,0,0:0:0:0:
386,157,221493,5,2,3:2:0:0:
139,293,221662,1,0,0:0:0:0:
386,157,221830,1,8,3:2:0:0:
110,81,221998,1,0,0:0:0:0:
103,71,222082,1,8,0:0:0:0:
96,62,222167,6,0,B|141:45|141:45|183:60|183:60|226:46|226:46|278:64,1,170,6|0,0:0|0:0,0:0:0:0:
80,341,222841,5,6,0:0:0:0:
307,219,223010,1,8,0:0:0:0:
29,180,223178,1,8,3:2:0:0:
80,341,223515,5,2,3:2:0:0:
307,219,223684,1,8,0:0:0:0:
29,180,223852,1,8,3:2:0:0:
228,83,224021,1,2,0:0:0:0:
174,340,224189,6,0,L|183:221,1,85,8|2,3:2|0:0,0:0:0:0:
255,43,224526,1,8,3:2:0:0:
267,327,224695,1,8,0:0:0:0:
387,96,224864,1,8,3:2:0:0:
121,284,225032,1,2,0:0:0:0:
403,258,225201,1,8,3:2:0:0:
106,121,225369,1,8,0:0:0:0:
403,258,225706,6,0,L|412:129,1,85,4|8,0:0|3:2,0:0:0:0:
71,348,226043,2,0,L|62:219,1,85,0|8,0:0|3:2,0:0:0:0:
408,173,226380,2,0,L|417:44,1,85,0|8,0:0|3:2,0:0:0:0:
48,25,226717,6,0,L|66:288,1,237.999992736817,4|2,0:0|0:0,0:0:0:0:
403,258,227223,1,8,3:2:0:0:
413,88,227392,1,2,0:0:0:0:
64,262,227729,5,8,0:0:0:0:
413,88,227897,1,8,3:2:0:0:
413,88,228234,6,0,L|419:177,1,68,2|0,3:2|0:0,0:0:0:0:
406,187,228487,1,0,0:0:0:0:
406,187,228571,1,2,0:0:0:0:
445,281,228740,1,0,0:0:0:0:
372,354,228909,2,0,P|334:361|296:354,1,68,2|0,0:0|0:0,0:0:0:0:
217,306,229246,2,0,P|210:268|217:230,1,68,10|0,0:0|0:0,0:0:0:0:
276,93,229583,6,0,L|187:99,1,68,2|0,3:2|0:0,0:0:0:0:
177,86,229836,1,0,0:0:0:0:
177,86,229920,1,2,0:0:0:0:
95,26,230088,1,0,0:0:0:0:
85,127,230257,2,0,L|81:208,1,68,2|0,0:0|0:0,0:0:0:0:
189,327,230594,2,0,L|185:246,1,68,10|0,0:0|0:0,0:0:0:0:
330,179,230931,5,2,3:2:0:0:
277,92,231100,2,0,L|231:94,2,34,0|0|0,0:0|0:0|0:0,0:0:0:0:
379,90,231437,1,0,0:0:0:0:
379,90,231521,1,0,0:0:0:0:
379,90,231605,2,0,L|461:103,1,68,2|0,0:0|0:0,0:0:0:0:
330,179,231942,2,0,L|412:192,1,68,10|0,0:0|0:0,0:0:0:0:
261,304,232279,5,2,3:2:0:0:
187,182,232448,2,0,L|131:191,2,38.2499988327027,0|0|0,0:0|0:0|0:0,0:0:0:0:
330,179,232785,1,0,0:0:0:0:
261,304,232953,2,0,P|228:323|179:325,1,76.4999976654053,2|0,0:0|0:0,0:0:0:0:
203,238,233291,2,0,P|171:218|144:177,1,76.4999976654053,10|0,0:0|0:0,0:0:0:0:
281,50,233628,5,2,3:2:0:0:
385,84,233796,1,2,0:0:0:0:
489,118,233965,1,2,0:0:0:0:
281,334,234302,5,2,3:2:0:0:
385,300,234470,1,2,0:0:0:0:
489,266,234639,1,2,0:0:0:0:
384,192,234976,5,2,3:2:0:0:
363,192,235088,1,2,0:0:0:0:
342,192,235201,1,2,0:0:0:0:
321,192,235313,5,2,0:0:0:0:
210,191,235482,1,2,0:0:0:0:
96,193,235650,1,2,0:0:0:0:
321,192,235987,6,0,B|262:170|209:194|209:194|187:159|187:159|140:199|64:193,1,255.000009727478,4|0,0:0|0:0,0:0:0:0:
