osu file format v14

[General]
AudioFilename: himen.mp3
AudioLeadIn: 0
PreviewTime: 60285
Countdown: 0
SampleSet: Soft
StackLeniency: 0.4
Mode: 0
LetterboxInBreaks: 0
WidescreenStoryboard: 0

[Editor]
Bookmarks: 193178
DistanceSpacing: 2.2
BeatDivisor: 4
GridSize: 16
TimelineZoom: 1.6

[Metadata]
Title:Koi no Hime Hime Pettanko
TitleUnicode:恋のヒメヒメぺったんこ
Artist:*namirin
ArtistUnicode:*なみりん
Creator:sahuang
Version:Left's Insane
Source:弱虫ペダル
Tags:My Angel Azusa pata-mon joker left beomsan enon utaite nami なみ nnd nico nico douga ニコニコ動画 Tamura Yukari 田村 ゆかり Yowapeda Pedal
BeatmapID:1322412
BeatmapSetID:613083

[Difficulty]
HPDrainRate:6
CircleSize:3.8
OverallDifficulty:8
ApproachRate:9
SliderMultiplier:1.7
SliderTickRate:1

[Events]
//Background and Video events
0,0,"hime.jpg",0,0
//Break Periods
2,85313,90106
2,193178,197803
//Storyboard Layer 0 (Background)
//Storyboard Layer 1 (Fail)
//Storyboard Layer 2 (Pass)
//Storyboard Layer 3 (Foreground)
//Storyboard Sound Samples

[TimingPoints]
1718,337.078651685393,4,2,97,45,1,0
1718,-111.111111111111,4,2,97,45,0,0
6437,-111.111111111111,4,2,97,45,0,0
7111,-350.818181818182,4,2,98,55,0,0
12167,-100,4,2,98,68,0,0
16296,-100,4,2,98,5,0,0
16380,-100,4,2,98,68,0,0
16465,-100,4,2,98,5,0,0
16549,-200,4,2,98,68,0,0
17897,-105.263157894737,4,2,98,63,0,0
21942,-105.263157894737,4,2,98,63,0,0
23291,-105.263157894737,4,2,98,63,0,0
24639,-105.263157894737,4,2,98,63,0,0
28347,-76.9230769230769,4,2,98,63,0,0
28600,-76.9230769230769,4,2,98,5,0,0
28684,-105.263157894737,4,2,98,63,0,0
32729,-105.263157894737,4,2,98,63,0,0
34077,-105.263157894737,4,2,98,63,0,0
35425,-105.263157894737,4,2,98,63,0,0
37953,-100,4,2,98,63,0,0
38796,-100,4,2,98,63,0,0
39470,-125,4,2,98,63,0,0
47560,-100,4,2,98,63,0,0
48740,-105.263157894737,4,2,98,63,0,0
50257,-105.263157894737,4,2,98,68,0,0
55482,-105.263157894737,4,2,98,68,0,0
58178,-100,4,2,98,73,0,0
59526,-76.9230769230769,4,2,98,75,0,0
59779,-76.9230769230769,4,2,98,5,0,0
59864,-76.9230769230769,4,2,98,75,0,0
59948,-76.9230769230769,4,2,98,5,0,0
60032,-76.9230769230769,4,2,98,75,0,0
60369,-100,4,2,98,40,0,0
61043,-100,4,2,98,80,0,1
71156,-100,4,2,98,80,0,0
71830,-100,4,2,98,80,0,1
77223,-100,4,2,98,80,0,1
79246,-133.333333333333,4,2,98,80,0,1
79835,-133.333333333333,4,2,98,5,0,1
79920,-100,4,2,98,80,0,1
83796,-100,4,2,98,80,0,1
85313,-100,4,2,98,60,0,0
90369,-100,4,2,98,45,0,0
90706,-111.111111111111,4,2,97,45,0,0
96015,-111.111111111111,4,2,97,5,0,0
96100,-111.111111111111,4,2,97,45,0,0
98628,-100,4,2,98,45,0,0
100987,-133.333333333333,4,2,98,45,0,0
101409,-133.333333333333,4,2,98,5,0,0
101493,-105.263157894737,4,2,98,63,0,0
106886,-105.263157894737,4,2,98,63,0,0
108234,-105.263157894737,4,2,98,63,0,0
111605,-125,4,2,98,63,0,0
120369,-111.111111111111,4,2,98,63,0,0
121549,-111.111111111111,4,2,98,63,0,0
123066,-111.111111111111,4,2,98,68,0,0
130987,-111.111111111111,4,2,98,73,0,0
132335,-76.9230769230769,4,2,98,75,0,0
132588,-76.9230769230769,4,2,98,5,0,0
132673,-76.9230769230769,4,2,98,75,0,0
132757,-76.9230769230769,4,2,98,5,0,0
132841,-76.9230769230769,4,2,98,75,0,0
133178,-100,4,2,98,60,0,0
133852,-100,4,2,98,80,0,1
139246,-100,4,2,98,80,0,1
141942,-100,4,2,98,80,0,1
143965,-100,4,2,98,80,0,0
144639,-100,4,2,98,80,0,1
148684,-100,4,2,98,80,0,1
152307,-117.647058823529,4,2,98,80,0,1
152644,-133.333333333333,4,2,98,5,0,1
152729,-100,4,2,98,80,0,1
156605,-100,4,2,98,80,0,1
158122,-350,4,2,98,55,0,0
163515,-100,4,2,98,68,0,0
167307,-100,4,2,98,5,0,0
167392,-100,4,2,98,68,0,0
167476,-100,4,2,98,5,0,0
167560,-200,4,2,98,68,0,0
168909,-105.263157894737,4,2,98,65,0,0
178178,-100,4,2,98,70,0,0
179695,-100,4,2,98,70,0,0
187785,-100,4,2,98,73,0,0
190482,-100,4,2,98,76,0,0
198571,-133.333333333333,4,2,98,65,0,0
200173,-133.333333333333,4,2,98,5,0,0
200257,-133.333333333333,4,2,98,65,0,0
200510,-133.333333333333,4,2,98,5,0,0
200594,-133.333333333333,4,2,98,65,0,0
200847,-133.333333333333,4,2,98,5,0,0
200931,-133.333333333333,4,2,98,65,0,0
201605,-111.111111111111,4,2,98,65,0,0
203965,-100,4,2,98,80,0,1
209358,-100,4,2,98,80,0,1
213234,-100,4,2,98,80,0,1
214077,-100,4,2,98,80,0,0
214751,-100,4,2,98,80,0,1
220144,-100,4,2,98,80,0,1
222167,-133.333333333333,4,2,98,80,0,1
224189,-100,4,2,98,80,0,1
226717,-100,4,2,98,80,0,1
228234,-117.647058823529,4,2,97,45,0,0
232279,-117.647058823529,4,2,97,45,0,0
233628,-117.647058823529,4,2,97,45,0,0
235987,-76.9230769230769,4,2,97,45,0,0
236324,-76.9230769230769,4,2,97,5,0,0

[Colours]
Combo1 : 255,168,125
Combo2 : 255,128,128
Combo3 : 158,158,207
Combo4 : 255,108,255

[HitObjects]
212,121,1718,5,2,0:0:0:0:
128,86,1886,2,0,L|132:144,1,38.2499988327027
204,197,2055,6,0,L|215:104,1,76.4999976654053,10|0,0:0|0:0,0:0:0:0:
122,201,2392,2,0,L|133:108,1,76.4999976654053,2|0,0:0|0:0,0:0:0:0:
41,207,2729,2,0,L|52:114,1,76.4999976654053,10|0,0:0|0:0,0:0:0:0:
204,44,3066,5,2,0:0:0:0:
284,50,3234,2,0,L|289:12,1,38.2499988327027
204,44,3403,6,0,L|212:119,1,76.4999976654053,10|0,0:0|0:0,0:0:0:0:
284,50,3740,2,0,L|292:125,1,76.4999976654053,2|0,0:0|0:0,0:0:0:0:
365,59,4077,2,0,L|373:134,1,76.4999976654053,10|0,0:0|0:0,0:0:0:0:
313,263,4414,5,2,0:0:0:0:
235,231,4583,2,0,L|238:167,2,38.2499988327027,0|0|10,0:0|0:0|0:0,0:0:0:0:
159,263,4920,2,0,L|156:327,2,38.2499988327027,0|0|2,0:0|0:0|0:0,0:0:0:0:
235,231,5257,5,0,0:0:0:0:
169,181,5425,1,10,0:0:0:0:
94,213,5594,1,0,0:0:0:0:
160,104,5762,6,0,L|169:187,1,76.4999976654053,2|0,0:0|0:0,0:0:0:0:
224,306,6100,2,0,L|235:225,1,76.4999976654053,10|0,0:0|0:0,0:0:0:0:
297,177,6437,6,0,B|347:174|347:174|394:197|394:197|468:192,1,152.999995330811,2|10,0:0|0:0,0:0:0:0:
444,193,7111,6,0,L|463:44,1,145.374451638495,4|0,1:0|0:0,0:0:0:0:
462,48,8291,1,2,0:0:0:0:
320,53,8459,6,0,L|338:197,1,145.374451638495,4|8,1:0|0:0,0:0:0:0:
338,197,9639,1,2,0:0:0:0:
198,196,9807,6,0,L|216:51,1,145.374451638495,4|0,1:0|0:0,0:0:0:0:
216,51,10987,1,2,0:0:0:0:
74,69,11156,6,0,L|91:199,1,121.145376365413,4|0,1:0|0:0,0:0:0:0:
148,292,12167,1,10,0:0:0:0:
149,281,12251,1,8,0:3:0:0:
150,270,12335,1,4,0:3:0:0:
151,260,12419,1,0,1:0:0:0:
152,249,12504,5,4,1:0:0:0:
91,189,12673,1,2,0:0:0:0:
222,198,12841,2,0,P|237:235|218:303,1,85,8|0,0:0|0:0,0:0:0:0:
300,153,13178,2,0,B|253:134|214:157|214:157|170:183|125:155,1,170,2|8,1:2|0:0,0:0:0:0:
171,85,13684,1,2,0:0:0:0:
283,235,13852,6,0,P|326:236|373:188,1,85,2|0,1:2|0:0,0:0:0:0:
334,358,14189,2,0,P|303:325|236:330,1,85,10|2,0:0|0:0,0:0:0:0:
265,318,14442,1,0,0:0:0:0:
265,318,14526,1,0,1:2:0:0:
180,349,14695,1,2,0:0:0:0:
171,186,14864,2,0,P|198:225|190:281,1,85,8|0,0:0|0:0,0:0:0:0:
34,185,15201,5,6,1:2:0:0:
55,105,15369,1,0,0:0:0:0:
91,248,15538,1,10,0:0:0:0:
70,328,15706,1,0,0:0:0:0:
70,328,15791,1,0,0:0:0:0:
70,328,15875,2,0,P|39:315|14:282,2,42.5,2|8|0,1:2|0:0|1:0,0:0:0:0:
150,187,16212,6,0,P|134:173|114:168,1,42.5,8|0,0:3|0:0,0:0:0:0:
55,105,16380,2,0,P|70:93|104:86,1,42.5,4|0,0:3|0:0,0:0:0:0:
150,187,16549,6,0,B|191:205|229:186|229:186|280:161|321:188,1,170,4|0,1:0|0:0,0:0:0:0:
333,289,17392,1,2,1:2:0:0:
118,265,17560,1,8,0:0:0:0:
333,289,17897,6,0,P|355:249|331:184,1,80.7499978437424,6|0,1:2|0:0,0:0:0:0:
289,148,18234,2,0,B|266:133|259:115|259:115|276:259,1,161.499995687485,10|0,0:0|0:0,0:0:0:0:
333,289,18740,1,2,1:2:0:0:
333,289,18909,2,0,P|381:289|418:244,1,80.7499978437424,8|0,0:0|0:0,0:0:0:0:
441,126,19246,6,0,B|397:109|358:139|358:139|312:171|257:130,1,161.499995687485,2|8,1:2|0:0,0:0:0:0:
190,127,19751,2,0,B|234:110|273:140|273:140|319:172|374:131,1,161.499995687485,2|0,1:2|1:0,0:0:0:0:
131,70,20257,2,0,P|109:113|126:168,1,80.7499978437424,8|0,0:0|0:0,0:0:0:0:
235,230,20594,6,0,P|207:209|150:214,1,80.7499978437424,2|0,1:2|0:0,0:0:0:0:
22,276,20931,2,0,B|64:258|97:282|97:282|153:316|204:268,1,161.499995687485,10|0,0:0|0:0,0:0:0:0:
235,230,21437,1,2,1:2:0:0:
235,230,21605,2,0,P|256:270|248:321,1,80.7499978437424,8|0,0:0|0:0,0:0:0:0:
361,360,21942,6,0,L|375:186,1,161.499995687485,2|8,1:2|0:0,0:0:0:0:
384,89,22448,2,0,L|370:258,1,161.499995687485,2|0,1:2|1:0,0:0:0:0:
284,221,22953,2,0,P|262:179|272:129,1,80.7499978437424,10|0,0:0|0:0,0:0:0:0:
298,39,23291,6,0,P|262:67|208:56,1,80.7499978437424,2|0,1:2|0:0,0:0:0:0:
109,137,23628,1,10,0:0:0:0:
109,137,23796,2,0,B|151:120|187:142|187:142|242:169|283:134,1,161.499995687485,0|2,0:0|1:2,0:0:0:0:
140,216,24302,2,0,P|90:235|44:216,1,80.7499978437424,8|0,0:0|0:0,0:0:0:0:
201,290,24639,6,0,P|257:233|337:264,1,161.499995687485,2|8,1:2|0:0,0:0:0:0:
344,358,25144,2,0,P|356:303|286:232,1,161.499995687485,2|0,1:2|1:0,0:0:0:0:
276,314,25650,1,8,0:0:0:0:
454,250,25819,5,6,1:2:0:0:
454,250,26156,1,2,1:2:0:0:
483,165,26325,1,2,1:2:0:0:
430,92,26493,1,0,1:2:0:0:
308,155,26661,5,8,0:0:0:0:
293,197,26830,1,2,1:2:0:0:
320,234,26998,1,8,0:0:0:0:
358,41,27167,5,6,1:2:0:0:
358,41,27504,1,2,1:2:0:0:
269,54,27673,1,2,1:2:0:0:
181,63,27841,1,0,1:2:0:0:
247,222,28010,5,8,0:0:0:0:
291,217,28178,1,2,0:0:0:0:
335,211,28347,2,0,P|374:152|297:129,1,165.749992412568,12|0,0:0|0:0,0:0:0:0:
292,134,28684,6,0,P|246:135|201:94,1,80.7499978437424,4|0,1:0|0:0,0:0:0:0:
30,95,29021,2,0,P|68:46|173:71,1,161.499995687485,10|0,0:0|0:0,0:0:0:0:
217,117,29526,1,2,1:2:0:0:
217,117,29695,2,0,P|261:123|308:80,1,80.7499978437424,8|0,0:0|0:0,0:0:0:0:
419,216,30032,6,0,B|397:326|397:326|366:272,1,161.499995687485,2|8,1:2|0:0,0:0:0:0:
347,171,30538,2,0,B|383:158|419:180|419:180|467:210|500:193,1,161.499995687485,2|0,1:2|1:0,0:0:0:0:
285,114,31043,2,0,P|264:157|280:215,1,80.7499978437424,10|0,0:0|0:0,0:0:0:0:
303,294,31380,6,0,P|263:269|212:281,1,80.7499978437424,2|0,1:2|0:0,0:0:0:0:
108,337,31717,2,0,P|152:254|121:195,1,161.499995687485,10|0,0:0|0:0,0:0:0:0:
44,219,32223,2,0,P|28:255|39:303,1,80.7499978437424,2|8,1:2|0:0,0:0:0:0:
125,199,32560,1,0,0:0:0:0:
0,132,32729,6,0,B|33:148|73:126|73:126|112:98|160:118,1,161.499995687485,2|8,1:2|0:0,0:0:0:0:
208,179,33234,2,0,P|295:184|331:102,1,161.499995687485,2|0,1:2|1:0,0:0:0:0:
265,35,33740,2,0,P|246:73|265:132,1,80.7499978437424,10|0,0:0|0:0,0:0:0:0:
372,220,34077,6,0,P|421:219|457:171,1,80.7499978437424,6|0,1:2|0:0,0:0:0:0:
332,143,34414,1,10,0:0:0:0:
332,143,34583,2,0,B|295:125|255:151|255:151|213:180|164:150,1,161.499995687485,0|0,0:0|1:0,0:0:0:0:
78,118,35088,2,0,P|94:142|89:208,1,80.7499978437424,10|0,0:0|0:0,0:0:0:0:
30,274,35425,6,0,P|92:223|173:253,1,161.499995687485,2|8,1:2|0:0,0:0:0:0:
312,161,35931,2,0,P|255:153|228:118,1,80.7499978437424,2|0,1:2|0:0,0:0:0:0:
266,59,36268,1,2,1:2:0:0:
266,59,36437,2,0,P|316:64|352:105,1,80.7499978437424,8|0,0:0|0:0,0:0:0:0:
382,253,36774,5,6,1:2:0:0:
395,141,36942,1,2,1:2:0:0:
382,253,37111,1,8,0:0:0:0:
312,109,37448,5,6,1:2:0:0:
296,265,37616,1,2,1:2:0:0:
312,109,37785,1,8,0:0:0:0:
211,278,37953,5,6,1:2:0:0:
211,278,38291,1,2,1:2:0:0:
223,176,38459,1,2,1:2:0:0:
233,77,38628,1,2,1:2:0:0:
97,169,38796,5,10,0:0:0:0:
73,179,38880,1,0,0:0:0:0:
49,171,38964,1,0,0:0:0:0:
37,149,39048,1,0,0:0:0:0:
44,124,39133,1,4,0:3:0:0:
66,112,39217,1,0,0:0:0:0:
91,119,39301,1,0,0:0:0:0:
104,142,39385,1,0,0:0:0:0:
97,169,39470,6,0,P|161:217|220:194,1,136,4|0,1:0|0:0,0:0:0:0:
267,141,39976,1,2,1:2:0:0:
267,141,40144,2,0,B|306:131|336:153|336:153|372:174|417:148,1,136,0|8,1:0|0:0,0:0:0:0:
473,119,40650,2,0,P|433:65|360:99,2,136,2|0|0,1:2|1:0|1:0,0:0:0:0:
397,157,41493,2,0,B|373:193|373:193|395:307,1,136,2|10,1:2|0:0,0:0:0:0:
390,284,41998,1,0,0:0:0:0:
276,350,42167,6,0,P|236:351|199:319,2,68,2|0|0,1:2|0:0|0:0,0:0:0:0:
232,261,42673,1,2,1:2:0:0:
232,261,42841,2,0,B|202:244|159:270|159:270|122:289|76:260,1,136,0|8,1:0|0:0,0:0:0:0:
107,133,43347,6,0,P|126:164|113:219,1,68,2|0,1:2|0:0,0:0:0:0:
232,261,43684,2,0,P|215:227|234:173,1,68,2|0,1:2|0:0,0:0:0:0:
296,162,44021,1,8,0:3:0:0:
296,162,44189,1,0,1:2:0:0:
145,79,44358,5,8,0:0:0:0:
135,115,44526,1,8,0:0:0:0:
171,106,44695,1,4,0:3:0:0:
151,103,44864,6,0,P|215:63|270:84,1,136,6|0,1:2|0:0,0:0:0:0:
330,140,45369,1,2,1:2:0:0:
330,140,45538,2,0,B|365:153|398:132|398:132|434:108|482:135,1,136,0|8,1:0|0:0,0:0:0:0:
488,207,46043,2,0,P|450:246|372:213,2,136,2|0|0,1:2|1:0|1:0,0:0:0:0:
319,170,46886,2,0,P|300:200|302:245,1,68,2|0,1:2|0:0,0:0:0:0:
391,328,47223,2,0,P|353:326|322:294,1,68,8|0,0:0|0:0,0:0:0:0:
145,329,47560,5,6,1:2:0:0:
145,329,47897,1,8,0:0:0:0:
219,286,48066,1,8,0:3:0:0:
222,265,48150,1,4,0:3:0:0:
224,244,48234,1,0,1:0:0:0:
158,149,48403,1,8,0:3:0:0:
156,170,48487,1,4,0:3:0:0:
153,191,48571,1,0,1:0:0:0:
69,221,48740,6,0,B|106:208|142:230|142:230|190:260|237:238,1,161.499995687485,6|0,1:2|1:0,0:0:0:0:
215,91,49246,2,0,P|192:135|213:193,1,80.7499978437424,8|0,0:0|0:0,0:0:0:0:
341,208,49583,2,0,P|361:175|360:132,1,80.7499978437424,8|0,0:3|0:0,0:0:0:0:
278,150,49920,1,10,0:0:0:0:
278,150,50088,1,0,0:0:0:0:
304,285,50257,5,14,0:0:0:0:
114,266,50594,1,10,0:0:0:0:
114,266,50931,5,10,0:0:0:0:
208,274,51100,1,0,1:0:0:0:
304,285,51268,2,0,P|320:239|307:199,1,80.7499978437424,10|0,0:0|0:0,0:0:0:0:
256,104,51605,5,6,1:2:0:0:
418,150,51774,1,0,0:0:0:0:
418,150,51942,1,8,0:0:0:0:
256,104,52111,2,0,B|214:86|170:115|170:115|128:141|75:99,1,161.499995687485,2|0,1:2|1:0,0:0:0:0:
43,24,52616,5,8,0:0:0:0:
43,24,52785,2,0,L|35:71,1,40.3749989218712,8|4,0:3|0:3,0:0:0:0:
0,211,52953,5,14,0:0:0:0:
223,180,53291,1,10,0:0:0:0:
223,180,53628,5,10,0:0:0:0:
110,194,53796,1,0,1:0:0:0:
0,211,53965,2,0,P|-3:250|14:286,1,80.7499978437424,10|0,0:0|0:0,0:0:0:0:
125,304,54302,5,6,1:2:0:0:
160,121,54470,1,2,1:2:0:0:
160,121,54639,1,8,0:0:0:0:
295,182,54807,2,0,B|257:169|221:191|221:191|173:221|126:199,1,161.499995687485,2|2,1:2|1:2,0:0:0:0:
271,261,55313,5,8,0:0:0:0:
332,64,55482,1,4,1:0:0:0:
332,64,55819,5,2,1:2:0:0:
246,80,55987,2,0,P|230:120|262:185,1,80.7499978437424,8|0,0:0|0:0,0:0:0:0:
395,183,56324,1,2,1:2:0:0:
395,183,56493,2,0,P|411:138|391:84,1,80.7499978437424,0|8,1:0|0:0,0:0:0:0:
314,222,56830,2,0,P|412:214|451:281,1,161.499995687485,6|2,1:2|1:2,0:0:0:0:
244,276,57335,5,8,0:0:0:0:
232,193,57504,1,0,0:0:0:0:
165,307,57673,5,8,0:0:0:0:
150,184,57841,1,0,0:0:0:0:
89,343,58010,5,8,0:0:0:0:
68,177,58178,1,4,1:0:0:0:
68,177,58515,5,2,1:2:0:0:
244,276,58684,2,0,P|264:240|251:184,1,85,8|0,0:0|1:0,0:0:0:0:
192,23,59021,2,0,P|170:65|180:107,1,85,8|0,0:0|1:0,0:0:0:0:
176,100,59274,1,4,0:3:0:0:
176,100,59358,1,8,0:0:0:0:
405,66,59526,6,0,B|367:31|318:49|318:49|291:92|229:73,1,165.749992412568,4|0,1:0|0:0,0:0:0:0:
256,78,59864,6,0,L|266:149,1,55.2499974708558,10|0,0:0|0:0,0:0:0:0:
280,216,60032,1,10,0:0:0:0:
82,94,61043,5,4,1:0:0:0:
287,129,61212,2,0,L|271:252,1,85,2|8,0:0|0:0,0:0:0:0:
168,333,61549,5,2,0:0:0:0:
264,308,61717,1,0,1:0:0:0:
168,333,61886,2,0,L|157:248,1,85,2|8,0:0|0:0,0:0:0:0:
136,74,62223,1,2,0:0:0:0:
224,117,62392,6,0,P|256:121|311:87,1,85,2|0,1:2|0:0,0:0:0:0:
157,248,62729,2,0,P|120:227|78:229,1,85,10|0,0:0|0:0,0:0:0:0:
221,323,63066,5,2,1:2:0:0:
310,290,63234,1,0,0:0:0:0:
256,138,63403,5,10,0:0:0:0:
167,171,63571,1,2,0:0:0:0:
237,230,63740,5,4,1:2:0:0:
409,178,63909,2,0,L|416:74,1,85,2|8,0:0|0:0,0:0:0:0:
240,44,64246,5,2,0:0:0:0:
328,69,64414,1,0,1:0:0:0:
240,44,64583,2,0,L|250:135,1,85,2|8,0:0|0:0,0:0:0:0:
269,309,64920,1,2,0:0:0:0:
411,170,65088,6,0,P|364:170|318:142,1,85,2|0,1:2|0:0,0:0:0:0:
244,229,65425,2,0,P|286:227|323:245,1,85,10|0,0:0|0:0,0:0:0:0:
452,148,65762,2,0,P|363:170|299:102,1,170,2|8,1:2|0:0,0:0:0:0:
383,52,66268,1,2,0:0:0:0:
385,70,66352,1,0,0:0:0:0:
387,90,66436,1,6,1:2:0:0:
260,233,66605,6,0,L|148:216,1,85,2|8,0:0|0:0,0:0:0:0:
144,359,66942,1,2,0:0:0:0:
309,315,67111,1,0,1:2:0:0:
223,186,67279,2,0,L|204:308,1,85,2|8,0:0|0:0,0:0:0:0:
147,136,67616,6,0,B|195:124|229:146|229:146|283:182|344:132,1,170,2|0,0:0|0:0,0:0:0:0:
85,199,68122,2,0,P|61:156|63:120,1,85,10|0,0:0|0:0,0:0:0:0:
124,58,68459,2,0,P|148:101|146:137,1,85,2|0,1:2|0:0,0:0:0:0:
0,195,68796,6,0,L|106:199,1,85,10|0,0:0|0:0,0:0:0:0:
208,61,69133,2,0,L|102:57,1,85,4|0,1:2|0:0,0:0:0:0:
287,108,69470,1,10,0:0:0:0:
303,69,69639,1,0,0:0:0:0:
295,28,69807,1,0,1:0:0:0:
162,141,69976,5,2,0:0:0:0:
112,217,70144,1,2,0:0:0:0:
144,301,70313,2,0,B|192:289|226:311|226:311|280:347|341:297,1,170,4|0,1:0|1:0,0:0:0:0:
285,158,70819,6,0,P|266:202|278:248,1,85,8|0,0:0|0:0,0:0:0:0:
272,237,71071,1,4,0:3:0:0:
272,237,71156,1,2,1:2:0:0:
377,121,71324,1,8,0:0:0:0:
377,121,71493,1,8,0:0:0:0:
197,65,71661,2,0,L|207:133,1,42.5,2|0,0:0|0:0,0:0:0:0:
285,158,71830,5,4,1:0:0:0:
88,224,71998,2,0,L|68:116,1,85,2|8,0:0|0:0,0:0:0:0:
183,76,72335,5,2,0:0:0:0:
95,49,72504,1,0,1:0:0:0:
183,76,72673,2,0,L|167:159,1,85,2|8,0:0|0:0,0:0:0:0:
74,307,73010,1,2,0:0:0:0:
146,253,73178,6,0,P|193:253|232:293,1,85,2|0,1:2|0:0,0:0:0:0:
85,128,73515,2,0,P|38:128|-1:168,1,85,10|0,0:0|0:0,0:0:0:0:
134,45,73852,5,2,1:2:0:0:
223,70,74021,1,0,0:0:0:0:
175,244,74189,5,10,0:0:0:0:
86,219,74358,1,2,0:0:0:0:
86,219,74442,1,0,0:0:0:0:
86,219,74526,1,4,1:2:0:0:
255,186,74695,2,0,L|271:288,1,85,2|8,0:0|0:0,0:0:0:0:
123,47,75032,5,2,0:0:0:0:
216,63,75201,1,0,1:0:0:0:
123,47,75369,2,0,L|107:149,1,85,2|8,0:0|0:0,0:0:0:0:
174,297,75706,5,2,0:0:0:0:
55,203,75875,2,0,P|115:220|152:208,1,85,2|0,1:2|0:0,0:0:0:0:
254,284,76212,2,0,P|212:280|173:296,1,85,10|0,0:0|0:0,0:0:0:0:
333,339,76549,6,0,B|375:364|375:364|355:208,1,170,2|8,1:2|0:0,0:0:0:0:
327,72,77055,1,2,0:0:0:0:
493,126,77223,6,0,L|479:224,1,85,6|0,1:2|0:0,0:0:0:0:
383,337,77560,1,10,0:0:0:0:
359,243,77729,1,0,0:0:0:0:
383,337,77897,2,0,B|341:315|298:339|298:339|252:365|185:323,1,170,2|10,1:2|0:0,0:0:0:0:
193,249,78403,1,2,0:0:0:0:
372,155,78571,6,0,L|384:56,1,85,2|0,1:2|0:0,0:0:0:0:
359,243,78909,1,8,0:0:0:0:
401,57,79077,5,2,0:0:0:0:
401,57,79161,1,0,0:0:0:0:
401,57,79246,2,0,L|373:298,1,223.125008511544,6|0,0:0|0:0,0:0:0:0:
384,298,79920,5,4,1:0:0:0:
303,185,80088,1,2,1:2:0:0:
181,246,80257,1,8,0:0:0:0:
181,246,80594,5,2,1:2:0:0:
308,159,80762,1,2,1:2:0:0:
384,298,80931,1,8,0:0:0:0:
384,298,81100,1,2,1:2:0:0:
181,246,81268,6,0,L|78:257,1,85,10|0,0:0|0:0,0:0:0:0:
154,154,81605,2,0,P|112:161|70:165,1,85,10|0,0:0|0:0,0:0:0:0:
131,68,81942,5,8,0:0:0:0:
154,154,82111,1,0,1:0:0:0:
181,246,82279,1,8,0:0:0:0:
372,197,82448,5,4,1:0:0:0:
372,197,82785,1,2,0:0:0:0:
340,190,82953,1,0,0:0:0:0:
188,277,83122,5,2,0:0:0:0:
220,284,83290,1,0,0:0:0:0:
245,193,83459,5,2,0:0:0:0:
213,186,83627,1,0,0:0:0:0:
97,304,83796,6,0,B|139:282|182:306|182:306|228:332|295:290,1,170,4|0,1:0|1:2,0:0:0:0:
309,227,84302,5,10,0:0:0:0:
119,210,84470,1,2,0:0:0:0:
107,117,84807,5,10,0:0:0:0:
355,142,84976,1,10,0:0:0:0:
117,250,90706,38,0,B|147:270|147:270|203:260,1,76.4999976654053,6|0,0:0|0:0,0:0:0:0:
202,182,91043,2,0,B|170:162|170:162|115:173,1,76.4999976654053,10|0,0:0|0:0,0:0:0:0:
265,238,91380,5,2,0:0:0:0:
265,238,91549,1,0,0:0:0:0:
340,204,91717,2,0,L|336:127,1,76.4999976654053,10|0,0:0|0:0,0:0:0:0:
259,86,92055,6,0,B|310:81|310:81|356:94|356:94|420:83,1,152.999995330811,2|10,0:0|0:0,0:0:0:0:
477,36,92560,2,0,B|492:72|492:72|487:130,2,76.4999976654053,0|2|0,0:0|0:0|0:0,0:0:0:0:
409,84,93066,2,0,L|402:174,1,76.4999976654053,10|0,0:0|0:0,0:0:0:0:
353,226,93403,6,0,B|312:253|312:253|173:239,1,152.999995330811,2|10,0:0|0:0,0:0:0:0:
213,159,93909,1,0,0:0:0:0:
213,159,94077,2,0,L|315:171,1,76.4999976654053,2|0,0:0|0:0,0:0:0:0:
136,198,94414,2,0,L|124:118,1,76.4999976654053,10|0,0:0|0:0,0:0:0:0:
46,87,94751,6,0,B|100:90|100:90|141:71|141:71|226:74,1,152.999995330811,2|10,0:0|0:0,0:0:0:0:
266,114,95257,1,0,0:0:0:0:
342,30,95425,2,0,L|233:30,1,76.4999976654053,2|0,0:0|0:0,0:0:0:0:
351,112,95762,2,0,L|502:109,1,114.749996498108,10|0,0:0|0:0,0:0:0:0:
478,100,96100,6,0,L|467:201,1,76.4999976654053,2|0,0:0|0:0,0:0:0:0:
450,267,96437,2,0,B|390:218|390:218|313:248,1,152.999995330811,10|2,0:0|0:0,0:0:0:0:
284,171,96942,1,0,0:0:0:0:
284,171,97111,2,0,L|378:135,1,76.4999976654053,10|0,0:0|0:0,0:0:0:0:
235,50,97448,6,0,B|181:45|181:45|137:62|137:62|60:55,1,152.999995330811,2|8,0:0|0:0,0:0:0:0:
18,9,97953,2,0,B|1:45|1:45|9:92,1,76.4999976654053,2|0,0:0|0:0,0:0:0:0:
69,139,98291,1,2,0:0:0:0:
69,139,98459,1,10,0:0:0:0:
201,79,98628,5,6,0:0:0:0:
201,79,98965,1,2,0:0:0:0:
188,161,99133,1,2,0:0:0:0:
175,244,99302,1,0,0:0:0:0:
304,223,99470,5,2,0:0:0:0:
310,181,99639,1,0,0:0:0:0:
317,140,99807,1,0,0:0:0:0:
249,310,99976,5,6,0:0:0:0:
249,310,100313,1,2,0:0:0:0:
342,298,100482,1,2,0:0:0:0:
434,288,100650,1,0,0:0:0:0:
363,135,100819,5,2,0:0:0:0:
317,140,100987,1,0,1:0:0:0:
270,146,101156,2,0,L|278:42,1,95.6250036478044,10|0,0:0|0:0,0:0:0:0:
289,41,101493,6,0,P|245:21|200:32,1,80.7499978437424,4|0,1:0|0:0,0:0:0:0:
115,132,101830,2,0,B|158:117|193:142|193:142|236:168|288:136,1,161.499995687485,10|0,0:0|0:0,0:0:0:0:
344,103,102335,1,2,1:2:0:0:
269,145,102504,2,0,L|287:260,1,80.7499978437424,8|0,0:0|0:0,0:0:0:0:
405,292,102841,6,0,B|360:277|324:298|324:298|282:323|221:292,1,161.499995687485,2|8,1:2|0:0,0:0:0:0:
97,265,103347,2,0,P|133:203|203:242,1,161.499995687485,2|0,1:2|1:0,0:0:0:0:
288,278,103852,2,0,P|280:236|305:189,1,80.7499978437424,8|0,0:0|0:0,0:0:0:0:
368,93,104189,6,0,P|328:118|279:112,1,80.7499978437424,2|0,1:2|0:0,0:0:0:0:
164,68,104526,2,0,P|214:130|189:206,1,161.499995687485,10|0,0:0|0:0,0:0:0:0:
110,182,105032,1,2,1:2:0:0:
192,202,105201,2,0,L|287:193,1,80.7499978437424,8|0,0:0|0:0,0:0:0:0:
124,344,105538,5,2,1:2:0:0:
124,344,105622,1,0,0:0:0:0:
124,344,105706,2,0,L|115:274,2,40.3749989218712,0|0|8,0:0|0:0|0:0,0:0:0:0:
55,242,106043,2,0,P|121:283|193:254,1,161.499995687485,2|0,1:2|1:0,0:0:0:0:
193,253,106465,1,0,0:0:0:0:
193,253,106549,1,10,0:0:0:0:
128,198,106717,1,0,0:0:0:0:
262,306,106886,6,0,P|301:285|345:293,1,80.7499978437424,6|0,1:2|0:0,0:0:0:0:
451,332,107223,2,0,B|470:339|488:361|488:361|471:237,1,161.499995687485,10|0,0:0|0:0,0:0:0:0:
351,219,107729,1,2,1:2:0:0:
401,104,107897,2,0,P|425:150|410:201,1,80.7499978437424,8|0,0:0|0:0,0:0:0:0:
276,258,108234,6,0,P|226:206|253:112,1,161.499995687485,2|8,1:2|0:0,0:0:0:0:
365,58,108740,2,0,B|320:73|284:52|284:52|242:27|181:58,1,161.499995687485,2|0,1:2|1:0,0:0:0:0:
158,115,109246,2,0,P|112:119|72:90,1,80.7499978437424,8|0,0:0|0:0,0:0:0:0:
220,258,109583,5,6,1:2:0:0:
242,124,109751,1,2,1:2:0:0:
220,258,109920,1,8,0:0:0:0:
326,127,110257,5,6,1:2:0:0:
298,285,110425,1,2,1:2:0:0:
326,127,110594,1,8,0:0:0:0:
377,314,110762,5,4,1:2:0:0:
377,314,111100,1,2,1:2:0:0:
394,219,111268,1,2,1:2:0:0:
410,124,111437,1,2,1:2:0:0:
275,192,111605,5,10,0:0:0:0:
251,202,111689,1,0,0:0:0:0:
227,194,111773,1,0,0:0:0:0:
215,172,111857,1,0,0:0:0:0:
222,147,111942,1,4,0:3:0:0:
244,135,112026,1,0,0:0:0:0:
269,142,112110,1,0,0:0:0:0:
282,165,112194,1,0,0:0:0:0:
275,192,112279,6,0,L|265:45,1,136,4|0,1:0|0:0,0:0:0:0:
180,61,112785,1,2,1:2:0:0:
180,61,112953,2,0,L|190:201,1,136,0|8,1:0|0:0,0:0:0:0:
133,259,113459,6,0,P|74:262|32:190,2,136,2|0|0,1:2|1:0|1:0,0:0:0:0:
189,196,114302,2,0,P|223:180|269:194,1,68,2|0,1:2|0:0,0:0:0:0:
310,337,114639,2,0,P|257:332|233:303,1,68,10|0,0:0|0:0,0:0:0:0:
297,258,114976,6,0,L|312:95,1,136,2|0,1:2|0:0,0:0:0:0:
246,68,115482,1,2,1:2:0:0:
246,68,115650,2,0,B|214:53|177:73|177:73|138:98|86:66,1,136,0|8,1:0|0:0,0:0:0:0:
50,30,116156,6,0,P|34:66|41:102,1,68,2|0,1:2|0:0,0:0:0:0:
77,223,116493,2,0,P|93:184|82:143,1,68,2|0,1:2|0:0,0:0:0:0:
37,93,116830,1,8,0:3:0:0:
37,93,116998,1,0,1:0:0:0:
190,147,117167,5,10,0:0:0:0:
196,113,117335,1,10,0:0:0:0:
164,125,117504,1,4,0:3:0:0:
185,130,117673,6,0,B|222:139|252:123|252:123|289:106|333:122,1,136,6|0,1:2|0:0,0:0:0:0:
378,179,118178,1,2,1:2:0:0:
315,316,118347,2,0,P|278:265|312:185,1,136,0|8,1:0|0:0,0:0:0:0:
426,263,118852,6,0,P|380:247|338:257,1,68,2|0,1:2|0:0,0:0:0:0:
315,316,119189,2,0,B|280:332|247:313|247:313|211:293|173:318,1,136,2|0,1:2|1:0,0:0:0:0:
112,358,119695,1,2,1:2:0:0:
98,208,119864,1,8,0:0:0:0:
98,208,120032,2,0,L|109:303,1,68,10|0,0:0|1:0,0:0:0:0:
21,169,120285,1,8,0:3:0:0:
21,169,120369,6,0,B|62:183|98:166|98:166|134:145|192:173,1,152.999995330811,6|8,1:2|0:0,0:0:0:0:
293,261,120875,1,2,1:2:0:0:
301,180,121212,1,2,1:2:0:0:
313,97,121549,6,0,P|247:75|193:137,1,152.999995330811,6|0,1:2|1:0,0:0:0:0:
194,214,122055,1,8,0:0:0:0:
74,95,122223,2,0,P|166:86|195:143,1,152.999995330811,2|0,1:2|1:0,0:0:0:0:
140,200,122729,2,0,P|97:200|59:154,1,76.4999976654053,8|0,0:0|0:0,0:0:0:0:
248,330,123066,5,14,0:0:0:0:
281,133,123403,1,10,0:0:0:0:
281,133,123740,5,10,0:0:0:0:
267,231,123909,1,0,1:0:0:0:
248,330,124077,2,0,P|293:333|328:304,1,76.4999976654053,10|0,0:0|0:0,0:0:0:0:
440,211,124414,5,6,1:2:0:0:
376,100,124583,2,0,P|357:144|374:197,1,76.4999976654053,2|8,0:0|0:0,0:0:0:0:
440,211,124920,2,0,B|402:193|362:218|362:218|325:239|275:217,1,152.999995330811,2|0,1:2|1:0,0:0:0:0:
245,88,125425,2,0,P|230:121|251:183,1,76.4999976654053,8|0,0:0|0:0,0:0:0:0:
412,289,125762,5,14,0:0:0:0:
452,76,126100,1,10,0:0:0:0:
452,76,126437,5,10,0:0:0:0:
433,181,126605,1,0,1:0:0:0:
412,289,126774,2,0,P|368:288|335:249,1,76.4999976654053,10|0,0:0|0:0,0:0:0:0:
268,118,127111,6,0,B|290:111|305:92|305:92|287:223,1,152.999995330811,6|8,1:2|0:0,0:0:0:0:
366,348,127616,2,0,B|344:355|329:374|329:374|347:243,1,152.999995330811,2|2,1:2|1:2,0:0:0:0:
416,226,128122,1,8,0:0:0:0:
268,118,128291,1,4,1:0:0:0:
268,118,128628,5,2,1:2:0:0:
100,151,128796,1,10,0:0:0:0:
195,184,128965,1,0,0:0:0:0:
251,23,129133,5,2,1:2:0:0:
88,56,129301,1,2,1:2:0:0:
178,89,129470,1,8,0:0:0:0:
251,23,129639,6,0,B|287:8|323:31|323:31|367:60|419:24,1,152.999995330811,6|0,1:2|1:0,0:0:0:0:
277,101,130144,5,10,0:0:0:0:
299,228,130313,1,0,0:0:0:0:
193,90,130482,5,10,0:0:0:0:
220,263,130650,1,0,0:0:0:0:
110,86,130819,5,10,0:0:0:0:
140,298,130987,2,0,B|154:189|154:189|130:212|91:223,1,152.999995330811,4|0,1:0|1:0,0:0:0:0:
87,361,131493,2,0,P|111:375|179:365,1,76.4999976654053,10|0,0:0|0:0,0:0:0:0:
207,126,131830,2,0,P|172:110|134:113,1,76.4999976654053,10|0,0:0|0:0,0:0:0:0:
34,256,132167,5,2,1:2:0:0:
34,256,132251,1,4,0:3:0:0:
34,256,132335,2,0,B|75:218|123:238|123:238|152:275|215:258,1,165.749992412568,4|0,1:0|0:0,0:0:0:0:
184,263,132673,6,0,L|198:167,1,55.2499974708558,10|0,0:0|0:0,0:0:0:0:
207,126,132841,1,10,0:0:0:0:
89,176,133852,37,4,1:0:0:0:
281,141,134021,2,0,P|298:179|294:221,1,85,2|8,0:0|0:0,0:0:0:0:
158,332,134358,5,2,0:0:0:0:
257,315,134526,1,0,1:0:0:0:
158,332,134695,2,0,P|140:293|144:251,1,85,2|8,0:0|0:0,0:0:0:0:
208,186,135032,1,2,0:0:0:0:
86,104,135201,6,0,L|180:93,1,85,2|0,1:2|0:0,0:0:0:0:
315,288,135538,2,0,L|221:277,1,85,10|0,0:0|0:0,0:0:0:0:
57,303,135875,5,2,1:2:0:0:
43,206,136043,1,0,0:0:0:0:
216,181,136212,5,10,0:0:0:0:
230,278,136380,1,0,0:0:0:0:
135,243,136549,5,4,1:2:0:0:
314,222,136717,2,0,P|332:263|309:329,1,85,2|8,0:0|0:0,0:0:0:0:
158,140,137055,5,2,0:0:0:0:
258,127,137223,1,0,1:0:0:0:
158,140,137392,2,0,P|140:99|163:33,1,85,2|8,0:0|0:0,0:0:0:0:
236,38,137729,1,2,0:0:0:0:
102,216,137897,6,0,L|7:207,1,85,2|0,1:2|0:0,0:0:0:0:
244,306,138234,2,0,L|159:314,1,85,10|0,0:0|0:0,0:0:0:0:
17,207,138571,2,0,L|197:224,1,170,2|8,1:2|0:0,0:0:0:0:
281,81,139077,1,2,0:0:0:0:
287,60,139161,1,0,0:0:0:0:
287,39,139246,5,6,1:2:0:0:
194,56,139414,1,0,0:0:0:0:
350,110,139583,5,8,0:0:0:0:
381,20,139751,1,0,0:0:0:0:
253,132,139920,5,2,1:2:0:0:
315,203,140088,1,0,0:0:0:0:
432,123,140257,2,0,P|353:111|329:96,1,85,10|0,0:0|0:0,0:0:0:0:
146,208,140594,6,0,P|225:220|249:235,1,85,2|0,1:2|0:0,0:0:0:0:
257,305,140931,1,10,0:0:0:0:
118,367,141100,1,0,0:0:0:0:
64,213,141268,2,0,B|110:195|148:217|148:217|193:242|242:214,1,170,2|8,1:2|0:0,0:0:0:0:
227,221,141774,1,0,0:0:0:0:
221,40,141942,6,0,B|250:33|265:18|265:18|245:152,1,170,6|8,1:2|0:0,0:0:0:0:
247,297,142448,2,0,P|222:246|239:200,1,85,2|0,0:0|1:0,0:0:0:0:
385,109,142785,5,2,0:0:0:0:
436,190,142953,1,8,0:0:0:0:
409,279,143122,2,0,B|361:267|327:289|327:289|273:325|212:275,1,170,4|0,1:0|1:0,0:0:0:0:
149,268,143628,2,0,P|170:324|162:355,1,85,8|0,0:0|0:0,0:0:0:0:
166,348,143880,1,4,0:3:0:0:
166,348,143965,1,0,1:0:0:0:
77,216,144133,1,10,0:0:0:0:
77,216,144302,1,10,0:0:0:0:
225,171,144470,6,0,L|217:243,1,42.5,2|0,0:0|0:0,0:0:0:0:
149,268,144639,1,4,1:0:0:0:
316,299,144807,2,0,L|306:199,1,85,2|8,0:0|0:0,0:0:0:0:
163,83,145144,5,2,0:0:0:0:
259,60,145313,1,0,1:0:0:0:
163,83,145482,2,0,L|154:167,1,85,2|8,0:0|0:0,0:0:0:0:
140,348,145819,1,2,0:0:0:0:
224,302,145987,6,0,P|266:302|304:319,1,85,2|0,1:2|0:0,0:0:0:0:
154,167,146324,2,0,P|115:184|73:184,1,85,10|0,0:0|0:0,0:0:0:0:
191,0,146661,5,2,1:2:0:0:
287,19,146830,1,0,0:0:0:0:
250,186,146998,5,10,0:0:0:0:
154,167,147167,1,0,0:0:0:0:
218,93,147335,5,6,1:2:0:0:
179,263,147504,2,0,L|81:253,1,85,2|8,0:0|0:0,0:0:0:0:
309,129,147841,5,2,0:0:0:0:
328,220,148010,1,0,1:0:0:0:
309,129,148178,2,0,L|407:139,1,85,2|8,0:0|0:0,0:0:0:0:
418,225,148515,5,2,0:0:0:0:
244,269,148684,2,0,P|230:228|242:173,1,85,2|0,1:2|0:0,0:0:0:0:
175,117,149021,1,10,0:0:0:0:
320,220,149189,1,0,0:0:0:0:
178,331,149358,2,0,B|130:319|96:341|96:341|42:377|-19:327,1,170,2|10,1:2|0:0,0:0:0:0:
45,264,149864,1,0,0:0:0:0:
178,331,150032,6,0,P|224:336|270:314,1,85,6|0,1:2|0:0,0:0:0:0:
375,229,150369,1,10,0:0:0:0:
317,147,150538,1,0,0:0:0:0:
375,229,150706,2,0,P|304:247|230:195,1,170,2|10,1:2|0:0,0:0:0:0:
317,147,151212,1,0,0:0:0:0:
124,89,151380,6,0,L|142:209,1,85,2|0,1:2|0:0,0:0:0:0:
216,278,151717,2,0,L|228:193,1,85,8|0,0:0|0:0,0:0:0:0:
337,56,152055,2,0,L|332:13,3,42.5,2|0|0|0,0:0|0:0|0:0|0:0,0:0:0:0:
396,112,152392,6,0,P|342:100|291:156,1,108.375002067089,2|0,0:0|0:0,0:0:0:0:
294,149,152729,5,4,1:0:0:0:
442,211,152897,1,2,1:2:0:0:
312,301,153066,1,8,0:0:0:0:
306,315,153403,5,2,1:2:0:0:
458,209,153571,1,2,1:2:0:0:
286,138,153740,1,8,0:0:0:0:
286,138,153909,1,2,1:2:0:0:
369,13,154077,6,0,P|362:55|392:124,1,85,10|0,0:0|0:0,0:0:0:0:
289,220,154414,2,0,P|296:178|266:109,1,85,10|0,0:0|0:0,0:0:0:0:
195,109,154751,5,10,0:0:0:0:
285,137,154920,1,0,0:0:0:0:
372,95,155088,1,10,0:0:0:0:
303,307,155257,5,4,1:0:0:0:
303,307,155594,1,2,0:0:0:0:
271,314,155762,1,0,0:0:0:0:
119,227,155931,5,2,0:0:0:0:
151,220,156099,1,0,0:0:0:0:
176,311,156268,5,2,0:0:0:0:
144,318,156436,1,0,0:0:0:0:
29,199,156605,6,0,B|71:221|114:197|114:197|160:171|227:213,1,170,4|0,1:0|0:0,0:0:0:0:
159,279,157111,5,10,0:0:0:0:
67,117,157279,1,2,1:2:0:0:
128,45,157616,5,10,0:0:0:0:
247,263,157784,1,10,0:0:0:0:
247,263,158122,6,0,B|229:209|269:162|269:162|317:108|287:15|162:49|189:129,1,340,4|0,1:0|0:0,0:0:0:0:
335,231,160650,5,2,1:2:0:0:
335,231,160819,2,0,B|373:243|412:225|412:225|479:205|496:275|496:275|430:324|379:313,1,315.714285714286,4|0,1:0|1:0,0:0:0:0:
254,196,163178,1,8,0:0:0:0:
250,210,163262,1,8,0:3:0:0:
248,225,163346,1,4,0:3:0:0:
247,240,163430,1,0,1:0:0:0:
249,255,163515,1,4,1:0:0:0:
345,172,163684,5,0,0:0:0:0:
179,129,163852,2,0,L|169:17,1,85,10|0,0:0|0:0,0:0:0:0:
264,165,164189,2,0,B|217:146|178:169|178:169|134:195|89:167,1,170,2|8,1:2|0:0,0:0:0:0:
27,125,164695,1,2,0:0:0:0:
64,255,164864,6,0,P|104:273|165:261,1,85,2|0,1:2|0:0,0:0:0:0:
260,196,165201,2,0,P|298:178|340:180,1,85,10|0,0:0|0:0,0:0:0:0:
340,180,165453,1,0,0:0:0:0:
340,180,165538,1,2,1:2:0:0:
188,254,165706,1,0,0:0:0:0:
188,254,165875,2,0,P|169:199|183:152,1,85,8|0,0:0|0:0,0:0:0:0:
272,111,166212,5,2,1:2:0:0:
260,196,166380,1,0,0:0:0:0:
316,338,166549,5,8,0:0:0:0:
328,253,166717,1,0,0:0:0:0:
328,253,166802,1,0,0:0:0:0:
328,253,166886,2,0,P|355:243|386:241,2,42.5,2|8|0,1:2|0:0|0:0,0:0:0:0:
145,189,167223,6,0,P|150:216|165:247,1,42.5,8|0,0:0|0:0,0:0:0:0:
249,284,167392,2,0,P|239:312|216:343,1,42.5,8|0,0:3|0:0,0:0:0:0:
109,324,167560,6,0,P|166:268|258:293,1,170,4|0,1:0|0:0,0:0:0:0:
193,349,168403,5,2,1:2:0:0:
135,142,168571,1,8,0:0:0:0:
135,142,168909,6,0,B|123:21|123:21|160:48,1,161.499995687485,4|8,1:0|0:0,0:0:0:0:
214,175,169414,2,0,B|172:159|133:182|133:182|89:208|44:180,2,161.499995687485,2|2|10,1:2|1:2|0:0,0:0:0:0:
214,175,170425,6,0,P|196:131|210:69,1,80.7499978437424,2|8,1:2|0:0,0:0:0:0:
272,56,170762,2,0,P|277:31|277:0,2,40.3749989218712,2|0|0,0:0|0:0|0:0,0:0:0:0:
214,175,171100,1,2,1:2:0:0:
166,160,171268,1,8,0:0:0:0:
121,181,171437,1,0,0:0:0:0:
103,230,171605,6,0,B|144:210|182:234|182:234|231:259|277:225,1,161.499995687485,6|8,1:2|0:0,0:0:0:0:
317,171,172111,2,0,P|401:186|402:282,2,161.499995687485,2|2|10,1:2|1:2|0:0,0:0:0:0:
317,171,173122,6,0,P|337:131|326:78,1,80.7499978437424,2|8,1:2|0:0,0:0:0:0:
255,61,173459,1,2,0:0:0:0:
255,61,173543,1,0,0:0:0:0:
255,61,173628,2,0,L|249:3,2,40.3749989218712,0|8|0,1:2|0:0|0:0,0:0:0:0:
317,171,173965,5,8,0:0:0:0:
396,137,174133,1,0,0:0:0:0:
472,184,174302,2,0,B|430:200|391:177|391:177|347:151|302:179,1,161.499995687485,6|8,1:2|0:0,0:0:0:0:
216,181,174807,2,0,P|219:138|201:93,1,80.7499978437424,2|0,1:2|0:0,0:0:0:0:
308,93,175144,2,0,P|304:135|322:180,1,80.7499978437424,2|0,1:2|0:0,0:0:0:0:
354,311,175482,6,0,P|295:253|208:299,1,161.499995687485,10|0,0:0|1:0,0:0:0:0:
94,331,175987,1,8,0:0:0:0:
84,250,176156,2,0,L|75:181,2,40.3749989218712,2|0|0,0:0|0:0|0:0,0:0:0:0:
0,182,176493,5,2,1:2:0:0:
65,127,176662,1,8,0:0:0:0:
145,157,176830,1,0,0:0:0:0:
138,306,176998,5,6,1:2:0:0:
94,331,177167,1,0,0:0:0:0:
47,321,177335,1,8,0:0:0:0:
113,226,177504,6,0,P|165:225|194:243,1,80.7499978437424,2|0,1:2|0:0,0:0:0:0:
213,318,177841,2,0,P|161:319|132:301,1,80.7499978437424,2|0,1:2|0:0,0:0:0:0:
113,226,178178,2,0,L|123:178,1,42.5,10|0,0:0|0:0,0:0:0:0:
183,66,178347,6,0,L|172:24,3,42.5,2|0|0|0,0:0|0:0|1:0|0:0,0:0:0:0:
265,86,178684,1,8,0:0:0:0:
243,122,178768,1,0,0:0:0:0:
207,143,178852,1,0,0:0:0:0:
165,145,178936,1,0,0:0:0:0:
123,124,179021,6,0,L|134:166,3,42.5,2|0|0|0,1:2|0:0|0:0|0:0,0:0:0:0:
46,103,179358,1,8,0:0:0:0:
67,66,179442,1,0,0:0:0:0:
103,45,179526,1,0,0:0:0:0:
145,45,179610,1,0,0:0:0:0:
184,73,179695,6,0,P|249:89|287:74,1,85,4|0,1:0|0:0,0:0:0:0:
390,158,180032,2,0,P|348:153|308:169,1,85,8|0,0:0|0:0,0:0:0:0:
221,256,180369,2,0,P|225:214|209:174,1,85,2|0,1:2|0:0,0:0:0:0:
297,87,180706,2,0,P|292:128|308:168,1,85,10|0,0:0|0:0,0:0:0:0:
442,288,181043,6,0,B|394:276|360:298|360:298|306:334|245:284,1,170,2|8,1:2|0:0,0:0:0:0:
239,223,181549,2,0,B|266:191|266:191|310:226,1,85,2|0,0:0|1:0,0:0:0:0:
159,348,181886,1,2,0:0:0:0:
159,348,182055,2,0,P|113:352|69:317,1,85,10|0,0:0|0:0,0:0:0:0:
160,158,182392,5,2,1:2:0:0:
239,223,182560,1,2,0:0:0:0:
239,223,182644,1,0,0:0:0:0:
239,223,182729,2,0,L|348:214,1,85,8|2,0:0|0:0,0:0:0:0:
252,129,183066,2,0,L|361:120,1,85,2|0,1:2|0:0,0:0:0:0:
264,36,183403,2,0,L|373:27,1,85,10|0,0:0|0:0,0:0:0:0:
239,223,183740,5,2,1:2:0:0:
252,129,183909,1,0,0:0:0:0:
264,36,184077,1,8,0:0:0:0:
346,97,184246,6,0,P|352:145|323:195,1,85,2|0,0:0|1:0,0:0:0:0:
161,154,184583,1,2,0:0:0:0:
161,154,184751,2,0,P|155:106|184:56,1,85,10|0,0:0|0:0,0:0:0:0:
247,183,185004,1,0,0:0:0:0:
247,183,185088,6,0,B|199:171|165:193|165:193|111:229|50:179,2,170,6|10|2,1:2|0:0|1:2,0:0:0:0:
268,96,185931,1,2,0:0:0:0:
335,235,186100,2,0,P|332:188|350:140,1,85,8|0,0:0|0:0,0:0:0:0:
276,13,186437,6,0,P|279:60|261:108,1,85,2|0,1:2|0:0,0:0:0:0:
267,95,186689,1,0,0:0:0:0:
268,96,186774,1,10,0:0:0:0:
189,145,186942,2,0,L|91:134,1,85,2|0,0:0|1:0,0:0:0:0:
301,256,187279,1,2,0:0:0:0:
301,256,187448,2,0,L|399:245,1,85,10|0,0:0|0:0,0:0:0:0:
243,144,187785,5,2,1:2:0:0:
231,180,187953,1,0,0:0:0:0:
386,247,188122,2,0,L|415:144,1,85,12|0,0:0|0:0,0:0:0:0:
231,180,188459,5,2,1:2:0:0:
267,192,188627,1,0,0:0:0:0:
345,36,188796,2,0,L|242:7,1,85,12|0,0:0|0:0,0:0:0:0:
267,192,189133,5,2,1:2:0:0:
279,156,189301,1,0,0:0:0:0:
123,78,189470,2,0,L|93:181,1,85,12|0,0:0|0:0,0:0:0:0:
279,156,189807,5,2,1:2:0:0:
243,144,189975,1,0,0:0:0:0:
163,304,190144,2,0,L|266:333,1,85,12|0,0:0|0:0,0:0:0:0:
90,248,190482,6,0,P|71:285|74:327,1,85,6|0,1:2|0:0,0:0:0:0:
322,203,190819,2,0,P|340:165|337:123,1,85,14|0,0:0|0:0,0:0:0:0:
183,63,191156,5,2,1:2:0:0:
270,277,191324,1,8,0:0:0:0:
435,137,191493,1,2,1:2:0:0:
429,115,191577,1,4,0:3:0:0:
423,94,191661,2,0,B|375:82|341:104|341:104|287:140|226:90,1,170,4|0,1:0|1:0,0:0:0:0:
142,70,192167,5,10,0:0:0:0:
170,103,192335,1,10,0:0:0:0:
183,63,192504,1,10,0:0:0:0:
389,172,198403,5,2,0:0:0:0:
389,172,198571,2,0,B|426:140|426:140|403:299,1,191.250007295609,6|0,1:2|0:0,0:0:0:0:
340,347,199246,2,0,B|293:364|247:339|247:339|199:308|152:335,1,191.250007295609,2|0,0:0|1:0,0:0:0:0:
76,257,199920,6,0,P|134:250|181:208,1,95.6250036478044,6|0,1:2|0:0,0:0:0:0:
163,229,200257,2,0,P|127:182|68:162,1,95.6250036478044,2|0,0:0|0:0,0:0:0:0:
95,166,200594,2,0,P|72:219|84:281,1,95.6250036478044,2|0,0:0|0:0,0:0:0:0:
139,311,200931,5,2,0:0:0:0:
182,143,201100,1,0,1:0:0:0:
11,194,201268,1,4,1:2:0:0:
11,194,201605,2,0,B|65:190|65:190|105:207|105:207|169:202,1,152.999995330811,2|0,1:2|1:2,0:0:0:0:
245,175,202111,5,2,0:0:0:0:
231,262,202279,1,2,1:2:0:0:
225,305,202448,1,8,0:3:0:0:
225,305,202785,5,4,0:3:0:0:
231,262,202954,1,4,0:3:0:0:
245,175,203122,1,4,0:3:0:0:
262,68,203291,1,8,0:0:0:0:
262,68,203965,5,4,1:0:0:0:
79,108,204133,2,0,L|94:204,1,85,2|8,0:0|0:0,0:0:0:0:
255,303,204470,5,2,0:0:0:0:
161,326,204639,1,0,1:0:0:0:
255,303,204807,2,0,L|240:207,1,85,2|8,0:0|0:0,0:0:0:0:
208,37,205144,1,2,0:0:0:0:
290,84,205313,6,0,P|348:80|387:49,1,85,2|0,1:2|0:0,0:0:0:0:
241,219,205650,2,0,P|202:200|160:201,1,85,10|0,0:0|0:0,0:0:0:0:
297,305,205987,5,2,1:2:0:0:
390,279,206156,1,0,0:0:0:0:
333,103,206324,5,10,0:0:0:0:
240,129,206493,1,0,0:0:0:0:
316,202,206661,5,4,1:2:0:0:
390,30,206830,2,0,P|332:12|276:37,1,85,2|8,0:0|0:0,0:0:0:0:
156,160,207167,5,2,0:0:0:0:
126,65,207335,1,0,1:0:0:0:
156,160,207504,2,0,P|197:163|236:146,1,85,2|8,0:0|0:0,0:0:0:0:
235,50,207841,5,2,0:0:0:0:
60,146,208010,2,0,L|73:256,1,85,2|0,1:2|0:0,0:0:0:0:
149,353,208347,2,0,L|158:268,1,85,10|0,0:0|0:0,0:0:0:0:
47,61,208684,2,0,L|69:229,1,170,2|8,1:2|0:0,0:0:0:0:
237,199,209189,1,2,0:0:0:0:
243,178,209273,1,0,0:0:0:0:
243,157,209358,5,4,1:2:0:0:
150,174,209526,1,0,0:0:0:0:
306,228,209695,5,10,0:0:0:0:
337,138,209863,1,0,0:0:0:0:
209,250,210032,5,2,1:2:0:0:
271,321,210200,1,0,0:0:0:0:
388,241,210369,2,0,P|309:229|285:214,1,85,8|0,0:0|0:0,0:0:0:0:
145,92,210706,6,0,P|161:139|160:190,1,85,2|0,1:2|0:0,0:0:0:0:
98,235,211043,1,10,0:0:0:0:
243,122,211212,1,0,0:0:0:0:
57,37,211380,2,0,B|99:59|142:35|142:35|188:9|255:51,1,170,2|8,1:2|0:0,0:0:0:0:
298,81,211886,1,2,0:0:0:0:
198,220,212055,6,0,B|163:243|163:243|182:101,1,170,2|8,1:2|0:0,0:0:0:0:
212,15,212560,2,0,P|166:32|118:24,1,85,2|0,0:0|1:0,0:0:0:0:
111,254,212897,5,2,1:2:0:0:
198,220,213066,1,10,0:0:0:0:
275,276,213234,2,0,P|345:295|422:224,1,170,4|0,1:0|1:0,0:0:0:0:
343,122,213740,2,0,P|329:190|345:232,1,85,8|0,0:0|0:0,0:0:0:0:
332,203,213993,1,4,0:3:0:0:
332,203,214077,1,0,1:0:0:0:
433,96,214246,1,10,0:0:0:0:
433,96,214414,1,10,0:0:0:0:
255,35,214583,6,0,L|262:115,1,42.5,2|0,0:0|0:0,0:0:0:0:
343,122,214751,1,4,1:0:0:0:
169,216,214920,2,0,L|187:96,1,85,2|8,0:0|0:0,0:0:0:0:
316,323,215257,5,2,0:0:0:0:
219,350,215425,1,0,1:0:0:0:
316,323,215594,2,0,L|298:203,1,85,2|8,0:0|0:0,0:0:0:0:
196,103,215931,1,2,0:0:0:0:
123,165,216100,6,0,P|70:164|33:132,1,85,2|0,1:2|0:0,0:0:0:0:
264,35,216437,2,0,P|317:36|354:68,1,85,10|0,0:0|0:0,0:0:0:0:
373,220,216774,5,2,1:2:0:0:
279,238,216942,1,0,0:0:0:0:
248,71,217111,5,8,0:0:0:0:
342,53,217279,1,0,0:0:0:0:
307,145,217448,5,4,1:2:0:0:
123,114,217616,2,0,L|137:22,1,85,2|8,0:0|0:0,0:0:0:0:
254,238,217953,5,2,0:0:0:0:
152,250,218122,1,0,1:0:0:0:
254,238,218291,2,0,L|240:330,1,85,2|8,0:0|0:0,0:0:0:0:
187,158,218628,1,2,0:0:0:0:
337,300,218796,6,0,P|383:301|433:267,1,85,2|0,1:2|0:0,0:0:0:0:
267,141,219133,2,0,P|221:140|171:174,1,85,10|0,0:0|0:0,0:0:0:0:
337,300,219470,2,0,P|409:292|436:200,1,170,2|8,1:2|0:0,0:0:0:0:
396,130,219976,1,2,0:0:0:0:
337,300,220144,6,0,P|295:287|231:295,1,85,4|0,1:2|0:0,0:0:0:0:
132,215,220482,2,0,P|174:215|214:203,1,85,10|0,0:0|0:0,0:0:0:0:
277,130,220819,2,0,P|241:199|267:309,1,170,2|8,1:2|0:0,0:0:0:0:
330,221,221324,1,0,0:0:0:0:
277,130,221493,6,0,L|166:126,1,85,2|0,1:2|0:0,0:0:0:0:
238,36,221830,1,10,0:0:0:0:
85,123,221998,5,2,0:0:0:0:
85,123,222083,1,0,0:0:0:0:
85,123,222167,2,0,L|277:130,1,191.250007295609,4|0,1:2|0:0,0:0:0:0:
379,151,222841,5,4,1:0:0:0:
220,220,223010,1,2,1:2:0:0:
243,39,223178,1,8,0:0:0:0:
237,16,223515,5,2,1:2:0:0:
210,233,223684,1,2,1:2:0:0:
401,151,223852,1,8,0:0:0:0:
401,151,224021,1,2,1:2:0:0:
299,117,224189,6,0,P|313:159|302:213,1,85,10|0,0:0|0:0,0:0:0:0:
385,328,224526,2,0,P|380:286|394:246,1,85,10|0,0:0|0:0,0:0:0:0:
219,236,224864,5,10,0:0:0:0:
308,198,225032,1,0,0:0:0:0:
394,246,225201,1,10,0:0:0:0:
312,56,225369,5,4,1:0:0:0:
312,56,225706,1,2,0:0:0:0:
280,49,225874,1,0,0:0:0:0:
128,136,226043,5,2,0:0:0:0:
160,143,226211,1,0,0:0:0:0:
185,52,226380,5,2,0:0:0:0:
153,45,226548,1,0,0:0:0:0:
37,163,226717,6,0,B|79:141|122:165|122:165|168:191|235:149,1,170,4|0,1:0|0:0,0:0:0:0:
287,135,227223,1,10,0:0:0:0:
266,303,227392,1,2,1:2:0:0:
355,343,227729,5,10,0:0:0:0:
375,107,227897,1,10,0:0:0:0:
348,341,228234,5,2,0:0:0:0:
277,208,228403,2,0,L|284:258,1,36.1250006890297,0|0,0:0|0:0,0:0:0:0:
348,341,228571,2,0,L|364:242,1,72.2500013780594,10|0,0:0|0:0,0:0:0:0:
270,315,228909,2,0,L|286:216,1,72.2500013780594,2|0,0:0|0:0,0:0:0:0:
192,292,229246,2,0,L|208:193,1,72.2500013780594,10|0,0:0|0:0,0:0:0:0:
57,117,229583,5,2,0:0:0:0:
121,57,229751,2,0,L|115:-6,1,36.1250006890297
57,117,229920,2,0,L|41:216,1,72.2500013780594,10|0,0:0|0:0,0:0:0:0:
136,138,230258,2,0,L|120:237,1,72.2500013780594,2|0,0:0|0:0,0:0:0:0:
214,161,230595,2,0,L|198:260,1,72.2500013780594,10|0,0:0|0:0,0:0:0:0:
374,305,230931,5,2,0:0:0:0:
455,289,231100,2,0,L|506:280,2,36.1250006890297,0|0|10,0:0|0:0|0:0,0:0:0:0:
374,305,231437,2,0,L|323:314,2,36.1250006890297,0|0|2,0:0|0:0|0:0,0:0:0:0:
431,369,231774,5,0,0:0:0:0:
455,289,231942,1,10,0:0:0:0:
403,225,232111,1,0,0:0:0:0:
264,280,232279,5,2,0:0:0:0:
338,311,232448,2,0,L|329:369,2,36.1250006890297,0|0|10,0:0|0:0|0:0,0:0:0:0:
264,280,232785,1,0,0:0:0:0:
322,153,232953,5,2,0:0:0:0:
255,199,233122,1,0,0:0:0:0:
155,187,233291,1,10,0:0:0:0:
103,89,233460,1,0,0:0:0:0:
193,285,233628,5,2,0:0:0:0:
193,285,233796,1,0,0:0:0:0:
193,285,233965,2,0,L|185:372,1,72.2500013780594,10|0,0:0|0:0,0:0:0:0:
42,282,234302,5,2,0:0:0:0:
42,282,234470,1,0,0:0:0:0:
42,282,234639,2,0,L|50:369,1,72.2500013780594,10|0,0:0|0:0,0:0:0:0:
86,203,234976,6,0,B|63:194|63:194|17:201,2,48.1666675853729,2|0|0,0:0|0:0|0:0,0:0:0:0:
104,220,235313,2,0,B|139:226|139:226|199:194,1,72.2500013780594,10|0,0:0|0:0,0:0:0:0:
213,132,235650,1,2,0:0:0:0:
213,132,235987,6,0,B|258:132|258:132|292:109|292:109|330:147|330:147|361:125|361:125|446:127,1,220.999989883423,6|0,0:0|0:0,0:0:0:0:
