osu file format v14

[General]
AudioFilename: himen.mp3
AudioLeadIn: 0
PreviewTime: 60285
Countdown: 0
SampleSet: Soft
StackLeniency: 0.4
Mode: 0
LetterboxInBreaks: 0
WidescreenStoryboard: 0

[Editor]
Bookmarks: 193178
DistanceSpacing: 0.6
BeatDivisor: 4
GridSize: 16
TimelineZoom: 1.7

[Metadata]
Title:Koi no Hime Hime Pettanko
TitleUnicode:恋のヒメヒメぺったんこ
Artist:*namirin
ArtistUnicode:*なみりん
Creator:sahuang
Version:Curi's Extra
Source:弱虫ペダル
Tags:My Angel Azusa pata-mon joker left beomsan enon utaite nami なみ nnd nico nico douga ニコニコ動画 Tamura Yukari 田村 ゆかり Yowapeda Pedal
BeatmapID:1353404
BeatmapSetID:613083

[Difficulty]
HPDrainRate:6
CircleSize:3.5
OverallDifficulty:8.4
ApproachRate:9
SliderMultiplier:1.7
SliderTickRate:1

[Events]
//Background and Video events
0,0,"hime.jpg",0,0
//Break Periods
2,85313,90106
2,193178,197971
//Storyboard Layer 0 (Background)
//Storyboard Layer 1 (Fail)
//Storyboard Layer 2 (Pass)
//Storyboard Layer 3 (Foreground)
//Storyboard Sound Samples

[TimingPoints]
1718,337.078651685393,4,2,1,50,1,0
6774,-100,4,2,1,50,0,0
7111,-100,4,2,2,60,0,0
16549,-100,4,2,2,50,0,0
17307,-100,4,2,2,5,0,0
17392,-100,4,2,2,50,0,0
17897,-100,4,2,2,50,0,0
21942,-100,4,2,2,60,0,0
23291,-100,4,2,2,60,0,0
24639,-100,4,2,2,60,0,0
28347,-100,4,2,2,60,0,0
28600,-100,4,2,2,5,0,0
28684,-100,4,2,2,60,0,0
32729,-100,4,2,2,60,0,0
34077,-100,4,2,2,60,0,0
35425,-100,4,2,2,60,0,0
37953,-100,4,2,2,60,0,0
38796,-100,4,2,2,50,0,0
39470,-125,4,2,2,50,0,0
47560,-100,4,2,2,50,0,0
48740,-100,4,2,2,60,0,0
58178,-100,4,2,2,70,0,0
60369,-100,4,2,2,40,0,0
61043,-90.9090909090909,4,2,2,80,0,1
71156,-90.9090909090909,4,2,2,80,0,0
71830,-90.9090909090909,4,2,2,80,0,1
77223,-90.9090909090909,4,2,2,80,0,1
79246,-90.9090909090909,4,2,2,80,0,1
79920,-90.9090909090909,4,2,2,80,0,1
83796,-90.9090909090909,4,2,2,80,0,1
85313,-100,4,2,1,60,0,0
90032,-100,4,2,1,50,0,0
90369,-100,4,2,1,60,0,0
90706,-111.111111111111,4,2,1,40,0,0
98628,-111.111111111111,4,2,1,60,0,0
101156,-100,4,2,1,60,0,0
101409,-100,4,2,1,5,0,0
101493,-100,4,2,2,60,0,0
102841,-100,4,2,2,60,0,0
104189,-100,4,2,2,60,0,0
105538,-100,4,2,2,60,0,0
106886,-100,4,2,2,60,0,0
108234,-100,4,2,2,60,0,0
111605,-125,4,2,2,60,0,0
120369,-100,4,2,2,60,0,0
121549,-100,4,2,2,60,0,0
133178,-100,4,2,2,60,0,0
133852,-90.9090909090909,4,2,2,80,0,1
139246,-90.9090909090909,4,2,2,80,0,1
141942,-90.9090909090909,4,2,2,80,0,1
143965,-90.9090909090909,4,2,2,80,0,0
144639,-90.9090909090909,4,2,2,80,0,1
148684,-90.9090909090909,4,2,2,80,0,1
152729,-90.9090909090909,4,2,2,80,0,1
156605,-90.9090909090909,4,2,2,80,0,1
158122,-100,4,2,2,60,0,0
163515,-100,4,2,2,60,0,0
167560,-100,4,2,2,60,0,0
168319,-100,4,2,2,5,0,0
168403,-100,4,2,2,60,0,0
168909,-100,4,2,2,60,0,0
178178,-100,4,2,2,60,0,0
179695,-100,4,2,2,60,0,0
198571,-111.111111111111,4,2,2,60,0,0
201521,-111.111111111111,4,2,2,5,0,0
201605,-111.111111111111,4,2,2,60,0,0
203965,-90.9090909090909,4,2,2,80,0,1
209358,-90.9090909090909,4,2,2,80,0,1
213234,-90.9090909090909,4,2,2,80,0,1
214077,-90.9090909090909,4,2,2,80,0,0
214751,-90.9090909090909,4,2,2,80,0,1
220144,-90.9090909090909,4,2,2,80,0,1
222167,-90.9090909090909,4,2,2,80,0,1
226717,-90.9090909090909,4,2,2,80,0,1
228234,-125,4,2,1,40,0,0
232279,-125,4,2,1,40,0,0
233628,-125,4,2,1,40,0,0
235903,-125,4,2,1,5,0,0
235987,-100,4,2,1,40,0,0
236324,-100,4,2,1,5,0,0

[Colours]
Combo1 : 255,168,125
Combo2 : 255,128,128
Combo3 : 158,158,207
Combo4 : 255,108,255

[HitObjects]
136,194,7111,6,0,L|127:294,2,85,4|0|0,0:0|0:0|0:0,0:0:0:0:
154,36,7785,1,0,0:0:0:0:
136,194,8122,1,0,0:0:0:0:
126,113,8291,1,2,0:0:0:0:
392,109,8459,6,0,B|358:98|309:127|309:127|261:154|221:123,1,170,4|0,0:0|0:0,0:0:0:0:
356,280,8965,2,0,B|338:246|368:198|368:198|409:236|405:268,1,170,0|0,0:0|0:0,0:0:0:0:
310,125,9470,2,0,P|349:109|392:109,1,85,8|2,0:0|0:0,0:0:0:0:
436,354,9807,6,0,P|397:370|354:370,2,85,4|0|0,0:0|0:0|0:0,0:0:0:0:
280,312,10482,1,0,0:0:0:0:
436,354,10819,1,0,0:0:0:0:
280,312,10987,1,2,0:0:0:0:
407,101,11156,6,0,B|400:175|400:175|411:201|411:201|404:276,1,170,4|0,0:0|0:0,0:0:0:0:
187,290,11661,2,0,P|241:228|324:231,1,170,0|8,0:0|0:0,0:0:0:0:
486,276,12167,1,2,0:0:0:0:
465,280,12251,1,2,0:0:0:0:
444,280,12335,1,2,0:0:0:0:
423,276,12419,1,2,0:0:0:0:
404,268,12504,6,0,L|411:180,1,85,4|0,0:0|0:0,0:0:0:0:
260,62,12841,2,0,L|266:146,1,85,8|0,0:0|0:0,0:0:0:0:
286,333,13178,1,2,0:0:0:0:
266,146,13347,1,0,0:0:0:0:
404,268,13515,2,0,P|354:272|314:239,1,85,8|0,0:0|0:0,0:0:0:0:
306,237,13768,1,2,0:0:0:0:
306,237,13852,6,0,P|260:237|214:264,1,85,4|0,0:0|0:0,0:0:0:0:
366,354,14189,1,8,0:0:0:0:
326,146,14358,2,0,P|242:148|157:189,1,170,0|0,0:0|0:0,0:0:0:0:
95,346,14864,2,0,P|133:363|175:362,1,85,8|0,0:0|0:0,0:0:0:0:
41,255,15201,5,4,0:0:0:0:
175,362,15369,1,0,0:0:0:0:
164,183,15538,2,0,L|151:92,1,85,8|0,0:0|0:0,0:0:0:0:
138,76,15791,1,0,0:0:0:0:
138,76,15875,2,0,L|148:14,2,42.5,2|0|0,0:0|0:0|0:0,0:0:0:0:
305,54,16212,1,8,0:0:0:0:
138,76,16380,1,0,0:0:0:0:
404,56,16549,6,0,B|442:38|442:38|427:198,1,170,4|0,0:0|0:0,0:0:0:0:
283,312,17055,2,0,P|247:257|280:176,1,127.5,0|0,0:0|0:0,0:0:0:0:
327,243,17392,5,2,0:0:0:0:
61,217,17560,1,8,0:0:0:0:
61,217,17897,6,0,L|52:123,1,85,4|0,0:0|0:0,0:0:0:0:
217,50,18234,2,0,P|271:147|244:220,1,170,8|2,0:0|0:0,0:0:0:0:
172,143,18740,1,0,0:0:0:0:
424,100,18909,1,8,0:0:0:0:
424,100,19246,6,0,L|432:213,1,85,2|0,0:0|0:0,0:0:0:0:
417,9,19583,1,2,0:0:0:0:
503,232,19751,2,0,P|463:262|348:217,1,170,8|2,0:0|0:0,0:0:0:0:
217,50,20257,2,0,P|168:47|130:62,1,85,8|0,0:0|0:0,0:0:0:0:
153,301,20594,5,2,0:0:0:0:
153,301,20931,2,0,P|202:304|240:289,1,85,8|0,0:0|0:0,0:0:0:0:
62,150,21268,2,0,L|73:254,1,85,0|2,0:0|0:0,0:0:0:0:
269,198,21605,1,8,0:0:0:0:
269,198,21942,6,0,P|318:195|356:210,1,85,2|0,0:0|0:0,0:0:0:0:
432,287,22279,1,8,0:0:0:0:
332,104,22448,2,0,P|249:108|162:152,1,170,8|2,0:0|0:0,0:0:0:0:
153,301,22953,2,0,P|195:305|235:291,1,85,8|0,0:0|0:0,0:0:0:0:
332,104,23291,5,2,0:0:0:0:
332,104,23628,1,8,0:0:0:0:
304,16,23796,1,0,0:0:0:0:
180,104,23965,1,0,0:0:0:0:
208,16,24133,1,2,0:0:0:0:
257,165,24302,2,0,B|238:191|238:191|251:269,1,85,8|0,0:0|0:0,0:0:0:0:
477,252,24639,6,0,P|424:203|328:229,1,170,2|8,0:0|0:0,0:0:0:0:
163,342,25144,2,0,P|241:363|305:311,1,170,10|2,0:0|0:0,0:0:0:0:
261,139,25650,1,8,0:0:0:0:
86,380,25819,6,0,B|69:339|87:299|87:299|109:252|84:216,1,170,4|2,0:0|0:0,0:0:0:0:
41,65,26324,1,2,0:0:0:0:
84,216,26493,1,2,0:0:0:0:
41,65,26661,1,8,0:0:0:0:
0,274,26830,1,2,0:0:0:0:
188,209,26998,1,8,0:0:0:0:
35,39,27167,6,0,B|112:50|112:50|127:68|127:68|224:83,1,170,4|2,0:0|0:0,0:0:0:0:
363,95,27673,1,2,0:0:0:0:
196,78,27841,1,2,0:0:0:0:
434,34,28010,1,8,0:0:0:0:
299,229,28178,1,8,3:2:0:0:
296,218,28262,1,8,3:2:0:0:
293,208,28347,2,0,B|288:181|309:177|309:177|332:290,1,127.5,8|0,3:2|3:2,0:0:0:0:
343,344,28684,5,4,0:0:0:0:
343,344,29021,2,0,P|294:340|261:314,1,85,2|0,0:0|0:0,0:0:0:0:
419,198,29358,2,0,L|403:314,1,85,0|2,0:0|0:0,0:0:0:0:
433,110,29695,1,8,0:0:0:0:
433,110,30032,6,0,P|389:90|331:98,1,85,2|0,0:0|0:0,0:0:0:0:
195,180,30369,1,2,0:0:0:0:
278,46,30538,2,0,B|258:91|276:132|276:132|300:180|269:237,1,170,8|2,0:0|0:0,0:0:0:0:
119,130,31043,2,0,P|148:100|189:90,1,85,8|0,0:0|0:0,0:0:0:0:
459,226,31380,6,0,P|383:244|386:168,1,170,2|8,0:0|0:0,0:0:0:0:
485,98,31886,1,0,0:0:0:0:
494,318,32055,1,0,0:0:0:0:
494,318,32223,2,0,P|451:340|397:342,1,85,2|8,0:0|0:0,0:0:0:0:
279,285,32560,1,0,0:0:0:0:
362,78,32729,6,0,B|390:46|390:46|378:190,1,170,2|8,3:2|3:2,0:0:0:0:
212,345,33234,2,0,P|190:283|258:198,1,170,2|2,0:0|0:0,0:0:0:0:
431,244,33740,2,0,P|373:261|334:247,1,85,8|0,3:2|0:0,0:0:0:0:
272,54,34077,5,2,0:0:0:0:
272,54,34414,2,0,L|95:69,1,170,8|0,0:0|0:0,0:0:0:0:
190,265,34920,1,2,0:0:0:0:
242,167,35088,2,0,L|151:159,1,85,8|0,0:0|0:0,0:0:0:0:
40,368,35425,6,0,L|124:360,1,85,2|0,0:0|0:0,0:0:0:0:
297,346,35762,1,8,0:0:0:0:
206,166,35931,2,0,B|172:139|172:139|195:302,1,170,2|0,0:0|0:0,0:0:0:0:
379,384,36437,2,0,P|384:332|369:295,1,85,8|2,0:0|0:0,0:0:0:0:
189,264,36774,5,2,0:0:0:0:
297,346,36942,1,2,0:0:0:0:
409,168,37111,2,0,L|303:187,1,85,8|0,0:0|0:0,0:0:0:0:
464,262,37448,1,0,0:0:0:0:
393,91,37616,1,2,0:0:0:0:
278,252,37785,1,8,0:0:0:0:
490,108,37953,6,0,B|518:75|518:75|354:95,1,170,6|2,0:0|0:0,0:0:0:0:
497,194,38459,1,2,0:0:0:0:
417,3,38628,1,2,0:0:0:0:
307,167,38796,2,0,L|374:174,1,42.5,8|0,3:2|3:2,0:0:0:0:
435,86,38965,2,0,L|392:90,1,42.5,0|0,3:2|0:0,0:0:0:0:
236,115,39133,1,8,3:2:0:0:
221,143,39217,1,0,3:2:0:0:
217,174,39301,1,0,3:2:0:0:
225,205,39385,1,0,3:2:0:0:
242,232,39470,6,0,L|408:217,1,136,4|0,3:2|0:0,0:0:0:0:
316,266,39976,1,0,0:0:0:0:
252,322,40144,2,0,L|92:309,1,136,2|8,0:0|0:0,0:0:0:0:
20,189,40650,6,0,L|119:183,1,68,2|0,0:0|0:0,0:0:0:0:
80,56,40987,2,0,L|177:63,1,68,2|0,0:0|0:0,0:0:0:0:
279,72,41324,1,2,0:0:0:0:
342,139,41493,2,0,P|279:163|216:142,1,136,2|8,0:0|0:0,0:0:0:0:
279,72,41998,1,0,0:0:0:0:
441,165,42167,5,2,0:0:0:0:
370,305,42335,2,0,B|361:273|361:273|371:214,1,68
454,356,42673,1,2,0:0:0:0:
279,346,42841,2,0,L|114:334,1,136,2|8,0:0|0:0,0:0:0:0:
135,146,43347,6,0,L|231:154,1,68,2|0,0:0|0:0,0:0:0:0:
71,241,43684,2,0,L|167:249,1,68,2|0,0:0|0:0,0:0:0:0:
312,205,44021,1,2,0:0:0:0:
202,151,44189,1,2,0:0:0:0:
138,246,44358,1,8,0:0:0:0:
336,199,44526,1,8,0:0:0:0:
198,53,44695,1,2,0:0:0:0:
278,282,44864,6,0,P|341:301|403:275,1,136,4|0,0:0|0:0,0:0:0:0:
336,198,45369,1,2,0:0:0:0:
393,115,45538,2,0,P|287:108|251:142,1,136,2|8,0:0|0:0,0:0:0:0:
387,339,46043,6,0,P|402:270|391:248,1,68,2|0,0:0|0:0,0:0:0:0:
213,230,46380,2,0,P|265:277|289:279,1,68,2|0,0:0|0:0,0:0:0:0:
403,275,46717,1,2,0:0:0:0:
322,106,46886,2,0,B|298:77|298:77|292:202,1,136,2|8,0:0|0:0,0:0:0:0:
279,367,47392,1,2,0:0:0:0:
458,151,47560,5,4,0:0:0:0:
458,151,47897,1,8,0:0:0:0:
287,277,48066,1,2,0:0:0:0:
287,277,48150,1,8,0:0:0:0:
287,277,48234,1,8,0:0:0:0:
466,363,48403,1,2,0:0:0:0:
466,363,48487,1,8,0:0:0:0:
466,363,48572,1,8,0:0:0:0:
458,151,48740,6,0,B|422:142|376:167|376:167|329:189|286:173,1,170,4|2,0:0|0:0,0:0:0:0:
442,240,49246,1,8,0:0:0:0:
326,98,49414,1,2,0:0:0:0:
365,298,49583,1,8,0:0:0:0:
473,62,49751,1,2,0:0:0:0:
473,62,49835,1,2,0:0:0:0:
473,62,49920,1,4,0:0:0:0:
318,179,50088,1,2,0:0:0:0:
455,321,50257,5,4,0:0:0:0:
318,179,50594,1,8,0:0:0:0:
260,369,50931,5,8,0:0:0:0:
455,321,51100,1,2,0:0:0:0:
318,179,51268,1,8,0:0:0:0:
368,383,51605,5,4,0:0:0:0:
427,181,51774,1,0,0:0:0:0:
225,221,51942,1,8,0:0:0:0:
484,244,52111,2,0,P|510:180|437:98,1,170,6|2,0:0|0:0,0:0:0:0:
334,285,52616,1,8,0:0:0:0:
354,86,52785,1,8,0:0:0:0:
356,64,52869,1,8,0:0:0:0:
358,43,52953,5,2,0:0:0:0:
337,257,53291,1,8,0:0:0:0:
162,125,53628,5,8,0:0:0:0:
358,43,53796,1,2,0:0:0:0:
337,257,53965,1,8,0:0:0:0:
249,44,54302,5,4,0:0:0:0:
220,255,54470,1,2,0:0:0:0:
417,169,54639,1,8,0:0:0:0:
162,125,54807,2,0,B|135:94|135:94|-2:113,1,170,6|2,0:0|0:0,0:0:0:0:
96,247,55313,1,8,0:0:0:0:
143,51,55482,6,0,P|60:49|7:112,1,170,4|2,0:0|0:0,0:0:0:0:
251,165,55987,1,8,0:0:0:0:
251,165,56324,1,2,0:0:0:0:
52,179,56493,1,2,0:0:0:0:
262,79,56661,1,8,0:0:0:0:
242,312,56830,6,0,P|174:324|101:255,1,170,4|2,0:0|0:0,0:0:0:0:
322,259,57335,2,0,P|335:332|317:370,1,85,8|2,0:0|0:0,0:0:0:0:
238,217,57673,2,0,P|294:169|336:165,1,85,8|2,0:0|0:0,0:0:0:0:
418,273,58010,1,8,0:0:0:0:
236,99,58178,6,0,P|323:76|393:134,1,170,6|2,0:0|0:0,0:0:0:0:
217,238,58684,1,8,0:0:0:0:
443,188,58852,1,2,0:0:0:0:
195,245,59021,5,8,0:0:0:0:
470,282,59189,1,2,0:0:0:0:
491,284,59273,1,8,0:0:0:0:
512,287,59357,5,8,0:0:0:0:
394,20,59526,1,4,0:0:0:0:
397,338,59864,5,4,0:0:0:0:
507,74,60032,1,4,0:0:0:0:
507,74,61043,6,0,P|464:56|400:69,1,93.5000028533936,4|2,3:2|0:0,0:0:0:0:
264,164,61380,2,0,P|306:181|371:169,1,93.5000028533936,8|0,3:2|0:0,0:0:0:0:
342,0,61717,2,0,P|324:42|328:89,1,93.5000028533936,2|0,3:2|0:0,0:0:0:0:
430,240,62055,2,0,P|448:197|444:150,1,93.5000028533936,8|0,3:2|0:0,0:0:0:0:
231,249,62392,5,2,3:2:0:0:
416,315,62560,1,0,0:0:0:0:
209,240,62729,5,8,3:2:0:0:
454,236,62897,1,0,0:0:0:0:
217,338,63066,5,2,3:2:0:0:
425,341,63234,1,0,0:0:0:0:
190,234,63403,5,8,3:2:0:0:
454,236,63571,1,0,0:0:0:0:
217,338,63740,6,0,L|225:227,1,93.5000028533936,4|0,3:2|0:0,0:0:0:0:
295,46,64077,2,0,L|287:157,1,93.5000028533936,8|0,3:2|0:0,0:0:0:0:
110,153,64414,2,0,L|203:159,1,93.5000028533936,2|0,3:2|0:0,0:0:0:0:
402,231,64751,2,0,L|308:224,1,93.5000028533936,8|0,3:2|0:0,0:0:0:0:
161,68,65088,5,2,3:2:0:0:
122,263,65257,1,0,0:0:0:0:
76,37,65425,5,8,3:2:0:0:
32,265,65594,1,0,0:0:0:0:
243,210,65762,6,0,P|249:146|227:106,1,93.5000028533936,2|0,3:2|0:0,0:0:0:0:
0,181,66100,2,0,L|109:174,1,93.5000028533936,8|0,3:2|0:0,0:0:0:0:
172,170,66352,1,8,0:0:0:0:
172,170,66437,5,6,0:0:0:0:
311,269,66605,1,0,0:0:0:0:
164,347,66774,2,0,B|154:299|154:299|167:250,1,93.5000028533936,8|0,0:0|0:0,0:0:0:0:
396,146,67111,2,0,B|406:194|406:194|393:243,1,93.5000028533936,2|0,3:2|0:0,0:0:0:0:
235,304,67448,1,8,3:2:0:0:
327,86,67616,6,0,P|403:56|483:116,1,187.000005706787,0|0,0:0|0:0,0:0:0:0:
417,320,68122,2,0,P|370:320|332:295,1,93.5000028533936,8|0,3:2|0:0,0:0:0:0:
200,92,68459,2,0,P|153:92|115:117,1,93.5000028533936,2|0,3:2|0:0,0:0:0:0:
212,318,68796,1,8,3:2:0:0:
266,155,68965,1,0,0:0:0:0:
69,189,69133,6,0,L|86:292,1,93.5000028533936,2|0,3:2|0:0,0:0:0:0:
265,243,69470,1,8,3:2:0:0:
115,116,69639,1,0,0:0:0:0:
47,352,69807,2,0,P|93:359|136:342,1,93.5000028533936,2|0,3:2|0:0,0:0:0:0:
200,92,70144,1,8,3:2:0:0:
47,352,70313,6,0,P|97:359|159:251,1,187.000005706787,4|0,0:0|0:0,0:0:0:0:
41,52,70819,1,8,3:2:0:0:
84,281,70987,1,0,0:0:0:0:
84,281,71071,1,0,0:0:0:0:
84,281,71156,5,2,3:2:0:0:
136,22,71324,1,8,0:0:0:0:
180,283,71493,1,8,3:2:0:0:
0,177,71661,1,0,0:0:0:0:
256,132,71830,6,0,P|309:128|359:158,1,93.5000028533936,4|0,3:2|0:0,0:0:0:0:
490,201,72167,2,0,P|449:214|398:205,1,93.5000028533936,8|0,3:2|0:0,0:0:0:0:
256,132,72504,2,0,P|299:102|355:104,1,93.5000028533936,2|0,3:2|0:0,0:0:0:0:
490,201,72841,2,0,P|461:232|414:249,1,93.5000028533936,8|0,3:2|0:0,0:0:0:0:
256,132,73178,5,2,3:2:0:0:
490,201,73347,1,0,0:0:0:0:
219,222,73515,5,8,3:2:0:0:
439,122,73684,1,0,0:0:0:0:
187,56,73852,5,2,3:2:0:0:
268,301,74021,1,0,0:0:0:0:
276,35,74189,5,8,3:2:0:0:
194,251,74358,1,0,0:0:0:0:
276,35,74526,6,0,P|234:36|186:58,1,93.5000028533936,4|0,3:2|0:0,0:0:0:0:
268,301,74864,2,0,P|310:300|358:271,1,93.5000028533936,8|0,3:2|0:0,0:0:0:0:
144,153,75201,2,0,P|144:195|175:241,1,93.5000028533936,2|0,3:2|0:0,0:0:0:0:
412,169,75539,2,0,P|411:126|383:83,1,93.5000028533936,8|0,3:2|0:0,0:0:0:0:
170,237,75875,5,2,3:2:0:0:
435,251,76043,1,0,0:0:0:0:
141,326,76212,5,8,3:2:0:0:
462,342,76380,1,0,0:0:0:0:
172,147,76549,6,0,B|157:191|157:191|169:236,1,93.5000028533936,2|0,3:2|0:0,0:0:0:0:
248,264,76802,1,0,0:0:0:0:
248,264,76886,2,0,B|342:256,1,93.5000028533936,8|0,3:2|0:0,0:0:0:0:
141,326,77223,5,6,0:0:0:0:
342,256,77392,1,0,0:0:0:0:
169,236,77560,1,8,3:2:0:0:
342,256,77729,1,0,0:0:0:0:
97,69,77897,2,0,L|80:262,1,187.000005706787,2|8,3:2|3:2,0:0:0:0:
252,197,78403,1,0,0:0:0:0:
80,255,78571,5,2,3:2:0:0:
239,106,78740,1,0,0:0:0:0:
58,268,78909,1,8,3:2:0:0:
261,344,79077,1,0,0:0:0:0:
239,106,79246,1,6,0:0:0:0:
218,110,79330,1,0,0:0:0:0:
199,119,79414,1,0,0:0:0:0:
182,132,79498,1,0,0:0:0:0:
170,149,79583,1,0,0:0:0:0:
170,149,79920,5,6,0:0:0:0:
400,139,80088,1,8,0:0:0:0:
170,149,80257,1,8,3:2:0:0:
170,149,80594,5,2,3:2:0:0:
400,139,80762,1,8,0:0:0:0:
161,246,80931,1,8,3:2:0:0:
422,238,81100,1,2,0:0:0:0:
217,65,81268,5,8,3:2:0:0:
242,348,81437,1,2,0:0:0:0:
325,80,81605,1,8,3:2:0:0:
320,291,81774,1,8,0:0:0:0:
210,39,81942,5,8,3:2:0:0:
473,69,82111,1,2,0:0:0:0:
242,120,82279,1,8,3:2:0:0:
410,295,82448,1,8,0:0:0:0:
410,295,82785,5,4,0:0:0:0:
384,70,82953,1,8,3:2:0:0:
295,293,83122,5,0,0:0:0:0:
288,97,83291,1,8,3:2:0:0:
192,333,83459,5,0,0:0:0:0:
195,64,83628,1,8,3:2:0:0:
451,217,83796,6,0,B|440:366|440:366|407:325,1,187.000005706787,4|2,0:0|0:0,0:0:0:0:
281,203,84302,2,0,P|277:244|300:301,1,93.5000028533936,8|2,3:2|0:0,0:0:0:0:
384,70,84807,5,8,0:0:0:0:
319,313,84975,1,8,3:2:0:0:
404,129,90706,6,0,P|333:85|251:127,1,152.999995330811,4|2,0:0|0:0,0:0:0:0:
326,176,91212,1,0,0:0:0:0:
234,293,91380,2,0,L|240:203,1,76.4999976654053,2|0,0:0|0:0,0:0:0:0:
174,59,91717,2,0,L|167:151,1,76.4999976654053,2|0,0:0|0:0,0:0:0:0:
154,338,92055,6,0,P|225:382|310:341,1,152.999995330811,2|2,0:0|0:0,0:0:0:0:
406,252,92560,2,0,L|297:267,1,76.4999976654053,2|0,0:0|0:0,0:0:0:0:
492,285,92897,1,2,0:0:0:0:
492,285,93066,2,0,P|497:236|482:197,1,76.4999976654053,2|0,0:0|0:0,0:0:0:0:
355,125,93403,6,0,B|322:152|322:152|331:276,1,152.999995330811,2|2,0:0|0:0,0:0:0:0:
449,121,93909,1,0,0:0:0:0:
303,37,94077,2,0,P|259:34|207:73,1,76.4999976654053,0|2,0:0|0:0,0:0:0:0:
133,160,94414,2,0,P|177:163|228:123,1,76.4999976654053,2|0,0:0|0:0,0:0:0:0:
30,83,94751,6,0,L|53:269,1,152.999995330811,2|2,0:0|0:0,0:0:0:0:
205,149,95257,2,0,L|195:227,1,76.4999976654053,2|0,0:0|0:0,0:0:0:0:
57,310,95594,1,2,0:0:0:0:
57,310,95762,2,0,L|48:230,1,76.4999976654053,2|0,0:0|0:0,0:0:0:0:
212,145,96100,6,0,B|248:128|287:143|287:143|334:160|366:139,1,152.999995330811,2|2,0:0|0:0,0:0:0:0:
286,233,96605,1,0,0:0:0:0:
274,321,96774,1,2,0:0:0:0:
426,296,96942,1,0,0:0:0:0:
294,156,97111,2,0,L|286:233,1,76.4999976654053,2|0,0:0|0:0,0:0:0:0:
484,357,97448,6,0,P|508:307|436:212,1,152.999995330811,2|2,0:0|0:0,0:0:0:0:
288,312,97953,2,0,B|366:335|366:335|438:287,1,152.999995330811,2|2,0:0|0:0,0:0:0:0:
354,241,98459,1,2,0:0:0:0:
198,357,98628,6,0,B|184:321|196:276|196:276|210:234|187:190,1,152.999995330811,4|2,0:0|0:0,0:0:0:0:
114,69,99133,2,0,P|110:145|124:171,1,76.4999976654053,2|2,0:0|0:0,0:0:0:0:
354,241,99470,1,8,0:0:0:0:
113,247,99639,1,2,0:0:0:0:
354,241,99807,1,2,0:0:0:0:
193,363,99976,6,0,B|186:303|186:303|196:266|196:266|189:201,1,152.999995330811,4|2,0:0|0:0,0:0:0:0:
428,201,100482,2,0,P|432:277|416:306,1,76.4999976654053,2|2,0:0|0:0,0:0:0:0:
344,341,100819,1,8,0:0:0:0:
340,154,100987,1,2,0:0:0:0:
344,133,101071,1,0,0:0:0:0:
348,112,101156,2,0,B|304:135|304:135|216:119,1,127.5,8|0,3:2|3:2,0:0:0:0:
147,105,101493,5,4,0:0:0:0:
147,105,101830,2,0,P|174:202|116:263,1,170,2|0,0:0|0:0,0:0:0:0:
88,175,102335,1,2,0:0:0:0:
60,345,102504,2,0,L|52:260,1,85,8|0,0:0|0:0,0:0:0:0:
228,280,102841,6,0,L|235:364,1,85,2|0,0:0|0:0,0:0:0:0:
136,252,103178,1,2,0:0:0:0:
324,317,103347,2,0,L|308:133,1,170,8|2,0:0|0:0,0:0:0:0:
81,184,103852,2,0,P|56:218|51:260,1,85,8|0,0:0|0:0,0:0:0:0:
324,317,104189,6,0,P|407:302|492:298,1,170,2|8,0:0|0:0,0:0:0:0:
255,368,104695,1,0,0:0:0:0:
255,368,104864,2,0,P|240:303|253:271,1,85,0|2,0:0|0:0,0:0:0:0:
389,144,105201,2,0,P|404:209|391:241,1,85,8|0,0:0|0:0,0:0:0:0:
149,207,105538,6,0,L|325:192,1,170,2|8,3:2|3:2,0:0:0:0:
451,78,106043,2,0,P|372:56|308:107,1,170,2|2,0:0|0:0,0:0:0:0:
399,224,106549,2,0,P|404:183|389:144,1,85,8|0,3:2|0:0,0:0:0:0:
239,163,106886,5,2,0:0:0:0:
239,163,107223,2,0,L|267:354,1,170,8|0,0:0|0:0,0:0:0:0:
168,306,107729,1,2,0:0:0:0:
347,290,107897,2,0,L|359:374,1,85,8|0,0:0|0:0,0:0:0:0:
239,163,108234,6,0,P|311:160|345:183,1,85,2|0,0:0|0:0,0:0:0:0:
180,281,108571,1,8,0:0:0:0:
193,68,108740,2,0,P|273:66|380:102,1,170,2|0,0:0|0:0,0:0:0:0:
427,254,109246,2,0,P|386:264|345:255,1,85,8|2,0:0|0:0,0:0:0:0:
464,155,109583,5,2,0:0:0:0:
389,345,109751,1,2,0:0:0:0:
260,187,109920,2,0,L|273:83,1,85,8|0,0:0|0:0,0:0:0:0:
427,254,110257,5,0,0:0:0:0:
224,280,110425,1,2,0:0:0:0:
453,251,110594,1,8,0:0:0:0:
273,86,110762,2,0,B|240:60|240:60|265:222,1,170,6|2,0:0|0:0,0:0:0:0:
435,337,111268,2,0,P|477:335|512:312,1,85,2|2,0:0|0:0,0:0:0:0:
349,164,111605,6,0,L|343:206,1,42.5,8|0,3:2|3:2,0:0:0:0:
275,316,111774,2,0,L|270:274,1,42.5,0|0,3:2|0:0,0:0:0:0:
451,126,111942,1,8,3:2:0:0:
446,157,112026,1,0,3:2:0:0:
441,189,112110,1,0,3:2:0:0:
437,220,112194,1,0,3:2:0:0:
432,252,112279,6,0,L|266:274,1,136,4|0,3:2|0:0,0:0:0:0:
246,136,112785,1,0,0:0:0:0:
172,163,112953,2,0,L|337:185,1,136,2|8,0:0|0:0,0:0:0:0:
99,113,113459,6,0,P|88:178|101:203,1,68,2|0,0:0|0:0,0:0:0:0:
246,136,113796,2,0,P|214:91|180:81,1,68,2|0,0:0|0:0,0:0:0:0:
99,113,114133,1,2,0:0:0:0:
49,186,114302,2,0,P|115:198|171:162,1,136,2|8,0:0|0:0,0:0:0:0:
99,113,114807,1,0,0:0:0:0:
15,270,114976,5,2,0:0:0:0:
99,285,115144,2,0,P|154:273|188:254,1,68
15,270,115482,1,2,0:0:0:0:
97,369,115650,2,0,P|193:354|244:320,1,136,2|8,0:0|0:0,0:0:0:0:
314,274,116156,6,0,P|277:252|232:243,1,68,2|0,0:0|0:0,0:0:0:0:
99,285,116493,2,0,P|162:266|186:245,1,68,2|0,0:0|0:0,0:0:0:0:
193,177,116830,1,2,0:0:0:0:
226,336,116998,1,2,0:0:0:0:
188,144,117167,1,8,0:0:0:0:
377,223,117335,1,8,0:0:0:0:
163,265,117504,1,2,0:0:0:0:
407,217,117673,6,0,P|433:134|394:77,1,136,4|0,0:0|0:0,0:0:0:0:
355,149,118178,1,2,0:0:0:0:
226,157,118347,2,0,B|257:136|257:136|355:149,1,136,2|8,0:0|0:0,0:0:0:0:
470,281,118852,6,0,P|428:284|385:264,1,68,2|0,0:0|0:0,0:0:0:0:
289,159,119189,2,0,P|329:146|368:153,1,68,2|0,0:0|0:0,0:0:0:0:
442,207,119526,1,2,0:0:0:0:
259,312,119695,2,0,L|250:218,1,68,2|0,0:0|0:0,0:0:0:0:
364,356,120032,1,8,0:0:0:0:
155,267,120201,1,2,0:0:0:0:
133,265,120285,1,0,0:0:0:0:
112,263,120369,5,4,0:0:0:0:
112,263,120706,1,8,0:0:0:0:
259,312,120875,1,2,0:0:0:0:
29,238,121212,1,2,0:0:0:0:
395,51,121549,6,0,B|411:93|395:134|395:134|376:181|395:218,1,170,4|2,0:0|0:0,0:0:0:0:
452,351,122055,1,8,0:0:0:0:
482,178,122223,1,2,0:0:0:0:
339,355,122392,1,0,0:0:0:0:
294,149,122560,1,2,0:0:0:0:
294,149,122644,1,2,0:0:0:0:
294,149,122729,1,4,0:0:0:0:
215,378,122897,1,2,0:0:0:0:
407,242,123066,5,4,0:0:0:0:
213,204,123403,1,8,0:0:0:0:
347,48,123740,5,8,0:0:0:0:
407,242,123909,1,2,0:0:0:0:
213,204,124077,1,8,0:0:0:0:
441,120,124414,5,4,0:0:0:0:
300,281,124583,1,0,0:0:0:0:
225,74,124751,1,8,0:0:0:0:
472,126,124920,2,0,L|447:316,1,170,6|2,0:0|0:0,0:0:0:0:
235,346,125425,1,8,0:0:0:0:
363,171,125594,1,8,0:0:0:0:
366,191,125678,1,8,0:0:0:0:
369,212,125762,5,2,0:0:0:0:
184,149,126100,1,8,0:0:0:0:
235,346,126437,5,8,0:0:0:0:
369,212,126605,1,2,0:0:0:0:
184,149,126774,1,8,0:0:0:0:
333,319,127111,5,4,0:0:0:0:
294,120,127279,1,2,0:0:0:0:
146,254,127448,1,8,0:0:0:0:
384,187,127616,2,0,P|404:111|356:25,1,170,6|2,0:0|0:0,0:0:0:0:
193,133,128122,1,8,0:0:0:0:
384,187,128291,6,0,B|407:104|407:104|359:22,1,170,4|2,0:0|0:0,0:0:0:0:
164,140,128796,1,8,0:0:0:0:
164,140,129133,1,2,0:0:0:0:
310,121,129302,1,2,0:0:0:0:
95,59,129470,1,8,0:0:0:0:
160,280,129639,6,0,B|188:303|188:303|167:157,1,170,4|2,0:0|0:0,0:0:0:0:
155,378,130144,2,0,P|226:373|251:349,1,85,8|2,0:0|0:0,0:0:0:0:
199,95,130482,2,0,P|167:158|176:192,1,85,8|2,0:0|0:0,0:0:0:0:
399,281,130819,1,8,0:0:0:0:
303,71,130987,6,0,P|290:150|296:251,1,170,6|2,0:0|0:0,0:0:0:0:
488,344,131493,1,8,0:0:0:0:
238,320,131661,1,2,0:0:0:0:
505,244,131830,5,8,0:0:0:0:
252,154,131998,1,2,0:0:0:0:
231,157,132082,1,0,0:0:0:0:
210,162,132167,2,0,L|151:172,1,42.5,8|0,0:0|0:0,0:0:0:0:
462,93,132335,1,4,0:0:0:0:
168,169,132673,5,4,0:0:0:0:
505,244,132841,1,4,0:0:0:0:
224,63,133852,6,0,L|231:170,1,93.5000028533936,4|2,3:2|0:0,0:0:0:0:
309,352,134189,2,0,L|315:258,1,93.5000028533936,8|0,3:2|0:0,0:0:0:0:
128,253,134526,2,0,L|235:246,1,93.5000028533936,2|0,3:2|0:0,0:0:0:0:
417,168,134863,2,0,L|323:161,1,93.5000028533936,8|0,3:2|0:0,0:0:0:0:
128,253,135201,5,2,3:2:0:0:
314,258,135369,1,0,0:0:0:0:
89,170,135538,5,8,3:2:0:0:
323,161,135706,1,0,0:0:0:0:
86,87,135875,5,2,3:2:0:0:
317,47,136043,1,0,0:0:0:0:
63,194,136212,5,8,3:2:0:0:
314,258,136380,1,0,0:0:0:0:
166,61,136549,6,0,L|177:175,1,93.5000028533936,4|0,3:2|0:0,0:0:0:0:
347,249,136886,2,0,P|437:238|455:215,1,93.5000028533936,8|0,3:2|0:0,0:0:0:0:
165,248,137223,2,0,P|119:257|77:239,1,93.5000028533936,2|0,3:2|0:0,0:0:0:0:
346,61,137560,2,0,L|337:154,1,93.5000028533936,8|0,3:2|0:0,0:0:0:0:
188,347,137897,5,2,3:2:0:0:
236,153,138066,1,0,0:0:0:0:
289,372,138234,5,8,3:2:0:0:
241,124,138403,1,0,0:0:0:0:
73,265,138571,6,0,L|181:245,1,93.5000028533936,2|0,3:2|0:0,0:0:0:0:
193,244,138824,1,0,0:0:0:0:
193,244,138909,1,8,3:2:0:0:
386,206,139077,1,0,0:0:0:0:
289,372,139246,6,0,P|277:326|302:256,1,93.5000028533936,6|0,0:0|0:0,0:0:0:0:
470,161,139583,2,0,P|478:206|466:251,1,93.5000028533936,8|0,0:0|0:0,0:0:0:0:
290,101,139920,2,0,L|403:89,1,93.5000028533936,2|0,3:2|0:0,0:0:0:0:
199,152,140257,1,8,3:2:0:0:
386,206,140425,1,0,0:0:0:0:
191,62,140594,6,0,P|183:107|198:151,1,93.5000028533936,2|0,3:2|0:0,0:0:0:0:
285,281,140931,2,0,P|250:251|204:242,1,93.5000028533936,8|0,3:2|0:0,0:0:0:0:
48,249,141268,2,0,P|90:233|121:198,1,93.5000028533936,2|0,3:2|0:0,0:0:0:0:
59,10,141605,1,8,3:2:0:0:
42,161,141774,1,0,0:0:0:0:
297,124,141942,6,0,B|257:96|257:96|117:113,1,187.000005706787,4|8,0:2|3:2,0:0:0:0:
54,347,142448,2,0,P|144:372|233:290,1,187.000005706787,2|0,0:2|0:0,0:0:0:0:
121,198,142953,1,8,3:2:0:0:
389,221,143122,6,0,L|180:245,1,187.000005706787,4|0,0:0|0:0,0:0:0:0:
365,116,143628,1,8,3:2:0:0:
419,323,143796,1,0,0:0:0:0:
419,323,143880,1,0,0:0:0:0:
419,323,143965,5,2,3:2:0:0:
365,116,144133,1,8,0:0:0:0:
321,295,144302,1,8,3:2:0:0:
293,192,144470,1,0,0:0:0:0:
461,158,144639,6,0,L|484:257,1,93.5000028533936,4|0,3:2|0:0,0:0:0:0:
229,312,144976,2,0,L|206:213,1,93.5000028533936,8|0,3:2|0:0,0:0:0:0:
419,323,145313,2,0,L|320:346,1,93.5000028533936,2|0,3:2|0:0,0:0:0:0:
273,137,145650,2,0,L|372:114,1,93.5000028533936,8|0,3:2|0:0,0:0:0:0:
207,220,145987,5,2,3:2:0:0:
386,225,146156,1,0,0:0:0:0:
149,143,146324,5,8,3:2:0:0:
390,108,146493,1,0,0:0:0:0:
166,295,146661,5,2,3:2:0:0:
398,318,146830,1,0,0:0:0:0:
138,293,146998,5,8,3:2:0:0:
414,222,147167,1,0,0:0:0:0:
153,53,147335,6,0,P|146:136|156:155,1,93.5000028533936,4|0,3:2|0:0,0:0:0:0:
359,53,147673,2,0,P|366:136|356:155,1,93.5000028533936,8|0,3:2|0:0,0:0:0:0:
114,216,148010,2,0,P|172:220|208:197,1,93.5000028533936,2|0,3:2|0:0,0:0:0:0:
398,216,148347,2,0,P|340:220|304:197,1,93.5000028533936,8|0,3:2|0:0,0:0:0:0:
256,331,148684,5,2,3:2:0:0:
256,117,148852,1,0,0:0:0:0:
364,319,149021,5,8,3:2:0:0:
148,319,149189,1,0,0:0:0:0:
371,129,149358,6,0,B|392:153|392:153|397:215,1,93.5000028533936,2|0,3:2|0:0,0:0:0:0:
310,203,149611,1,0,0:0:0:0:
310,203,149695,2,0,L|202:197,1,93.5000028533936,8|0,3:2|0:0,0:0:0:0:
132,193,149948,1,0,0:0:0:0:
132,193,150032,5,6,0:0:0:0:
256,331,150201,1,0,0:0:0:0:
256,117,150369,2,0,L|162:111,1,93.5000028533936,8|0,3:2|0:0,0:0:0:0:
3,290,150706,2,0,L|189:278,1,187.000005706787,2|8,3:2|3:2,0:0:0:0:
39,195,151212,1,0,0:0:0:0:
168,17,151380,6,0,L|160:140,1,93.5000028533936,2|0,3:2|0:0,0:0:0:0:
350,242,151717,2,0,L|343:148,1,93.5000028533936,8|0,3:2|0:0,0:0:0:0:
131,338,152055,1,6,0:0:0:0:
160,357,152139,1,0,0:0:0:0:
195,362,152223,1,0,0:0:0:0:
228,353,152307,1,0,0:0:0:0:
255,330,152392,1,0,0:0:0:0:
255,330,152729,5,6,0:0:0:0:
252,106,152897,1,8,0:0:0:0:
255,330,153066,1,8,3:2:0:0:
255,330,153403,5,2,3:2:0:0:
252,106,153571,1,8,0:0:0:0:
348,348,153740,1,8,3:2:0:0:
353,89,153909,1,2,0:0:0:0:
131,224,154077,5,4,0:0:0:0:
403,175,154246,1,2,0:0:0:0:
177,303,154414,1,8,3:2:0:0:
382,265,154583,1,8,0:0:0:0:
183,145,154751,5,8,3:2:0:0:
167,384,154920,1,2,0:0:0:0:
95,138,155088,1,8,3:2:0:0:
322,196,155257,1,8,0:0:0:0:
322,196,155594,5,4,0:0:0:0:
75,234,155763,1,8,3:2:0:0:
282,119,155931,5,0,0:0:0:0:
95,138,156100,1,8,3:2:0:0:
335,37,156269,5,0,0:0:0:0:
54,26,156437,1,8,3:2:0:0:
191,290,156605,6,0,B|230:305|281:283|281:283|332:263|374:280,1,187.000005706787,4|2,0:0|0:0,0:0:0:0:
116,329,157111,2,0,P|108:277|125:238,1,93.5000028533936,8|2,3:2|0:0,0:0:0:0:
335,364,157616,5,8,0:0:0:0:
296,148,157784,1,8,3:2:0:0:
383,204,158122,6,0,L|392:104,2,85,4|0|0,0:0|0:0|0:0,0:0:0:0:
365,362,158796,1,0,0:0:0:0:
383,204,159133,1,0,0:0:0:0:
373,284,159302,1,2,0:0:0:0:
127,289,159470,6,0,B|161:300|210:271|210:271|258:244|298:275,1,170,4|0,0:0|0:0,0:0:0:0:
163,118,159976,2,0,B|181:152|151:200|151:200|110:162|114:130,1,170,0|0,0:0|0:0,0:0:0:0:
209,273,160481,2,0,P|170:289|127:289,1,85,8|0,0:0|0:0,0:0:0:0:
83,44,160818,6,0,P|122:28|165:28,2,85,4|0|0,0:0|0:0|0:0,0:0:0:0:
231,81,161493,1,0,0:0:0:0:
83,44,161830,1,0,0:0:0:0:
164,27,161998,1,2,0:0:0:0:
112,297,162167,6,0,B|119:223|119:223|108:197|108:197|115:122,1,170,4|0,0:0|0:0,0:0:0:0:
325,95,162672,2,0,P|277:162|195:167,1,170,0|8,0:0|0:0,0:0:0:0:
33,122,163178,1,2,0:0:0:0:
54,118,163262,1,0,0:0:0:0:
75,118,163346,1,0,0:0:0:0:
96,122,163430,1,0,0:0:0:0:
115,130,163515,6,0,L|108:218,1,85,4|0,0:0|0:0,0:0:0:0:
259,336,163852,2,0,L|253:252,1,85,8|0,0:0|0:0,0:0:0:0:
233,65,164189,1,2,0:0:0:0:
253,252,164358,1,0,0:0:0:0:
115,130,164526,2,0,P|165:126|205:159,1,85,8|0,0:0|0:0,0:0:0:0:
213,161,164779,1,0,0:0:0:0:
213,161,164863,6,0,P|259:161|305:134,1,85,4|0,0:0|0:0,0:0:0:0:
153,44,165200,1,8,0:0:0:0:
193,252,165369,2,0,P|277:250|362:209,1,170,0|0,0:0|0:0,0:0:0:0:
424,52,165875,2,0,P|386:35|344:36,1,85,8|0,0:0|0:0,0:0:0:0:
478,143,166212,5,4,0:0:0:0:
344,36,166380,1,0,0:0:0:0:
355,215,166549,2,0,L|368:306,1,85,8|0,0:0|0:0,0:0:0:0:
382,320,166802,1,0,0:0:0:0:
382,320,166886,2,0,L|372:382,2,42.5,2|0|0,0:0|0:0|0:0,0:0:0:0:
214,344,167223,1,8,0:0:0:0:
382,320,167391,1,0,0:0:0:0:
115,342,167560,6,0,B|77:360|77:360|92:200,1,170,4|0,0:0|0:0,0:0:0:0:
236,86,168066,2,0,P|272:141|239:222,1,127.5
192,156,168403,5,2,0:0:0:0:
458,181,168571,1,8,0:0:0:0:
458,181,168909,6,0,P|412:222|438:329,1,170,6|8,0:0|0:0,0:0:0:0:
488,260,169414,2,0,P|431:261|395:238,1,85,0|0,0:0|0:0,0:0:0:0:
259,198,169751,2,0,P|202:197|166:220,1,85,0|8,0:0|0:0,0:0:0:0:
281,366,170088,6,0,L|257:186,1,170,0|0,0:0|0:0,0:0:0:0:
182,298,170594,1,8,0:0:0:0:
83,315,170762,1,2,0:0:0:0:
86,293,170846,1,2,0:0:0:0:
89,272,170930,1,2,0:0:0:0:
100,189,171100,1,0,0:0:0:0:
115,106,171268,1,8,0:0:0:0:
129,22,171437,1,0,0:0:0:0:
268,101,171605,6,0,B|304:124|304:124|447:91,1,170,6|8,0:0|0:0,0:0:0:0:
397,19,172111,2,0,P|363:44|348:83,1,85,0|0,0:0|0:0,0:0:0:0:
377,160,172448,2,0,P|414:177|456:171,1,85,0|8,0:0|0:0,0:0:0:0:
296,146,172785,6,0,P|243:197|282:309,1,170,2|0,0:0|0:0,0:0:0:0:
349,348,173291,1,2,0:0:0:0:
483,296,173459,1,2,0:0:0:0:
462,291,173543,1,2,0:0:0:0:
440,291,173628,2,0,L|447:344,2,42.5,2|2|2,0:0|0:0|0:0,0:0:0:0:
255,286,173965,1,8,0:0:0:0:
349,348,174134,1,0,0:0:0:0:
160,358,174302,6,0,B|165:290|165:290|153:264|153:264|162:167,1,170,6|8,0:0|0:0,0:0:0:0:
85,142,174807,2,0,P|72:185|82:233,1,85,0|0,0:0|0:0,0:0:0:0:
159,276,175144,2,0,P|202:265|236:228,1,85,0|8,0:0|0:0,0:0:0:0:
188,83,175482,6,0,B|167:56|167:56|158:191,1,170,0|0,0:0|0:0,0:0:0:0:
230,317,175987,1,8,0:0:0:0:
305,204,176156,1,2,0:0:0:0:
301,183,176240,1,2,0:0:0:0:
297,162,176324,1,2,0:0:0:0:
335,85,176493,1,0,0:0:0:0:
418,67,176661,1,8,0:0:0:0:
482,123,176830,1,0,0:0:0:0:
389,297,176998,6,0,B|350:326|350:326|229:316,1,170,2|8,0:0|0:0,0:0:0:0:
148,353,177504,2,0,P|140:308|156:268,1,85,0|0,0:0|0:0,0:0:0:0:
237,230,177841,2,0,P|279:245|306:279,1,85,0|8,0:0|0:0,0:0:0:0:
161,177,178178,6,0,L|167:128,3,42.5,6|0|0|0,0:0|0:0|0:0|0:0,0:0:0:0:
50,218,178515,1,0,0:0:0:0:
50,218,178600,1,0,0:0:0:0:
50,218,178684,2,0,L|55:260,3,42.5,8|2|2|2,0:0|0:0|0:0|0:0,0:0:0:0:
93,83,179021,5,2,0:0:0:0:
124,54,179105,1,2,0:0:0:0:
165,44,179189,1,2,0:0:0:0:
205,54,179273,1,2,0:0:0:0:
237,82,179358,1,8,0:0:0:0:
268,110,179442,1,2,0:0:0:0:
309,120,179526,1,2,0:0:0:0:
349,110,179610,1,2,0:0:0:0:
381,81,179695,6,0,L|373:176,1,85,2|0,0:0|0:0,0:0:0:0:
461,330,180032,2,0,L|453:245,1,85,8|0,0:0|0:0,0:0:0:0:
268,110,180369,2,0,L|276:205,1,85,0|0,0:0|0:0,0:0:0:0:
346,353,180706,2,0,L|353:268,1,85,8|0,0:0|0:0,0:0:0:0:
461,48,181043,6,0,P|378:76|313:18,1,170,2|8,0:0|0:0,0:0:0:0:
171,32,181549,2,0,L|178:130,1,85,0|0,0:0|0:0,0:0:0:0:
71,73,181886,1,0,0:0:0:0:
268,110,182054,1,8,0:0:0:0:
139,264,182223,1,0,0:0:0:0:
70,95,182392,6,0,L|63:193,1,85,2|0,0:0|0:0,0:0:0:0:
62,205,182644,1,0,0:0:0:0:
61,230,182729,1,8,0:0:0:0:
183,347,182897,1,0,0:0:0:0:
269,196,183066,1,0,0:0:0:0:
116,290,183234,1,0,0:0:0:0:
345,345,183403,1,8,0:0:0:0:
198,259,183571,1,0,0:0:0:0:
346,150,183740,5,2,0:0:0:0:
279,288,183909,1,0,0:0:0:0:
183,170,184077,1,8,0:0:0:0:
371,67,184246,2,0,P|426:119|390:226,1,170,0|0,0:0|0:0,0:0:0:0:
183,170,184751,1,8,0:0:0:0:
185,138,184835,1,0,0:0:0:0:
188,106,184919,1,0,0:0:0:0:
190,74,185003,1,0,0:0:0:0:
193,42,185088,6,0,L|85:57,1,85,6|0,0:0|0:0,0:0:0:0:
83,56,185341,1,0,0:0:0:0:
83,56,185425,1,8,0:0:0:0:
286,130,185594,1,0,0:0:0:0:
286,130,185678,1,0,0:0:0:0:
286,130,185762,1,8,0:0:0:0:
65,196,185931,1,0,0:0:0:0:
193,42,186100,1,8,0:0:0:0:
256,230,186268,1,0,0:0:0:0:
74,98,186437,5,2,0:0:0:0:
286,130,186605,1,0,0:0:0:0:
150,300,186774,1,8,0:0:0:0:
193,42,186942,2,0,B|275:13|275:13|386:33,1,170,0|0,0:0|0:0,0:0:0:0:
442,235,187448,2,0,B|399:237|399:237|339:212,1,85,8|0,0:0|0:0,0:0:0:0:
470,127,187785,5,6,0:0:0:0:
442,235,187953,1,0,0:0:0:0:
393,78,188122,5,8,0:0:0:0:
360,220,188291,1,0,0:0:0:0:
315,40,188459,5,0,0:0:0:0:
278,205,188628,1,0,0:0:0:0:
171,10,188796,5,12,0:0:0:0:
200,255,188965,1,0,0:0:0:0:
49,71,189133,5,6,0:0:0:0:
76,217,189302,1,0,0:0:0:0:
187,44,189470,5,8,0:0:0:0:
172,256,189639,1,0,0:0:0:0:
296,23,189807,5,8,0:0:0:0:
303,264,189976,1,0,0:0:0:0:
423,9,190144,5,12,0:0:0:0:
387,302,190312,1,0,0:0:0:0:
163,200,190482,5,6,0:0:0:0:
398,178,190650,1,0,0:0:0:0:
120,118,190819,5,8,0:0:0:0:
425,87,190987,1,0,0:0:0:0:
171,288,191156,5,8,0:0:0:0:
274,44,191324,1,2,0:0:0:0:
434,260,191493,1,2,0:0:0:0:
447,278,191577,1,2,0:0:0:0:
457,299,191661,6,0,L|274:317,1,170,6|8,0:0|0:0,0:0:0:0:
483,194,192167,1,8,0:0:0:0:
218,141,192335,1,8,0:0:0:0:
381,347,192504,1,4,0:0:0:0:
421,71,198571,6,0,P|362:44|277:106,1,152.999995330811,4|0,0:0|0:0,0:0:0:0:
251,184,199077,1,0,0:0:0:0:
251,184,199246,2,0,L|275:355,1,152.999995330811
355,292,199751,1,0,0:0:0:0:
182,371,199920,6,0,L|158:195,1,152.999995330811,4|0,0:0|0:0,0:0:0:0:
146,123,200425,1,0,0:0:0:0:
203,48,200594,2,0,P|262:21|346:86,1,152.999995330811
264,108,201100,1,0,0:0:0:0:
356,248,201268,6,0,L|337:102,1,114.749996498108
334,59,201605,6,0,L|342:139,1,76.4999976654053
455,253,201942,2,0,L|445:171,1,76.4999976654053
376,314,202279,1,0,0:0:0:0:
341,135,202448,6,0,P|270:101|185:149,1,152.999995330811
174,322,202953,1,0,0:0:0:0:
271,189,203122,1,0,0:0:0:0:
112,172,203291,1,0,0:0:0:0:
112,172,203965,6,0,L|127:275,1,93.5000028533936,4|2,3:2|0:0,0:0:0:0:
218,92,204302,2,0,L|231:0,1,93.5000028533936,8|0,3:2|0:0,0:0:0:0:
208,187,204639,2,0,L|311:172,1,93.5000028533936,2|0,3:2|0:0,0:0:0:0:
125,79,204976,2,0,L|32:65,1,93.5000028533936,8|0,3:2|0:0,0:0:0:0:
207,188,205313,5,2,3:2:0:0:
385,164,205482,1,0,0:0:0:0:
189,276,205650,5,8,3:2:0:0:
413,273,205819,1,0,0:0:0:0:
207,188,205987,5,2,3:2:0:0:
417,159,206156,1,0,0:0:0:0:
189,276,206324,5,8,3:2:0:0:
412,307,206493,1,0,0:0:0:0:
322,84,206661,6,0,P|265:87|224:126,1,93.5000028533936,4|0,3:2|0:0,0:0:0:0:
309,350,206998,2,0,P|366:347|407:308,1,93.5000028533936,8|0,3:2|0:0,0:0:0:0:
182,212,207335,2,0,P|185:269|224:310,1,93.5000028533936,2|0,3:2|0:0,0:0:0:0:
438,228,207673,2,0,P|435:171|396:130,1,93.5000028533936,8|0,3:2|0:0,0:0:0:0:
205,297,208010,5,2,3:2:0:0:
438,228,208178,1,0,0:0:0:0:
182,212,208347,5,8,3:2:0:0:
412,307,208515,1,0,0:0:0:0:
322,84,208684,6,0,L|230:95,1,93.5000028533936,2|0,3:2|0:0,0:0:0:0:
201,100,208937,1,0,0:0:0:0:
201,100,209021,1,8,3:2:0:0:
340,165,209189,1,0,0:0:0:0:
128,50,209358,6,0,P|116:126|133:157,1,93.5000028533936,6|0,0:0|0:0,0:0:0:0:
206,282,209695,2,0,P|214:236|199:193,1,93.5000028533936,8|0,0:0|0:0,0:0:0:0:
34,339,210032,2,0,L|126:328,1,93.5000028533936,2|0,3:2|0:0,0:0:0:0:
322,348,210369,1,8,3:2:0:0:
131,246,210538,1,0,0:0:0:0:
340,165,210706,6,0,L|432:176,1,93.5000028533936,2|0,3:2|0:0,0:0:0:0:
263,253,211043,2,0,L|226:167,1,93.5000028533936,8|0,3:2|0:0,0:0:0:0:
378,273,211380,2,0,L|322:347,1,93.5000028533936,2|0,3:2|0:0,0:0:0:0:
340,165,211717,1,8,3:2:0:0:
484,276,211886,1,0,0:0:0:0:
304,366,212055,6,0,B|267:377|216:355|216:355|158:334|120:355,1,187.000005706787,4|8,2:0|3:2,0:0:0:0:
35,165,212560,2,0,B|62:152|75:135|75:135|62:284,1,187.000005706787,2|2,0:0|0:0,0:0:0:0:
7,86,213066,1,8,3:2:0:0:
5,354,213234,6,0,P|92:368|159:301,1,187.000005706787,4|0,0:0|0:0,0:0:0:0:
35,165,213740,1,8,3:2:0:0:
236,242,213909,1,0,0:0:0:0:
236,242,213993,1,0,0:0:0:0:
236,242,214077,5,2,3:2:0:0:
63,271,214246,1,8,0:0:0:0:
122,102,214414,1,8,3:2:0:0:
236,242,214583,1,0,0:0:0:0:
35,165,214751,6,0,L|41:63,1,93.5000028533936,4|0,3:2|0:0,0:0:0:0:
287,72,215088,2,0,L|293:174,1,93.5000028533936,8|0,3:2|0:0,0:0:0:0:
127,195,215425,2,0,L|121:101,1,93.5000028533936,2|0,3:2|0:0,0:0:0:0:
381,92,215762,2,0,L|375:185,1,93.5000028533936,8|0,3:2|0:0,0:0:0:0:
147,290,216100,5,2,3:2:0:0:
296,100,216268,1,0,0:0:0:0:
260,351,216437,5,8,3:2:0:0:
199,103,216605,1,0,0:0:0:0:
359,290,216774,5,2,3:2:0:0:
127,195,216942,1,0,0:0:0:0:
375,185,217111,5,8,3:2:0:0:
147,290,217279,1,0,0:0:0:0:
420,351,217448,6,0,P|444:296|433:248,1,93.5000028533936,4|0,3:2|0:0,0:0:0:0:
66,260,217785,2,0,P|64:307|86:347,1,93.5000028533936,8|0,3:2|0:0,0:0:0:0:
359,290,218122,2,0,L|345:179,1,93.5000028533936,2|0,3:2|0:0,0:0:0:0:
158,197,218459,2,0,L|146:289,1,93.5000028533936,8|0,3:2|0:0,0:0:0:0:
381,113,218796,5,2,3:2:0:0:
131,112,218965,1,0,0:0:0:0:
347,197,219133,5,8,3:2:0:0:
158,197,219302,1,0,0:0:0:0:
336,41,219470,6,0,P|401:30|442:58,1,93.5000028533936,2|0,3:2|0:0,0:0:0:0:
173,189,219807,2,0,P|128:202|85:188,1,93.5000028533936,8|0,3:2|0:0,0:0:0:0:
48,118,220060,1,0,0:0:0:0:
48,118,220144,5,6,0:0:0:0:
106,293,220313,1,0,0:0:0:0:
131,112,220482,2,0,L|118:16,1,93.5000028533936,8|0,3:2|0:0,0:0:0:0:
26,319,220819,2,0,P|91:375|186:318,1,187.000005706787,2|8,3:2|3:2,0:0:0:0:
44,231,221324,1,0,0:0:0:0:
266,370,221493,6,0,L|250:263,1,93.5000028533936,2|0,3:2|0:0,0:0:0:0:
367,71,221830,2,0,L|353:163,1,93.5000028533936,8|0,3:2|0:0,0:0:0:0:
131,234,222167,1,6,0:0:0:0:
165,226,222251,1,0,0:0:0:0:
199,232,222335,1,0,0:0:0:0:
229,250,222419,1,0,0:0:0:0:
251,277,222504,1,0,0:0:0:0:
251,277,222841,5,6,0:0:0:0:
225,63,223010,1,8,0:0:0:0:
251,277,223178,1,8,3:2:0:0:
251,277,223515,5,2,3:2:0:0:
225,63,223684,1,8,0:0:0:0:
352,287,223852,1,8,3:2:0:0:
367,71,224021,1,2,0:0:0:0:
163,210,224189,5,8,3:2:0:0:
415,201,224358,1,2,0:0:0:0:
150,116,224526,1,8,3:2:0:0:
367,71,224695,1,8,0:0:0:0:
389,65,224779,1,0,0:0:0:0:
412,60,224863,5,8,3:2:0:0:
251,277,225032,1,2,0:0:0:0:
297,27,225201,1,8,3:2:0:0:
245,310,225369,1,8,0:0:0:0:
245,310,225706,5,4,0:0:0:0:
452,285,225875,1,8,3:2:0:0:
250,207,226043,5,0,0:0:0:0:
442,190,226212,1,8,3:2:0:0:
202,125,226380,5,0,0:0:0:0:
437,55,226549,1,8,3:2:0:0:
339,332,226717,6,0,L|351:143,1,187.000005706787,4|2,0:0|0:0,0:0:0:0:
439,350,227223,1,8,3:2:0:0:
163,253,227392,1,2,0:0:0:0:
477,253,227729,5,8,0:0:0:0:
202,353,227897,1,8,3:2:0:0:
202,353,228234,5,2,3:2:0:0:
271,241,228403,2,0,L|264:191,2,34,0|0|2,0:0|0:0|0:0,0:0:0:0:
323,357,228740,1,0,0:0:0:0:
128,318,228909,2,0,P|123:366|132:391,1,68,2|0,0:0|0:0,0:0:0:0:
195,309,229246,2,0,L|119:319,1,68,10|0,0:0|0:0,0:0:0:0:
266,207,229583,5,2,3:2:0:0:
335,95,229752,2,0,L|328:45,2,34,0|0|2,0:0|0:0|0:0,0:0:0:0:
387,211,230089,1,0,0:0:0:0:
187,156,230258,2,0,P|175:188|176:222,1,68,2|0,0:0|0:0,0:0:0:0:
276,272,230594,2,0,P|278:238|266:207,1,68,10|0,0:0|0:0,0:0:0:0:
95,258,230931,5,2,3:2:0:0:
19,140,231100,2,0,L|23:88,2,34,0|0|2,0:0|0:0|0:0,0:0:0:0:
95,258,231437,2,0,L|97:291,2,34,0|0|2,0:0|0:0|0:0,0:0:0:0:
105,167,231774,1,0,0:0:0:0:
176,222,231942,1,10,0:0:0:0:
180,310,232111,1,0,0:0:0:0:
260,189,232279,6,0,P|309:189|343:209,1,68,2|0,3:2|0:0,0:0:0:0:
408,230,232532,1,0,0:0:0:0:
408,230,232616,2,0,L|397:150,1,68,2|0,0:0|0:0,0:0:0:0:
480,54,232953,2,0,L|470:121,1,68,2|0,0:0|0:0,0:0:0:0:
335,263,233291,2,0,L|325:195,1,68,10|0,0:0|0:0,0:0:0:0:
498,276,233628,5,2,3:2:0:0:
335,263,233796,1,2,0:0:0:0:
488,207,233965,2,0,L|496:274,1,68,2|0,0:0|0:0,0:0:0:0:
272,358,234302,5,2,3:2:0:0:
410,310,234470,1,2,0:0:0:0:
261,290,234639,2,0,L|270:357,1,68,2|0,0:0|0:0,0:0:0:0:
157,193,234976,6,0,L|165:248,2,45.3333333333333,2|2|2,3:2|0:0|0:0,0:0:0:0:
80,258,235313,2,0,L|71:191,1,68,2|2,0:0|0:0,0:0:0:0:
185,109,235650,2,0,P|238:116|279:160,1,102,2|0,0:0|0:0,0:0:0:0:
320,219,235987,6,0,P|281:157|357:158,1,170,4|0,0:0|0:0,0:0:0:0:
