osu file format v14

[General]
AudioFilename: himen.mp3
AudioLeadIn: 0
PreviewTime: 60285
Countdown: 0
SampleSet: Soft
StackLeniency: 0.4
Mode: 0
LetterboxInBreaks: 0
WidescreenStoryboard: 0

[Editor]
Bookmarks: 193178
DistanceSpacing: 1.1
BeatDivisor: 4
GridSize: 32
TimelineZoom: 1.6

[Metadata]
Title:Koi no Hime Hime Pettanko
TitleUnicode:恋のヒメヒメぺったんこ
Artist:*namirin
ArtistUnicode:*なみりん
Creator:sahuang
Version:Collab Easy
Source:弱虫ペダル
Tags:My Angel Azusa pata-mon joker left beomsan enon utaite nami なみ nnd nico nico douga ニコニコ動画 Tamura Yukari 田村 ゆかり Yowapeda Pedal
BeatmapID:1295443
BeatmapSetID:613083

[Difficulty]
HPDrainRate:3
CircleSize:2.7
OverallDifficulty:3
ApproachRate:4
SliderMultiplier:0.799999999999999
SliderTickRate:1

[Events]
//Background and Video events
0,0,"hime.jpg",0,0
//Break Periods
2,85313,89358
2,193378,202645
//Storyboard Layer 0 (Background)
//Storyboard Layer 1 (Fail)
//Storyboard Layer 2 (Pass)
//Storyboard Layer 3 (Foreground)
//Storyboard Sound Samples

[TimingPoints]
1718,337.078651685393,4,2,1,50,1,0
7111,-100,4,2,2,60,0,0
17897,-100,4,2,2,50,0,0
23291,-100,4,2,2,60,0,0
39470,-100,4,2,2,50,0,0
50257,-100,4,2,2,60,0,0
58178,-100,4,2,2,70,0,0
61043,-100,4,2,2,80,0,1
71156,-100,4,2,2,80,0,0
71830,-100,4,2,2,80,0,1
85313,-100,4,2,1,60,0,0
90706,-100,4,2,1,40,0,0
101493,-100,4,2,2,60,0,0
133852,-100,4,2,2,80,0,1
143965,-100,4,2,2,80,0,0
144639,-100,4,2,2,80,0,1
158122,-100,4,2,2,60,0,0
203965,-100,4,2,2,80,0,1
214077,-100,4,2,2,80,0,0
214751,-100,4,2,2,80,0,1
228234,-100,4,2,1,60,0,0

[Colours]
Combo1 : 255,168,125
Combo2 : 255,128,128
Combo3 : 158,158,207
Combo4 : 255,108,255

[HitObjects]
75,96,7111,6,0,L|83:183,1,79.9999999999999,4|0,0:0|0:0,0:0:0:0:
94,263,7785,1,0,0:0:0:0:
237,364,8459,2,0,B|327:352,1,79.9999999999999,4|0,0:0|0:0,0:0:0:0:
354,331,8965,2,0,P|370:291|349:211,1,120,0|8,0:0|0:0,0:0:0:0:
286,161,9807,6,0,L|278:68,1,79.9999999999999,4|0,0:0|0:0,0:0:0:0:
210,25,10482,1,0,0:0:0:0:
91,155,11156,2,0,P|129:171|169:165,1,79.9999999999999,4|0,0:0|0:0,0:0:0:0:
204,144,11661,2,0,L|218:275,1,120,0|2,0:0|0:0,0:0:0:0:
244,346,12504,6,0,P|286:367|325:363,1,79.9999999999999,4|8,0:0|0:0,0:0:0:0:
393,320,13178,2,0,L|394:226,1,79.9999999999999,2|8,0:0|0:0,0:0:0:0:
319,194,13852,2,0,L|318:100,1,79.9999999999999,4|8,0:0|0:0,0:0:0:0:
371,44,14526,1,0,0:0:0:0:
459,45,14864,1,8,0:0:0:0:
509,117,15201,6,0,P|515:168|420:173,1,160,4|2,0:0|0:0,0:0:0:0:
348,143,16212,1,8,0:0:0:0:
266,175,16549,2,0,B|203:173|158:221|158:221|111:183|36:210,1,240,4|8,0:0|0:0,0:0:0:0:
36,294,17897,5,4,0:0:0:0:
86,365,18234,1,8,0:0:0:0:
173,354,18571,2,0,L|275:341,1,79.9999999999999,2|8,0:0|0:0,0:0:0:0:
318,285,19246,2,0,P|321:220|276:169,2,120,2|8|8,0:0|0:0|0:0,0:0:0:0:
237,249,20594,6,0,L|45:238,1,160,2|0,0:0|0:0,0:0:0:0:
4,190,21605,1,8,0:0:0:0:
84,154,21942,2,0,B|74:94|74:94|96:29,2,120,2|8|8,0:0|0:0|0:0,0:0:0:0:
168,128,23291,6,0,P|212:115|260:120,1,79.9999999999999,2|8,0:0|0:0,0:0:0:0:
312,173,23965,2,0,P|356:186|404:181,1,79.9999999999999,0|8,0:0|0:0,0:0:0:0:
472,153,24639,2,0,L|463:279,1,120,2|10,0:0|0:0,0:0:0:0:
305,348,25819,6,0,P|245:316|95:350,1,200,4|8,0:0|0:0,0:0:0:0:
15,249,27167,2,0,B|58:144|-20:142|20:48,1,200,4|8,0:0|0:0,0:0:0:0:
92,8,28347,1,8,3:2:0:0:
163,59,28684,6,0,L|262:63,1,79.9999999999999,4|2,0:0|0:0,0:0:0:0:
316,110,29358,2,0,P|327:159|318:201,1,79.9999999999999,0|8,0:0|0:0,0:0:0:0:
251,240,30032,2,0,P|236:292|252:377,2,120,2|8|8,0:0|0:0|0:0,0:0:0:0:
221,157,31380,6,0,P|148:125|62:146,1,160,2|0,0:0|0:0,0:0:0:0:
4,197,32392,1,8,0:0:0:0:
52,270,32729,2,0,P|58:325|107:370,2,120,2|2|8,3:2|0:0|3:2,0:0:0:0:
138,287,34077,6,0,L|256:287,1,79.9999999999999,2|8,0:0|0:0,0:0:0:0:
287,341,34751,2,0,L|405:341,1,79.9999999999999,0|8,0:0|0:0,0:0:0:0:
444,299,35425,2,0,L|449:158,1,120,2|2,0:0|0:0,0:0:0:0:
419,50,36437,1,8,0:0:0:0:
350,105,36774,6,0,L|356:153,2,40,2|2|8,0:0|0:0|0:0,0:0:0:0:
275,58,37448,2,0,L|167:58,1,79.9999999999999,0|8,0:0|0:0,0:0:0:0:
152,46,37953,2,0,P|200:102|103:153,1,200,6|8,0:0|3:2,0:0:0:0:
37,122,39133,1,8,3:2:0:0:
44,209,39470,6,0,P|34:254|72:363,1,160,4|2,3:2|0:0,0:0:0:0:
155,377,40482,1,8,0:0:0:0:
214,312,40819,2,0,B|295:296|295:296|391:321,1,160,0|2,0:0|0:0,0:0:0:0:
445,359,41830,1,8,0:0:0:0:
445,271,42167,6,0,L|449:130,2,120,2|2|8,0:0|0:0|0:0,0:0:0:0:
358,255,43515,2,0,L|362:114,2,120,0|2|8,0:0|0:0|0:0,0:0:0:0:
271,271,44864,6,0,P|201:308|123:300,1,160,4|2,0:0|0:0,0:0:0:0:
55,245,45875,1,8,0:0:0:0:
86,163,46212,2,0,P|121:137|248:141,1,160,0|2,0:0|0:0,0:0:0:0:
308,179,47223,1,8,0:0:0:0:
330,263,47560,6,0,L|329:361,2,79.9999999999999,4|8|8,0:0|0:0|0:0,0:0:0:0:
217,332,48740,2,0,P|123:328|87:240,1,200,4|8,0:0|0:0,0:0:0:0:
174,256,49920,1,4,0:0:0:0:
141,174,50257,5,4,0:0:0:0:
177,94,50594,1,8,0:0:0:0:
253,49,50931,2,0,L|306:55,2,40,8|2|8,0:0|0:0|0:0,0:0:0:0:
260,137,51605,2,0,P|274:191|260:282,2,120,4|6|8,0:0|0:0|0:0,0:0:0:0:
192,82,52953,5,2,0:0:0:0:
154,162,53291,1,8,0:0:0:0:
178,247,53628,2,0,L|129:262,2,40,8|2|8,0:0|0:0|0:0,0:0:0:0:
249,298,54302,2,0,L|384:282,1,120,4|6,0:0|0:0,0:0:0:0:
429,118,55482,6,0,L|309:132,1,120,4|8,0:0|0:0,0:0:0:0:
229,95,56324,1,2,0:0:0:0:
177,165,56661,2,0,P|148:192|111:207,1,79.9999999999999,8|0,0:0|0:0,0:0:0:0:
62,134,57335,2,0,P|90:106|127:91,2,79.9999999999999,8|8|8,0:0|0:0|0:0,0:0:0:0:
256,192,58178,12,4,59526,0:0:0:0:
292,46,61043,6,0,L|289:145,1,79.9999999999999,4|8,3:2|3:2,0:0:0:0:
356,183,61717,2,0,L|359:282,1,79.9999999999999,2|8,3:2|3:2,0:0:0:0:
305,333,62392,2,0,P|257:351|216:343,2,79.9999999999999,2|8|2,3:2|3:2|3:2,0:0:0:0:
252,262,63403,1,8,3:2:0:0:
166,242,63740,6,0,L|74:252,1,79.9999999999999,4|8,3:2|3:2,0:0:0:0:
34,180,64414,2,0,P|17:135|20:100,1,79.9999999999999,2|8,3:2|3:2,0:0:0:0:
82,42,65088,1,2,3:2:0:0:
107,126,65425,1,8,3:2:0:0:
178,73,65762,2,0,L|274:57,1,79.9999999999999,2|8,3:2|3:2,0:0:0:0:
345,54,66437,6,0,P|377:106|368:215,1,160,6|2,0:0|3:2,0:0:0:0:
294,239,67448,2,0,L|195:242,1,79.9999999999999,8|0,3:2|0:0,0:0:0:0:
231,327,68122,2,0,L|310:324,1,79.9999999999999,8|2,3:2|3:2,0:0:0:0:
392,356,68796,1,8,3:2:0:0:
461,302,69133,6,0,P|478:252|473:211,2,79.9999999999999,2|8|2,3:2|3:2|3:2,0:0:0:0:
344,239,70313,2,0,L|354:85,1,120,4|8,0:0|3:2,0:0:0:0:
288,57,71156,2,0,L|284:12,2,40,2|8|8,3:2|0:0|3:2,0:0:0:0:
215,107,71830,6,0,P|178:121|120:125,1,79.9999999999999,4|8,3:2|3:2,0:0:0:0:
53,150,72504,2,0,P|64:188|59:231,1,79.9999999999999,2|8,3:2|3:2,0:0:0:0:
16,304,73178,1,2,3:2:0:0:
92,347,73515,1,8,3:2:0:0:
135,270,73852,2,0,L|221:253,1,79.9999999999999,2|8,3:2|3:2,0:0:0:0:
294,290,74526,5,4,3:2:0:0:
372,248,74864,2,0,L|450:263,2,79.9999999999999,8|2|8,3:2|3:2|3:2,0:0:0:0:
309,185,75875,2,0,L|299:95,1,79.9999999999999,2|8,3:2|3:2,0:0:0:0:
212,108,76549,2,0,L|203:187,1,79.9999999999999,2|8,3:2|3:2,0:0:0:0:
256,256,77223,5,6,0:0:0:0:
223,337,77560,1,8,3:2:0:0:
136,351,77897,2,0,L|51:357,1,79.9999999999999,2|8,3:2|3:2,0:0:0:0:
10,281,78571,2,0,P|16:235|0:196,2,79.9999999999999,2|8|6,3:2|3:2|0:0,0:0:0:0:
93,125,79920,5,6,0:0:0:0:
120,41,80257,1,8,3:2:0:0:
208,41,80594,1,2,3:2:0:0:
236,125,80931,2,0,P|265:118|295:115,2,40,8|2|8,3:2|0:0|3:2,0:0:0:0:
164,177,81605,2,0,P|134:170|104:167,2,40,8|8|8,3:2|0:0|3:2,0:0:0:0:
221,243,82279,2,0,P|250:249|280:252,1,40,8|8,3:2|0:0,0:0:0:0:
338,210,82785,6,0,L|433:188,2,79.9999999999999,4|0|0,0:0|0:0|0:0,0:0:0:0:
260,250,83796,2,0,P|246:295|346:342,1,160,4|2,0:0|0:0,0:0:0:0:
406,316,84807,2,0,L|470:319,1,40,8|8,0:0|3:2,0:0:0:0:
159,109,90706,5,4,0:0:0:0:
226,52,91043,2,0,L|315:47,2,79.9999999999999,2|2|2,0:0|0:0|0:0,0:0:0:0:
239,139,92055,2,0,B|271:199|238:280,2,120,2|2|2,0:0|0:0|0:0,0:0:0:0:
157,107,93403,6,0,L|62:115,1,79.9999999999999,2|2,0:0|0:0,0:0:0:0:
26,185,94077,2,0,L|34:280,1,79.9999999999999,0|2,0:0|0:0,0:0:0:0:
85,334,94751,2,0,L|220:340,2,120,2|2|2,0:0|0:0|0:0,0:0:0:0:
116,251,96100,5,2,0:0:0:0:
63,180,96437,2,0,P|54:141|148:66,1,160,2|2,0:0|0:0,0:0:0:0:
207,108,97448,2,0,B|214:242,2,120,2|2|2,0:0|0:0|0:0,0:0:0:0:
235,74,98628,6,0,L|468:67,1,200,4|8,0:0|0:0,0:0:0:0:
501,182,99976,2,0,L|301:188,1,200,4|8,0:0|0:0,0:0:0:0:
224,232,101156,1,8,3:2:0:0:
156,176,101493,6,0,P|116:172|74:179,1,79.9999999999999,4|2,0:0|0:0,0:0:0:0:
17,242,102167,2,0,P|13:282|20:324,1,79.9999999999999,0|8,0:0|0:0,0:0:0:0:
93,368,102841,2,0,P|136:369|205:329,2,120,2|8|8,0:0|0:0|0:0,0:0:0:0:
97,280,104189,5,2,0:0:0:0:
161,219,104526,2,0,L|256:225,1,79.9999999999999,8|0,0:0|0:0,0:0:0:0:
328,231,105201,1,8,0:0:0:0:
398,178,105538,2,0,L|391:32,2,120,2|2|8,3:2|0:0|3:2,0:0:0:0:
328,231,106886,6,0,P|282:221|226:232,1,79.9999999999999,2|8,0:0|0:0,0:0:0:0:
180,279,107560,2,0,P|140:281|101:272,1,79.9999999999999,0|8,0:0|0:0,0:0:0:0:
55,197,108234,2,0,L|66:61,2,120,2|2|8,0:0|0:0|0:0,0:0:0:0:
101,272,109583,6,0,L|110:331,2,40,2|2|8,0:0|0:0|0:0,0:0:0:0:
142,194,110257,2,0,L|224:189,1,79.9999999999999,0|8,0:0|0:0,0:0:0:0:
264,178,110762,2,0,P|249:216|364:221,1,200,6|8,0:0|3:2,0:0:0:0:
347,151,111942,1,8,3:2:0:0:
288,85,112279,6,0,P|212:64|138:91,1,160,4|2,3:2|0:0,0:0:0:0:
77,154,113291,1,8,0:0:0:0:
105,237,113628,2,0,L|97:328,2,79.9999999999999,0|0|2,0:0|0:0|0:0,0:0:0:0:
77,154,114639,1,8,0:0:0:0:
116,75,114976,6,0,B|224:126|240:19|344:87,1,240,2|8,0:0|0:0,0:0:0:0:
399,159,116324,2,0,L|487:146,2,79.9999999999999,0|0|2,0:0|0:0|0:0,0:0:0:0:
375,243,117335,1,8,0:0:0:0:
355,329,117673,6,0,P|241:298|121:336,1,240,4|8,0:0|0:0,0:0:0:0:
62,272,119021,2,0,P|78:240|76:192,1,79.9999999999999,0|0,0:0|0:0,0:0:0:0:
26,124,119695,2,0,P|10:92|12:44,1,79.9999999999999,2|8,0:0|0:0,0:0:0:0:
95,71,120369,6,0,L|302:70,1,200,4|2,0:0|0:0,0:0:0:0:
376,35,121549,2,0,P|344:82|350:144,1,120,4|8,0:0|0:0,0:0:0:0:
404,211,122392,2,0,L|397:317,1,79.9999999999999,0|4,0:0|0:0,0:0:0:0:
329,344,123066,5,4,0:0:0:0:
254,297,123403,1,8,0:0:0:0:
285,214,123740,2,0,P|288:192|286:166,2,40,8|2|8,0:0|0:0|0:0,0:0:0:0:
197,225,124414,2,0,L|75:219,2,120,4|6|8,0:0|0:0|0:0,0:0:0:0:
254,297,125762,5,2,0:0:0:0:
337,269,126100,1,8,0:0:0:0:
335,181,126437,2,0,L|383:180,2,40,8|2|8,0:0|0:0|0:0,0:0:0:0:
251,147,127111,2,0,P|192:130|131:154,1,120,4|6,0:0|0:0,0:0:0:0:
142,324,128291,6,0,P|201:341|262:317,1,120,4|8,0:0|0:0,0:0:0:0:
308,253,129133,1,2,0:0:0:0:
274,171,129470,2,0,L|279:83,1,79.9999999999999,8|0,0:0|0:0,0:0:0:0:
194,63,130144,2,0,L|189:151,2,79.9999999999999,8|8|8,0:0|0:0|0:0,0:0:0:0:
256,192,130987,12,4,132335,0:0:0:0:
177,43,133852,6,0,L|180:142,1,79.9999999999999,4|8,3:2|3:2,0:0:0:0:
113,180,134526,2,0,L|110:279,1,79.9999999999999,2|8,3:2|3:2,0:0:0:0:
164,330,135201,2,0,P|212:348|256:340,2,79.9999999999999,2|8|2,3:2|3:2|3:2,0:0:0:0:
199,249,136212,1,8,3:2:0:0:
272,200,136549,6,0,L|354:205,1,79.9999999999999,4|8,3:2|3:2,0:0:0:0:
411,140,137223,2,0,P|417:100|402:56,1,79.9999999999999,2|8,3:2|3:2,0:0:0:0:
329,19,137897,1,2,3:2:0:0:
329,106,138234,1,8,3:2:0:0:
251,64,138571,2,0,L|170:68,1,79.9999999999999,2|8,3:2|3:2,0:0:0:0:
86,44,139246,6,0,P|130:111|114:192,1,160,6|2,0:0|3:2,0:0:0:0:
64,256,140257,1,8,3:2:0:0:
108,331,140594,2,0,L|189:326,1,79.9999999999999,2|8,3:2|3:2,0:0:0:0:
268,290,141268,2,0,L|347:294,1,79.9999999999999,2|8,3:2|3:2,0:0:0:0:
417,348,141942,6,0,P|436:292|413:234,2,120,10|0|8,3:2|0:0|3:2,0:0:0:0:
347,294,143291,2,0,P|327:245|332:216,1,79.9999999999999,0|8,0:0|3:2,0:0:0:0:
385,151,143965,2,0,P|405:102|401:72,1,79.9999999999999,2|8,3:2|3:2,0:0:0:0:
331,24,144639,5,4,3:2:0:0:
273,90,144976,2,0,L|182:77,2,79.9999999999999,8|2|8,3:2|3:2|3:2,0:0:0:0:
276,177,145987,2,0,L|185:164,1,79.9999999999999,2|8,3:2|3:2,0:0:0:0:
132,225,146661,2,0,P|134:266|109:312,2,79.9999999999999,2|8|4,3:2|3:2|3:2,0:0:0:0:
73,158,147673,5,8,3:2:0:0:
100,74,148010,2,0,L|189:72,1,79.9999999999999,2|8,3:2|3:2,0:0:0:0:
247,129,148684,2,0,L|283:51,1,79.9999999999999,2|8,3:2|3:2,0:0:0:0:
368,60,149358,2,0,L|401:132,1,79.9999999999999,2|8,3:2|3:2,0:0:0:0:
366,213,150032,5,6,0:0:0:0:
431,272,150369,1,8,3:2:0:0:
384,346,150706,2,0,P|347:337|298:342,1,79.9999999999999,2|8,3:2|3:2,0:0:0:0:
218,327,151380,2,0,P|179:336|139:333,2,79.9999999999999,2|8|6,3:2|3:2|0:0,0:0:0:0:
285,164,152729,5,6,0:0:0:0:
215,117,153066,1,8,3:2:0:0:
149,169,153403,1,2,3:2:0:0:
177,248,153740,2,0,L|221:245,2,40,8|2|4,3:2|0:0|0:0,0:0:0:0:
111,306,154414,2,0,L|67:303,2,40,8|8|8,3:2|0:0|3:2,0:0:0:0:
185,353,155088,2,0,L|229:350,1,40,8|8,3:2|0:0,0:0:0:0:
302,308,155594,6,0,P|292:266|302:232,2,79.9999999999999,4|0|0,0:0|0:0|0:0,0:0:0:0:
381,271,156605,2,0,P|382:192|319:144,1,160,4|2,0:0|0:0,0:0:0:0:
249,96,157616,2,0,L|181:103,1,40,8|8,0:0|3:2,0:0:0:0:
123,79,158122,6,0,L|131:166,1,79.9999999999999,4|0,0:0|0:0,0:0:0:0:
82,232,158796,1,0,0:0:0:0:
219,341,159470,2,0,P|264:323|308:335,1,79.9999999999999,4|0,0:0|0:0,0:0:0:0:
337,336,159976,2,0,L|323:191,1,120,0|8,0:0|0:0,0:0:0:0:
380,147,160819,6,0,L|459:139,1,79.9999999999999,4|0,0:0|0:0,0:0:0:0:
508,66,161493,1,0,0:0:0:0:
341,8,162167,2,0,P|325:46|331:86,1,79.9999999999999,4|0,0:0|0:0,0:0:0:0:
350,122,162673,2,0,L|219:110,1,120,0|2,0:0|0:0,0:0:0:0:
163,53,163515,6,0,P|142:95|145:134,1,79.9999999999999,4|8,0:0|0:0,0:0:0:0:
201,192,164189,2,0,P|222:234|219:273,1,79.9999999999999,2|8,0:0|0:0,0:0:0:0:
181,344,164863,2,0,L|101:331,1,79.9999999999999,4|8,0:0|0:0,0:0:0:0:
32,278,165537,1,0,0:0:0:0:
111,239,165875,1,8,0:0:0:0:
40,185,166212,6,0,P|23:140|85:47,1,160,4|2,0:0|0:0,0:0:0:0:
110,131,167223,1,8,0:0:0:0:
144,212,167560,2,0,B|260:187|246:290|379:244,1,240,4|8,0:0|0:0,0:0:0:0:
429,179,168909,5,6,0:0:0:0:
341,80,169414,2,0,L|214:85,1,120,0|8,0:0|0:0,0:0:0:0:
187,113,170088,2,0,L|67:118,1,120,0|8,0:0|0:0,0:0:0:0:
29,198,170931,2,0,P|16:231|25:283,1,79.9999999999999,2|8,0:0|0:0,0:0:0:0:
52,356,171605,5,6,0:0:0:0:
165,288,172111,2,0,L|253:283,1,79.9999999999999,0|0,0:0|0:0,0:0:0:0:
305,347,172785,2,0,P|329:303|308:227,1,120,2|2,0:0|0:0,0:0:0:0:
261,167,173628,2,0,P|250:125|268:86,1,79.9999999999999,2|8,0:0|0:0,0:0:0:0:
342,53,174302,6,0,L|430:48,1,79.9999999999999,6|8,0:0|0:0,0:0:0:0:
463,35,174807,2,0,P|445:100|450:121,1,79.9999999999999,0|0,0:0|0:0,0:0:0:0:
481,192,175482,2,0,P|484:251|460:305,1,120,0|8,0:0|0:0,0:0:0:0:
382,345,176324,2,0,L|293:340,1,79.9999999999999,2|8,0:0|0:0,0:0:0:0:
229,292,176998,6,0,L|148:288,1,79.9999999999999,2|8,0:0|0:0,0:0:0:0:
107,304,177504,2,0,P|125:239|120:218,1,79.9999999999999,0|0,0:0|0:0,0:0:0:0:
94,144,178178,2,0,P|90:84|115:30,1,120,6|8,0:0|0:0,0:0:0:0:
186,82,179021,2,0,P|189:129|170:172,1,79.9999999999999,2|8,0:0|0:0,0:0:0:0:
123,228,179695,6,0,L|42:224,1,79.9999999999999,2|8,0:0|0:0,0:0:0:0:
13,306,180369,2,0,L|94:310,1,79.9999999999999,0|8,0:0|0:0,0:0:0:0:
179,294,181043,2,0,P|206:251|189:172,1,120,2|0,0:0|0:0,0:0:0:0:
247,62,182055,1,8,0:0:0:0:
313,120,182392,6,0,L|309:201,1,79.9999999999999,2|8,0:0|0:0,0:0:0:0:
396,189,183066,2,0,L|399:109,1,79.9999999999999,0|8,0:0|0:0,0:0:0:0:
485,98,183740,2,0,L|476:265,1,160,2|0,0:0|0:0,0:0:0:0:
499,343,184751,1,8,0:0:0:0:
414,318,185088,6,0,P|360:294|332:301,1,79.9999999999999,6|8,0:0|0:0,0:0:0:0:
264,340,185762,2,0,P|224:340|191:319,1,79.9999999999999,8|8,0:0|0:0,0:0:0:0:
135,250,186437,2,0,L|127:90,1,160,2|0,0:0|0:0,0:0:0:0:
63,29,187448,1,8,0:0:0:0:
33,112,187785,6,0,L|36:191,1,79.9999999999999,6|8,0:0|0:0,0:0:0:0:
11,276,188459,2,0,L|90:272,1,79.9999999999999,0|12,0:0|0:0,0:0:0:0:
175,298,189133,2,0,L|171:218,1,79.9999999999999,6|8,0:0|0:0,0:0:0:0:
197,134,189807,2,0,L|117:137,1,79.9999999999999,8|12,0:0|0:0,0:0:0:0:
143,53,190482,6,0,L|229:48,1,79.9999999999999,6|8,0:0|0:0,0:0:0:0:
282,113,191156,2,0,P|298:145|287:233,1,120,8|6,0:0|0:0,0:0:0:0:
265,311,191998,2,0,L|391:304,1,120,8|4,0:0|0:0,0:0:0:0:
465,147,193178,5,0,0:0:0:0:
54,221,203965,6,0,L|153:224,1,79.9999999999999,4|8,3:2|3:2,0:0:0:0:
199,164,204639,2,0,L|298:161,1,79.9999999999999,2|8,3:2|3:2,0:0:0:0:
357,200,205314,2,0,P|375:248|367:292,2,79.9999999999999,2|8|2,3:2|3:2|3:2,0:0:0:0:
278,161,206325,1,8,3:2:0:0:
265,74,206661,6,0,L|168:71,1,79.9999999999999,4|8,3:2|3:2,0:0:0:0:
112,120,207335,2,0,P|92:161|93:197,1,79.9999999999999,2|8,3:2|3:2,0:0:0:0:
113,280,208010,1,2,3:2:0:0:
195,309,208347,1,8,3:2:0:0:
272,267,208684,2,0,L|376:281,1,79.9999999999999,2|8,3:2|3:2,0:0:0:0:
428,235,209359,6,0,P|435:156|399:86,1,160,6|2,0:0|3:2,0:0:0:0:
311,77,210369,1,8,3:2:0:0:
243,132,210706,2,0,L|164:129,2,79.9999999999999,2|8|2,3:2|3:2|3:2,0:0:0:0:
324,165,211718,1,8,3:2:0:0:
295,248,212055,6,0,B|254:276|254:276|140:274,1,160,10|2,3:2|3:2,0:0:0:0:
49,181,213234,2,0,P|20:220|14:301,1,120,4|8,0:0|3:2,0:0:0:0:
85,337,214078,2,0,L|89:382,2,40,2|8|8,3:2|0:0|3:2,0:0:0:0:
143,274,214752,6,0,P|180:260|238:256,1,79.9999999999999,4|8,3:2|3:2,0:0:0:0:
294,302,215425,2,0,P|331:316|389:320,1,79.9999999999999,2|8,3:2|3:2,0:0:0:0:
448,278,216100,2,0,L|446:171,1,79.9999999999999,2|8,3:2|3:2,0:0:0:0:
413,116,216774,1,2,3:2:0:0:
326,100,217111,1,8,3:2:0:0:
257,155,217448,6,0,L|155:165,2,79.9999999999999,4|8|2,3:2|3:2|3:2,0:0:0:0:
242,68,218459,1,8,3:2:0:0:
154,76,218797,2,0,L|63:84,1,79.9999999999999,2|8,3:2|3:2,0:0:0:0:
13,146,219470,2,0,L|19:247,1,79.9999999999999,2|8,3:2|3:2,0:0:0:0:
28,313,220145,5,6,0:0:0:0:
97,259,220482,1,8,3:2:0:0:
109,346,220819,2,0,L|188:340,1,79.9999999999999,2|8,3:2|3:2,0:0:0:0:
262,292,221493,2,0,L|341:297,2,79.9999999999999,2|8|6,3:2|3:2|0:0,0:0:0:0:
162,146,222842,5,6,0:0:0:0:
189,62,223179,1,8,3:2:0:0:
277,62,223516,1,2,3:2:0:0:
305,146,223853,2,0,P|334:139|364:136,2,40,8|2|8,3:2|0:0|3:2,0:0:0:0:
233,198,224527,2,0,P|203:191|173:188,2,40,8|8|8,3:2|0:0|3:2,0:0:0:0:
290,264,225201,2,0,P|319:270|349:273,1,40,8|8,3:2|0:0,0:0:0:0:
412,241,225707,6,0,L|409:144,2,79.9999999999999,4|0|0,0:0|0:0|0:0,0:0:0:0:
499,250,226717,2,0,L|492:69,1,160,4|2,0:0|0:0,0:0:0:0:
428,30,227729,2,0,P|407:23|367:23,1,40,8|8,0:0|3:2,0:0:0:0:
313,66,228234,6,0,B|236:105|237:40|153:80,1,160,2|2,3:2|0:0,0:0:0:0:
85,126,229246,1,10,0:0:0:0:
64,211,229583,2,0,P|66:261|149:321,1,160,2|2,3:2|0:0,0:0:0:0:
234,299,230594,1,10,0:0:0:0:
318,324,230931,6,0,L|416:335,2,79.9999999999999,2|0|2,3:2|0:0|0:0,0:0:0:0:
298,238,231942,1,10,0:0:0:0:
359,175,232279,2,0,L|457:186,2,79.9999999999999,2|0|2,3:2|0:0|0:0,0:0:0:0:
339,89,233290,1,10,0:0:0:0:
253,65,233628,6,0,L|258:18,2,40,2|2|2,3:2|0:0|0:0,0:0:0:0:
166,78,234302,2,0,L|171:31,2,40,2|2|2,3:2|0:0|0:0,0:0:0:0:
81,53,234976,2,0,B|75:100|75:100|93:166|93:166|83:212,1,160,2|2,3:2|0:0,0:0:0:0:
51,291,235987,1,4,0:0:0:0:
