osu file format v14

[General]
AudioFilename: namirin - koi no himehime pettanko.mp3
AudioLeadIn: 0
PreviewTime: 60450
Countdown: 0
SampleSet: Soft
StackLeniency: 0.7
Mode: 3
LetterboxInBreaks: 0
SpecialStyle: 0
WidescreenStoryboard: 1

[Editor]
DistanceSpacing: 0.7
BeatDivisor: 8
GridSize: 16
TimelineZoom: 1.9

[Metadata]
Title:Koi no Hime Hime Pettanko
TitleUnicode:恋のヒメヒメぺったんこ
Artist:*namirin
ArtistUnicode:*なみりん
Creator:Remuring
Version:LN
Source:弱虫ペダル
Tags:
BeatmapID:1804236
BeatmapSetID:862545

[Difficulty]
HPDrainRate:8
CircleSize:7
OverallDifficulty:7
ApproachRate:5
SliderMultiplier:1.4
SliderTickRate:1

[Events]
//Background and Video events
0,0,"himehimebg.jpg",0,0
//Break Periods
//Storyboard Layer 0 (Background)
//Storyboard Layer 1 (Fail)
//Storyboard Layer 2 (Pass)
//Storyboard Layer 3 (Foreground)
//Storyboard Sound Samples

[TimingPoints]
1799,337.078651685393,4,2,0,0,1,0

[HitObjects]
475,192,1799,128,0,2136:0:0:0:0:
256,192,1799,1,0,0:0:0:0:
329,192,1967,1,0,0:0:0:0:
36,192,1967,1,0,0:0:0:0:
256,192,2051,1,0,0:0:0:0:
182,192,2136,1,0,0:0:0:0:
36,192,2136,1,0,0:0:0:0:
402,192,2136,1,0,0:0:0:0:
329,192,2304,1,0,0:0:0:0:
475,192,2304,1,0,0:0:0:0:
109,192,2473,128,0,2810:0:0:0:0:
256,192,2473,1,0,0:0:0:0:
182,192,2641,128,0,2810:0:0:0:0:
402,192,2810,128,0,3147:0:0:0:0:
36,192,2810,1,0,0:0:0:0:
256,192,2810,1,0,0:0:0:0:
329,192,2978,128,0,3147:0:0:0:0:
36,192,3147,128,0,3484:0:0:0:0:
256,192,3147,1,0,0:0:0:0:
182,192,3315,1,0,0:0:0:0:
475,192,3315,1,0,0:0:0:0:
256,192,3400,1,0,0:0:0:0:
329,192,3484,1,0,0:0:0:0:
475,192,3484,1,0,0:0:0:0:
182,192,3652,1,0,0:0:0:0:
36,192,3652,1,0,0:0:0:0:
256,192,3821,1,0,0:0:0:0:
402,192,3821,128,0,4158:0:0:0:0:
329,192,3990,128,0,4158:0:0:0:0:
256,192,4158,1,0,0:0:0:0:
475,192,4158,1,0,0:0:0:0:
109,192,4158,128,0,4495:0:0:0:0:
182,192,4327,128,0,4495:0:0:0:0:
475,192,4495,128,0,4832:0:0:0:0:
256,192,4495,1,0,0:0:0:0:
329,192,4664,1,0,0:0:0:0:
36,192,4664,1,0,0:0:0:0:
109,192,4748,1,0,0:0:0:0:
182,192,4832,1,0,0:0:0:0:
402,192,4832,1,0,0:0:0:0:
256,192,4832,1,0,0:0:0:0:
329,192,5001,1,0,0:0:0:0:
109,192,5001,1,0,0:0:0:0:
182,192,5085,1,0,0:0:0:0:
256,192,5169,1,0,0:0:0:0:
402,192,5169,128,0,5506:0:0:0:0:
475,192,5338,128,0,5506:0:0:0:0:
109,192,5506,128,0,5843:0:0:0:0:
182,192,5506,1,0,0:0:0:0:
329,192,5506,1,0,0:0:0:0:
36,192,5675,128,0,5843:0:0:0:0:
256,192,5843,128,0,6181:0:0:0:0:
475,192,5843,1,0,0:0:0:0:
402,192,6012,128,0,6181:0:0:0:0:
36,192,6181,128,0,6518:0:0:0:0:
329,192,6181,1,0,0:0:0:0:
475,192,6181,1,0,0:0:0:0:
182,192,6349,128,0,6518:0:0:0:0:
402,192,6518,128,0,6855:0:0:0:0:
256,192,6518,1,0,0:0:0:0:
182,192,6798,128,0,6967:0:0:0:0:
256,192,6827,128,0,6995:0:0:0:0:
329,192,6855,128,0,7192:0:0:0:0:
475,192,6855,128,0,7192:0:0:0:0:
36,192,7192,128,0,7529:0:0:0:0:
256,192,7192,128,0,7276:0:0:0:0:
109,192,7192,1,0,0:0:0:0:
402,192,7192,1,0,0:0:0:0:
182,192,7276,128,0,7360:0:0:0:0:
402,192,7360,128,0,7697:0:0:0:0:
329,192,7360,128,0,7445:0:0:0:0:
256,192,7445,128,0,7529:0:0:0:0:
109,192,7529,128,0,7866:0:0:0:0:
182,192,7529,128,0,7613:0:0:0:0:
329,192,7613,128,0,7697:0:0:0:0:
256,192,7697,128,0,7782:0:0:0:0:
402,192,7782,128,0,7866:0:0:0:0:
475,192,7866,128,0,8203:0:0:0:0:
182,192,7866,128,0,7950:0:0:0:0:
256,192,7950,128,0,8034:0:0:0:0:
329,192,8034,128,0,8119:0:0:0:0:
402,192,8119,128,0,8203:0:0:0:0:
36,192,8203,128,0,8540:0:0:0:0:
256,192,8203,128,0,8287:0:0:0:0:
329,192,8287,128,0,8372:0:0:0:0:
182,192,8372,128,0,8540:0:0:0:0:
402,192,8372,1,0,0:0:0:0:
475,192,8372,1,0,0:0:0:0:
109,192,8540,128,0,8877:0:0:0:0:
402,192,8540,1,0,0:0:0:0:
256,192,8540,128,0,8624:0:0:0:0:
475,192,8540,1,0,0:0:0:0:
329,192,8624,128,0,8709:0:0:0:0:
182,192,8709,128,0,8793:0:0:0:0:
256,192,8793,128,0,8877:0:0:0:0:
475,192,8877,128,0,9551:0:0:0:0:
329,192,8877,128,0,8961:0:0:0:0:
182,192,8961,128,0,9046:0:0:0:0:
36,192,9046,128,0,9551:0:0:0:0:
256,192,9046,128,0,9130:0:0:0:0:
109,192,9130,128,0,9214:0:0:0:0:
329,192,9214,128,0,9298:0:0:0:0:
256,192,9298,128,0,9383:0:0:0:0:
182,192,9383,128,0,9467:0:0:0:0:
109,192,9467,128,0,9551:0:0:0:0:
256,192,9551,128,0,9636:0:0:0:0:
402,192,9551,1,0,0:0:0:0:
329,192,9551,1,0,0:0:0:0:
182,192,9636,128,0,9720:0:0:0:0:
475,192,9720,1,0,0:0:0:0:
36,192,9720,1,0,0:0:0:0:
109,192,9720,1,0,0:0:0:0:
402,192,9720,128,0,9804:0:0:0:0:
329,192,9804,128,0,9888:0:0:0:0:
36,192,9888,1,0,0:0:0:0:
109,192,9888,1,0,0:0:0:0:
475,192,9888,128,0,10225:0:0:0:0:
256,192,9888,128,0,9973:0:0:0:0:
329,192,9973,128,0,10057:0:0:0:0:
182,192,10057,128,0,10141:0:0:0:0:
109,192,10057,128,0,10394:0:0:0:0:
256,192,10141,128,0,10225:0:0:0:0:
329,192,10225,128,0,10310:0:0:0:0:
402,192,10225,128,0,10563:0:0:0:0:
182,192,10310,128,0,10394:0:0:0:0:
256,192,10394,128,0,10478:0:0:0:0:
109,192,10478,128,0,10563:0:0:0:0:
329,192,10563,128,0,10647:0:0:0:0:
36,192,10563,128,0,10900:0:0:0:0:
256,192,10647,128,0,10731:0:0:0:0:
182,192,10731,128,0,10815:0:0:0:0:
109,192,10815,128,0,10900:0:0:0:0:
256,192,10900,128,0,10984:0:0:0:0:
475,192,10900,128,0,11237:0:0:0:0:
182,192,10984,128,0,11068:0:0:0:0:
36,192,11068,1,0,0:0:0:0:
109,192,11068,1,0,0:0:0:0:
329,192,11068,128,0,11237:0:0:0:0:
256,192,11237,128,0,11321:0:0:0:0:
36,192,11237,1,0,0:0:0:0:
402,192,11237,128,0,11574:0:0:0:0:
109,192,11237,1,0,0:0:0:0:
182,192,11321,128,0,11405:0:0:0:0:
329,192,11405,128,0,11490:0:0:0:0:
256,192,11490,128,0,11574:0:0:0:0:
182,192,11574,128,0,11658:0:0:0:0:
36,192,11574,128,0,12248:0:0:0:0:
329,192,11658,128,0,11742:0:0:0:0:
256,192,11742,128,0,11827:0:0:0:0:
475,192,11742,128,0,12248:0:0:0:0:
402,192,11827,128,0,11911:0:0:0:0:
182,192,11911,128,0,11995:0:0:0:0:
256,192,11995,128,0,12079:0:0:0:0:
329,192,12079,128,0,12164:0:0:0:0:
402,192,12164,128,0,12248:0:0:0:0:
182,192,12248,1,0,0:0:0:0:
109,192,12248,1,0,0:0:0:0:
256,192,12332,1,0,0:0:0:0:
329,192,12332,1,0,0:0:0:0:
36,192,12416,1,0,0:0:0:0:
109,192,12416,1,0,0:0:0:0:
402,192,12416,1,0,0:0:0:0:
475,192,12416,1,0,0:0:0:0:
182,192,12501,1,0,0:0:0:0:
256,192,12501,1,0,0:0:0:0:
109,192,12585,128,0,12669:0:0:0:0:
329,192,12585,128,0,12669:0:0:0:0:
402,192,12585,128,0,12669:0:0:0:0:
475,192,12585,128,0,12669:0:0:0:0:
36,192,12585,128,0,12669:0:0:0:0:
182,192,12669,128,0,12754:0:0:0:0:
256,192,12754,128,0,12838:0:0:0:0:
475,192,12754,128,0,12838:0:0:0:0:
36,192,12754,128,0,12838:0:0:0:0:
329,192,12838,128,0,12922:0:0:0:0:
182,192,12922,128,0,13006:0:0:0:0:
402,192,12922,128,0,13006:0:0:0:0:
475,192,12922,128,0,13006:0:0:0:0:
256,192,12922,128,0,13006:0:0:0:0:
109,192,13006,128,0,13091:0:0:0:0:
36,192,13091,128,0,13175:0:0:0:0:
402,192,13091,128,0,13175:0:0:0:0:
329,192,13175,128,0,13259:0:0:0:0:
475,192,13175,128,0,13259:0:0:0:0:
256,192,13259,128,0,13343:0:0:0:0:
36,192,13259,128,0,13343:0:0:0:0:
182,192,13343,128,0,13428:0:0:0:0:
475,192,13428,128,0,13512:0:0:0:0:
109,192,13428,128,0,13512:0:0:0:0:
256,192,13428,128,0,13512:0:0:0:0:
402,192,13512,128,0,13596:0:0:0:0:
329,192,13596,128,0,13681:0:0:0:0:
36,192,13596,128,0,13681:0:0:0:0:
109,192,13596,128,0,13681:0:0:0:0:
475,192,13596,128,0,13681:0:0:0:0:
182,192,13681,128,0,13765:0:0:0:0:
256,192,13765,128,0,13849:0:0:0:0:
36,192,13765,128,0,13849:0:0:0:0:
402,192,13765,128,0,13849:0:0:0:0:
329,192,13849,128,0,13933:0:0:0:0:
182,192,13849,128,0,13933:0:0:0:0:
36,192,13933,128,0,14018:0:0:0:0:
402,192,13933,128,0,14018:0:0:0:0:
475,192,13933,128,0,14018:0:0:0:0:
109,192,14018,128,0,14102:0:0:0:0:
182,192,14102,128,0,14186:0:0:0:0:
329,192,14102,128,0,14186:0:0:0:0:
402,192,14102,128,0,14186:0:0:0:0:
256,192,14186,128,0,14270:0:0:0:0:
402,192,14270,128,0,14355:0:0:0:0:
109,192,14270,128,0,14355:0:0:0:0:
36,192,14270,128,0,14355:0:0:0:0:
475,192,14270,128,0,14355:0:0:0:0:
329,192,14355,128,0,14439:0:0:0:0:
256,192,14439,128,0,14523:0:0:0:0:
182,192,14523,128,0,14607:0:0:0:0:
402,192,14523,128,0,14607:0:0:0:0:
109,192,14607,128,0,14692:0:0:0:0:
329,192,14607,128,0,14692:0:0:0:0:
475,192,14607,128,0,14692:0:0:0:0:
182,192,14692,128,0,14776:0:0:0:0:
36,192,14692,128,0,14776:0:0:0:0:
256,192,14776,128,0,14860:0:0:0:0:
402,192,14776,128,0,14860:0:0:0:0:
475,192,14776,128,0,14860:0:0:0:0:
329,192,14860,128,0,14945:0:0:0:0:
36,192,14945,128,0,15029:0:0:0:0:
475,192,14945,128,0,15029:0:0:0:0:
256,192,14945,128,0,15029:0:0:0:0:
402,192,14945,128,0,15029:0:0:0:0:
109,192,15029,128,0,15113:0:0:0:0:
182,192,15113,128,0,15197:0:0:0:0:
256,192,15197,128,0,15282:0:0:0:0:
475,192,15197,128,0,15282:0:0:0:0:
402,192,15282,128,0,15366:0:0:0:0:
109,192,15282,128,0,15366:0:0:0:0:
36,192,15282,128,0,15366:0:0:0:0:
182,192,15282,128,0,15366:0:0:0:0:
329,192,15366,128,0,15450:0:0:0:0:
256,192,15450,128,0,15534:0:0:0:0:
36,192,15450,128,0,15534:0:0:0:0:
475,192,15450,128,0,15534:0:0:0:0:
182,192,15534,128,0,15619:0:0:0:0:
329,192,15619,128,0,15703:0:0:0:0:
256,192,15619,128,0,15703:0:0:0:0:
109,192,15619,128,0,15703:0:0:0:0:
36,192,15619,128,0,15703:0:0:0:0:
402,192,15703,128,0,15787:0:0:0:0:
475,192,15787,128,0,15872:0:0:0:0:
329,192,15787,128,0,15872:0:0:0:0:
182,192,15872,128,0,15956:0:0:0:0:
36,192,15872,128,0,15956:0:0:0:0:
256,192,15956,128,0,16040:0:0:0:0:
109,192,15956,128,0,16040:0:0:0:0:
329,192,16040,128,0,16124:0:0:0:0:
475,192,16040,128,0,16124:0:0:0:0:
36,192,16124,128,0,16209:0:0:0:0:
402,192,16124,128,0,16209:0:0:0:0:
256,192,16124,128,0,16293:0:0:0:0:
109,192,16209,128,0,16293:0:0:0:0:
182,192,16293,128,0,16377:0:0:0:0:
475,192,16293,128,0,16377:0:0:0:0:
36,192,16293,128,0,16377:0:0:0:0:
402,192,16293,128,0,16377:0:0:0:0:
329,192,16377,128,0,16461:0:0:0:0:
256,192,16461,128,0,16546:0:0:0:0:
109,192,16461,128,0,16546:0:0:0:0:
182,192,16546,128,0,16630:0:0:0:0:
36,192,16630,128,0,17641:0:0:0:0:
475,192,16630,128,0,17641:0:0:0:0:
256,192,16630,128,0,17473:0:0:0:0:
109,192,17473,128,0,17641:0:0:0:0:
402,192,17473,128,0,17641:0:0:0:0:
182,192,17641,128,0,17894:0:0:0:0:
329,192,17641,128,0,17894:0:0:0:0:
182,192,17978,1,0,0:0:0:0:
109,192,17978,1,0,0:0:0:0:
36,192,17978,1,0,0:0:0:0:
329,192,17978,1,0,0:0:0:0:
402,192,17978,1,0,0:0:0:0:
475,192,17978,1,0,0:0:0:0:
256,192,18147,1,0,0:0:0:0:
109,192,18315,1,0,0:0:0:0:
36,192,18315,1,0,0:0:0:0:
475,192,18315,1,0,0:0:0:0:
402,192,18315,1,0,0:0:0:0:
256,192,18484,1,0,0:0:0:0:
475,192,18652,1,0,0:0:0:0:
36,192,18652,1,0,0:0:0:0:
256,192,18821,1,0,0:0:0:0:
475,192,18821,1,0,0:0:0:0:
109,192,18990,1,0,0:0:0:0:
36,192,18990,1,0,0:0:0:0:
402,192,18990,1,0,0:0:0:0:
475,192,18990,1,0,0:0:0:0:
256,192,19158,1,0,0:0:0:0:
36,192,19327,128,0,19664:0:0:0:0:
182,192,19327,1,0,0:0:0:0:
329,192,19327,1,0,0:0:0:0:
475,192,19327,1,0,0:0:0:0:
182,192,19664,128,0,19832:0:0:0:0:
475,192,19664,1,0,0:0:0:0:
329,192,19664,1,0,0:0:0:0:
475,192,19832,1,0,0:0:0:0:
36,192,19832,128,0,20169:0:0:0:0:
256,192,19832,1,0,0:0:0:0:
402,192,19832,1,0,0:0:0:0:
182,192,20169,128,0,20338:0:0:0:0:
402,192,20169,1,0,0:0:0:0:
475,192,20169,1,0,0:0:0:0:
329,192,20338,128,0,20675:0:0:0:0:
109,192,20338,1,0,0:0:0:0:
36,192,20338,1,0,0:0:0:0:
182,192,20506,1,0,0:0:0:0:
36,192,20675,1,0,0:0:0:0:
402,192,20675,1,0,0:0:0:0:
475,192,20675,1,0,0:0:0:0:
256,192,20843,1,0,0:0:0:0:
109,192,21012,1,0,0:0:0:0:
36,192,21012,1,0,0:0:0:0:
475,192,21012,1,0,0:0:0:0:
402,192,21012,1,0,0:0:0:0:
256,192,21181,1,0,0:0:0:0:
475,192,21349,1,0,0:0:0:0:
36,192,21349,1,0,0:0:0:0:
256,192,21518,1,0,0:0:0:0:
475,192,21518,1,0,0:0:0:0:
109,192,21686,1,0,0:0:0:0:
36,192,21686,1,0,0:0:0:0:
402,192,21686,1,0,0:0:0:0:
475,192,21686,1,0,0:0:0:0:
256,192,21855,1,0,0:0:0:0:
36,192,22023,1,0,0:0:0:0:
182,192,22023,1,0,0:0:0:0:
475,192,22023,128,0,22360:0:0:0:0:
329,192,22023,1,0,0:0:0:0:
182,192,22360,1,0,0:0:0:0:
36,192,22360,1,0,0:0:0:0:
329,192,22360,128,0,22529:0:0:0:0:
475,192,22529,128,0,22866:0:0:0:0:
109,192,22529,1,0,0:0:0:0:
256,192,22529,1,0,0:0:0:0:
36,192,22529,1,0,0:0:0:0:
109,192,22866,1,0,0:0:0:0:
36,192,22866,1,0,0:0:0:0:
329,192,22866,1,0,0:0:0:0:
475,192,23034,1,0,0:0:0:0:
402,192,23034,1,0,0:0:0:0:
182,192,23034,1,0,0:0:0:0:
256,192,23203,1,0,0:0:0:0:
475,192,23372,1,0,0:0:0:0:
109,192,23372,1,0,0:0:0:0:
36,192,23372,1,0,0:0:0:0:
256,192,23540,1,0,0:0:0:0:
402,192,23709,1,0,0:0:0:0:
475,192,23709,1,0,0:0:0:0:
36,192,23709,1,0,0:0:0:0:
109,192,23709,1,0,0:0:0:0:
256,192,23877,1,0,0:0:0:0:
36,192,24046,1,0,0:0:0:0:
475,192,24046,1,0,0:0:0:0:
256,192,24214,1,0,0:0:0:0:
36,192,24214,1,0,0:0:0:0:
402,192,24383,1,0,0:0:0:0:
475,192,24383,1,0,0:0:0:0:
109,192,24383,1,0,0:0:0:0:
36,192,24383,1,0,0:0:0:0:
256,192,24551,1,0,0:0:0:0:
475,192,24720,1,0,0:0:0:0:
329,192,24720,1,0,0:0:0:0:
36,192,24720,128,0,25057:0:0:0:0:
182,192,24720,1,0,0:0:0:0:
329,192,25057,1,0,0:0:0:0:
475,192,25057,1,0,0:0:0:0:
182,192,25057,128,0,25225:0:0:0:0:
36,192,25225,128,0,25563:0:0:0:0:
402,192,25225,1,0,0:0:0:0:
256,192,25225,1,0,0:0:0:0:
475,192,25225,1,0,0:0:0:0:
402,192,25563,1,0,0:0:0:0:
475,192,25563,1,0,0:0:0:0:
182,192,25563,1,0,0:0:0:0:
36,192,25731,1,0,0:0:0:0:
109,192,25731,1,0,0:0:0:0:
329,192,25731,1,0,0:0:0:0:
256,192,25900,1,0,0:0:0:0:
36,192,25900,1,0,0:0:0:0:
475,192,25900,1,0,0:0:0:0:
182,192,25900,1,0,0:0:0:0:
402,192,25900,1,0,0:0:0:0:
109,192,26237,1,0,0:0:0:0:
36,192,26237,1,0,0:0:0:0:
256,192,26237,1,0,0:0:0:0:
329,192,26237,1,0,0:0:0:0:
475,192,26237,1,0,0:0:0:0:
475,192,26405,1,0,0:0:0:0:
182,192,26405,1,0,0:0:0:0:
36,192,26405,1,0,0:0:0:0:
256,192,26405,1,0,0:0:0:0:
402,192,26405,1,0,0:0:0:0:
256,192,26574,1,0,0:0:0:0:
109,192,26574,1,0,0:0:0:0:
475,192,26574,1,0,0:0:0:0:
36,192,26574,1,0,0:0:0:0:
329,192,26574,1,0,0:0:0:0:
36,192,26742,1,0,0:0:0:0:
329,192,26742,1,0,0:0:0:0:
475,192,26742,1,0,0:0:0:0:
182,192,26742,1,0,0:0:0:0:
109,192,26742,1,0,0:0:0:0:
402,192,26742,1,0,0:0:0:0:
256,192,26911,1,0,0:0:0:0:
109,192,27079,1,0,0:0:0:0:
329,192,27079,1,0,0:0:0:0:
475,192,27248,1,0,0:0:0:0:
182,192,27248,1,0,0:0:0:0:
256,192,27248,1,0,0:0:0:0:
402,192,27248,1,0,0:0:0:0:
36,192,27248,1,0,0:0:0:0:
475,192,27585,1,0,0:0:0:0:
402,192,27585,1,0,0:0:0:0:
256,192,27585,1,0,0:0:0:0:
182,192,27585,1,0,0:0:0:0:
36,192,27585,1,0,0:0:0:0:
475,192,27754,1,0,0:0:0:0:
329,192,27754,1,0,0:0:0:0:
256,192,27754,1,0,0:0:0:0:
36,192,27754,1,0,0:0:0:0:
109,192,27754,1,0,0:0:0:0:
182,192,27922,1,0,0:0:0:0:
36,192,27922,1,0,0:0:0:0:
256,192,27922,1,0,0:0:0:0:
475,192,27922,1,0,0:0:0:0:
402,192,27922,1,0,0:0:0:0:
109,192,28091,1,0,0:0:0:0:
36,192,28091,1,0,0:0:0:0:
475,192,28091,1,0,0:0:0:0:
402,192,28091,1,0,0:0:0:0:
182,192,28091,1,0,0:0:0:0:
329,192,28091,1,0,0:0:0:0:
256,192,28259,1,0,0:0:0:0:
182,192,28315,1,0,0:0:0:0:
109,192,28372,1,0,0:0:0:0:
36,192,28428,1,0,0:0:0:0:
475,192,28428,128,0,28681:0:0:0:0:
402,192,28428,128,0,28681:0:0:0:0:
329,192,28428,128,0,28681:0:0:0:0:
182,192,28765,1,0,0:0:0:0:
109,192,28765,1,0,0:0:0:0:
36,192,28765,1,0,0:0:0:0:
329,192,28765,1,0,0:0:0:0:
402,192,28765,1,0,0:0:0:0:
475,192,28765,1,0,0:0:0:0:
256,192,28933,1,0,0:0:0:0:
109,192,29102,1,0,0:0:0:0:
36,192,29102,1,0,0:0:0:0:
475,192,29102,1,0,0:0:0:0:
402,192,29102,1,0,0:0:0:0:
256,192,29270,1,0,0:0:0:0:
475,192,29439,1,0,0:0:0:0:
36,192,29439,1,0,0:0:0:0:
256,192,29607,1,0,0:0:0:0:
475,192,29607,1,0,0:0:0:0:
109,192,29776,1,0,0:0:0:0:
36,192,29776,1,0,0:0:0:0:
402,192,29776,1,0,0:0:0:0:
475,192,29776,1,0,0:0:0:0:
256,192,29945,1,0,0:0:0:0:
36,192,30113,128,0,30450:0:0:0:0:
182,192,30113,1,0,0:0:0:0:
402,192,30113,1,0,0:0:0:0:
475,192,30113,1,0,0:0:0:0:
329,192,30197,1,0,0:0:0:0:
256,192,30282,1,0,0:0:0:0:
402,192,30366,1,0,0:0:0:0:
182,192,30450,128,0,30619:0:0:0:0:
475,192,30450,1,0,0:0:0:0:
329,192,30450,1,0,0:0:0:0:
475,192,30619,1,0,0:0:0:0:
36,192,30619,128,0,30956:0:0:0:0:
256,192,30619,1,0,0:0:0:0:
402,192,30619,1,0,0:0:0:0:
182,192,30956,128,0,31124:0:0:0:0:
402,192,30956,1,0,0:0:0:0:
475,192,30956,1,0,0:0:0:0:
256,192,31040,1,0,0:0:0:0:
329,192,31124,128,0,31461:0:0:0:0:
109,192,31124,1,0,0:0:0:0:
36,192,31124,1,0,0:0:0:0:
182,192,31293,1,0,0:0:0:0:
36,192,31461,1,0,0:0:0:0:
402,192,31461,1,0,0:0:0:0:
475,192,31461,1,0,0:0:0:0:
256,192,31630,1,0,0:0:0:0:
109,192,31798,1,0,0:0:0:0:
36,192,31798,1,0,0:0:0:0:
475,192,31798,1,0,0:0:0:0:
402,192,31798,1,0,0:0:0:0:
256,192,31967,1,0,0:0:0:0:
475,192,32136,1,0,0:0:0:0:
36,192,32136,1,0,0:0:0:0:
256,192,32304,1,0,0:0:0:0:
475,192,32304,1,0,0:0:0:0:
109,192,32473,1,0,0:0:0:0:
36,192,32473,1,0,0:0:0:0:
402,192,32473,1,0,0:0:0:0:
475,192,32473,1,0,0:0:0:0:
256,192,32641,1,0,0:0:0:0:
36,192,32810,1,0,0:0:0:0:
109,192,32810,1,0,0:0:0:0:
475,192,32810,128,0,33147:0:0:0:0:
329,192,32810,1,0,0:0:0:0:
182,192,32894,1,0,0:0:0:0:
256,192,32978,1,0,0:0:0:0:
109,192,33063,1,0,0:0:0:0:
182,192,33147,1,0,0:0:0:0:
36,192,33147,1,0,0:0:0:0:
329,192,33147,128,0,33315:0:0:0:0:
256,192,33231,1,0,0:0:0:0:
475,192,33315,128,0,33652:0:0:0:0:
109,192,33315,1,0,0:0:0:0:
36,192,33315,1,0,0:0:0:0:
402,192,33315,1,0,0:0:0:0:
182,192,33400,1,0,0:0:0:0:
256,192,33484,1,0,0:0:0:0:
402,192,33568,1,0,0:0:0:0:
109,192,33652,1,0,0:0:0:0:
36,192,33652,1,0,0:0:0:0:
329,192,33652,1,0,0:0:0:0:
256,192,33737,1,0,0:0:0:0:
475,192,33821,1,0,0:0:0:0:
402,192,33821,1,0,0:0:0:0:
182,192,33821,1,0,0:0:0:0:
256,192,33990,1,0,0:0:0:0:
475,192,34158,1,0,0:0:0:0:
109,192,34158,1,0,0:0:0:0:
36,192,34158,1,0,0:0:0:0:
256,192,34327,1,0,0:0:0:0:
402,192,34495,1,0,0:0:0:0:
475,192,34495,1,0,0:0:0:0:
36,192,34495,1,0,0:0:0:0:
109,192,34495,1,0,0:0:0:0:
256,192,34664,1,0,0:0:0:0:
36,192,34832,1,0,0:0:0:0:
475,192,34832,1,0,0:0:0:0:
256,192,35001,1,0,0:0:0:0:
36,192,35001,1,0,0:0:0:0:
402,192,35169,1,0,0:0:0:0:
475,192,35169,1,0,0:0:0:0:
109,192,35169,1,0,0:0:0:0:
36,192,35169,1,0,0:0:0:0:
256,192,35338,1,0,0:0:0:0:
475,192,35506,1,0,0:0:0:0:
402,192,35506,1,0,0:0:0:0:
36,192,35506,128,0,35843:0:0:0:0:
182,192,35506,1,0,0:0:0:0:
256,192,35675,1,0,0:0:0:0:
329,192,35843,1,0,0:0:0:0:
475,192,35843,1,0,0:0:0:0:
182,192,35843,128,0,36012:0:0:0:0:
36,192,36012,128,0,36349:0:0:0:0:
402,192,36012,1,0,0:0:0:0:
475,192,36012,1,0,0:0:0:0:
109,192,36012,1,0,0:0:0:0:
402,192,36349,1,0,0:0:0:0:
475,192,36349,1,0,0:0:0:0:
182,192,36349,1,0,0:0:0:0:
36,192,36518,1,0,0:0:0:0:
109,192,36518,1,0,0:0:0:0:
329,192,36518,1,0,0:0:0:0:
256,192,36686,1,0,0:0:0:0:
475,192,36686,1,0,0:0:0:0:
36,192,36855,128,0,36939:0:0:0:0:
109,192,36855,128,0,36939:0:0:0:0:
329,192,36855,128,0,36939:0:0:0:0:
109,192,37023,128,0,37107:0:0:0:0:
182,192,37023,128,0,37107:0:0:0:0:
402,192,37023,128,0,37107:0:0:0:0:
182,192,37192,128,0,37276:0:0:0:0:
256,192,37192,128,0,37276:0:0:0:0:
475,192,37192,128,0,37276:0:0:0:0:
402,192,37192,128,0,37276:0:0:0:0:
36,192,37192,128,0,37276:0:0:0:0:
475,192,37529,128,0,37613:0:0:0:0:
402,192,37529,128,0,37613:0:0:0:0:
182,192,37529,128,0,37613:0:0:0:0:
329,192,37697,128,0,37782:0:0:0:0:
109,192,37697,128,0,37782:0:0:0:0:
402,192,37697,128,0,37782:0:0:0:0:
329,192,37866,128,0,37950:0:0:0:0:
256,192,37866,128,0,37950:0:0:0:0:
36,192,37866,128,0,37950:0:0:0:0:
475,192,37866,128,0,37950:0:0:0:0:
109,192,37866,128,0,37950:0:0:0:0:
475,192,38034,128,0,38287:0:0:0:0:
182,192,38034,128,0,38287:0:0:0:0:
256,192,38034,128,0,38287:0:0:0:0:
36,192,38034,128,0,38287:0:0:0:0:
402,192,38034,128,0,38287:0:0:0:0:
36,192,38372,1,0,0:0:0:0:
36,192,38540,1,0,0:0:0:0:
109,192,38540,1,0,0:0:0:0:
36,192,38709,1,0,0:0:0:0:
109,192,38709,1,0,0:0:0:0:
182,192,38709,1,0,0:0:0:0:
36,192,38877,1,0,0:0:0:0:
109,192,38877,1,0,0:0:0:0:
256,192,38877,1,0,0:0:0:0:
182,192,38877,1,0,0:0:0:0:
329,192,38961,1,0,0:0:0:0:
402,192,39046,1,0,0:0:0:0:
36,192,39046,1,0,0:0:0:0:
475,192,39130,1,0,0:0:0:0:
109,192,39130,1,0,0:0:0:0:
182,192,39214,1,0,0:0:0:0:
329,192,39214,1,0,0:0:0:0:
402,192,39298,1,0,0:0:0:0:
109,192,39383,1,0,0:0:0:0:
475,192,39383,1,0,0:0:0:0:
402,192,39467,1,0,0:0:0:0:
36,192,39467,1,0,0:0:0:0:
329,192,39551,1,0,0:0:0:0:
182,192,39551,128,0,42248:0:0:0:0:
329,192,40057,1,0,0:0:0:0:
475,192,40057,1,0,0:0:0:0:
329,192,40225,1,0,0:0:0:0:
475,192,40225,1,0,0:0:0:0:
109,192,40563,1,0,0:0:0:0:
256,192,40563,1,0,0:0:0:0:
36,192,40563,1,0,0:0:0:0:
329,192,40731,1,0,0:0:0:0:
475,192,40731,1,0,0:0:0:0:
329,192,41068,1,0,0:0:0:0:
475,192,41068,1,0,0:0:0:0:
329,192,41405,1,0,0:0:0:0:
475,192,41405,1,0,0:0:0:0:
475,192,41574,1,0,0:0:0:0:
329,192,41574,1,0,0:0:0:0:
109,192,41911,1,0,0:0:0:0:
36,192,41911,1,0,0:0:0:0:
256,192,41911,1,0,0:0:0:0:
36,192,42248,128,0,44945:0:0:0:0:
329,192,42248,128,0,42416:0:0:0:0:
256,192,42416,128,0,42585:0:0:0:0:
182,192,42585,128,0,42754:0:0:0:0:
109,192,42754,128,0,44945:0:0:0:0:
475,192,43596,128,0,43933:0:0:0:0:
402,192,43765,128,0,44102:0:0:0:0:
329,192,43933,128,0,44270:0:0:0:0:
256,192,44102,128,0,44945:0:0:0:0:
475,192,44270,128,0,44607:0:0:0:0:
402,192,44439,128,0,44776:0:0:0:0:
329,192,44607,128,0,47641:0:0:0:0:
402,192,44945,1,0,0:0:0:0:
475,192,44945,1,0,0:0:0:0:
182,192,44945,1,0,0:0:0:0:
182,192,45450,1,0,0:0:0:0:
36,192,45450,1,0,0:0:0:0:
182,192,45619,1,0,0:0:0:0:
36,192,45619,1,0,0:0:0:0:
402,192,45956,1,0,0:0:0:0:
256,192,45956,1,0,0:0:0:0:
475,192,45956,1,0,0:0:0:0:
182,192,46124,1,0,0:0:0:0:
36,192,46124,1,0,0:0:0:0:
182,192,46461,1,0,0:0:0:0:
36,192,46461,1,0,0:0:0:0:
182,192,46798,1,0,0:0:0:0:
36,192,46798,1,0,0:0:0:0:
36,192,46967,1,0,0:0:0:0:
182,192,46967,1,0,0:0:0:0:
402,192,47304,1,0,0:0:0:0:
475,192,47304,1,0,0:0:0:0:
256,192,47304,1,0,0:0:0:0:
182,192,47473,1,0,0:0:0:0:
36,192,47473,1,0,0:0:0:0:
182,192,47641,1,0,0:0:0:0:
36,192,47641,1,0,0:0:0:0:
256,192,47641,1,0,0:0:0:0:
402,192,47641,1,0,0:0:0:0:
475,192,47641,1,0,0:0:0:0:
36,192,47978,1,0,0:0:0:0:
109,192,47978,1,0,0:0:0:0:
402,192,47978,1,0,0:0:0:0:
475,192,47978,1,0,0:0:0:0:
109,192,48147,1,0,0:0:0:0:
402,192,48147,1,0,0:0:0:0:
329,192,48231,1,0,0:0:0:0:
182,192,48231,1,0,0:0:0:0:
256,192,48315,1,0,0:0:0:0:
36,192,48315,1,0,0:0:0:0:
475,192,48315,1,0,0:0:0:0:
182,192,48484,1,0,0:0:0:0:
329,192,48484,1,0,0:0:0:0:
402,192,48568,1,0,0:0:0:0:
109,192,48568,1,0,0:0:0:0:
36,192,48652,1,0,0:0:0:0:
256,192,48652,1,0,0:0:0:0:
475,192,48652,1,0,0:0:0:0:
402,192,48821,128,0,49158:0:0:0:0:
109,192,48821,128,0,49158:0:0:0:0:
182,192,48821,128,0,48990:0:0:0:0:
329,192,48821,128,0,48990:0:0:0:0:
182,192,49158,1,0,0:0:0:0:
329,192,49158,1,0,0:0:0:0:
109,192,49327,1,0,0:0:0:0:
36,192,49327,1,0,0:0:0:0:
402,192,49327,1,0,0:0:0:0:
475,192,49327,1,0,0:0:0:0:
182,192,49495,1,0,0:0:0:0:
329,192,49495,1,0,0:0:0:0:
256,192,49579,1,0,0:0:0:0:
109,192,49664,1,0,0:0:0:0:
36,192,49664,1,0,0:0:0:0:
402,192,49664,1,0,0:0:0:0:
475,192,49664,1,0,0:0:0:0:
182,192,49832,1,0,0:0:0:0:
329,192,49832,1,0,0:0:0:0:
256,192,49916,1,0,0:0:0:0:
182,192,50001,1,0,0:0:0:0:
109,192,50001,1,0,0:0:0:0:
36,192,50001,1,0,0:0:0:0:
329,192,50001,1,0,0:0:0:0:
402,192,50001,1,0,0:0:0:0:
475,192,50001,1,0,0:0:0:0:
36,192,50169,1,0,0:0:0:0:
256,192,50169,1,0,0:0:0:0:
475,192,50169,1,0,0:0:0:0:
182,192,50338,1,0,0:0:0:0:
109,192,50338,1,0,0:0:0:0:
36,192,50338,1,0,0:0:0:0:
256,192,50338,1,0,0:0:0:0:
329,192,50338,1,0,0:0:0:0:
475,192,50338,1,0,0:0:0:0:
36,192,50675,1,0,0:0:0:0:
182,192,50675,1,0,0:0:0:0:
256,192,50675,1,0,0:0:0:0:
329,192,50675,1,0,0:0:0:0:
402,192,50675,1,0,0:0:0:0:
475,192,50675,1,0,0:0:0:0:
36,192,51012,1,0,0:0:0:0:
109,192,51012,1,0,0:0:0:0:
182,192,51012,1,0,0:0:0:0:
256,192,51012,1,0,0:0:0:0:
329,192,51012,1,0,0:0:0:0:
402,192,51012,1,0,0:0:0:0:
475,192,51181,1,0,0:0:0:0:
402,192,51181,1,0,0:0:0:0:
329,192,51181,1,0,0:0:0:0:
256,192,51181,1,0,0:0:0:0:
109,192,51181,1,0,0:0:0:0:
36,192,51181,1,0,0:0:0:0:
182,192,51349,1,0,0:0:0:0:
109,192,51349,1,0,0:0:0:0:
256,192,51349,1,0,0:0:0:0:
329,192,51349,1,0,0:0:0:0:
402,192,51349,1,0,0:0:0:0:
475,192,51349,1,0,0:0:0:0:
329,192,51686,1,0,0:0:0:0:
402,192,51686,1,0,0:0:0:0:
475,192,51686,1,0,0:0:0:0:
182,192,51686,1,0,0:0:0:0:
109,192,51686,1,0,0:0:0:0:
36,192,51686,1,0,0:0:0:0:
36,192,52023,1,0,0:0:0:0:
109,192,52023,1,0,0:0:0:0:
182,192,52023,1,0,0:0:0:0:
256,192,52023,1,0,0:0:0:0:
402,192,52023,1,0,0:0:0:0:
475,192,52023,1,0,0:0:0:0:
329,192,52192,1,0,0:0:0:0:
402,192,52192,1,0,0:0:0:0:
475,192,52192,1,0,0:0:0:0:
256,192,52192,1,0,0:0:0:0:
109,192,52192,1,0,0:0:0:0:
36,192,52192,1,0,0:0:0:0:
182,192,52192,1,0,0:0:0:0:
182,192,52697,1,0,0:0:0:0:
256,192,52697,1,0,0:0:0:0:
329,192,52697,1,0,0:0:0:0:
402,192,52697,1,0,0:0:0:0:
475,192,52697,1,0,0:0:0:0:
402,192,52866,1,0,0:0:0:0:
329,192,52866,1,0,0:0:0:0:
256,192,52866,1,0,0:0:0:0:
182,192,52866,1,0,0:0:0:0:
109,192,52866,1,0,0:0:0:0:
182,192,53034,1,0,0:0:0:0:
109,192,53034,1,0,0:0:0:0:
36,192,53034,1,0,0:0:0:0:
36,192,53372,1,0,0:0:0:0:
109,192,53372,1,0,0:0:0:0:
182,192,53372,1,0,0:0:0:0:
36,192,53709,1,0,0:0:0:0:
109,192,53709,1,0,0:0:0:0:
182,192,53709,1,0,0:0:0:0:
329,192,53877,1,0,0:0:0:0:
475,192,53877,1,0,0:0:0:0:
182,192,54046,1,0,0:0:0:0:
109,192,54046,1,0,0:0:0:0:
36,192,54046,1,0,0:0:0:0:
182,192,54383,1,0,0:0:0:0:
36,192,54383,1,0,0:0:0:0:
329,192,54383,1,0,0:0:0:0:
402,192,54383,1,0,0:0:0:0:
109,192,54551,1,0,0:0:0:0:
256,192,54551,1,0,0:0:0:0:
402,192,54551,1,0,0:0:0:0:
475,192,54551,1,0,0:0:0:0:
182,192,54720,1,0,0:0:0:0:
329,192,54720,1,0,0:0:0:0:
475,192,54720,1,0,0:0:0:0:
36,192,54720,1,0,0:0:0:0:
109,192,54888,1,0,0:0:0:0:
256,192,54888,1,0,0:0:0:0:
402,192,54888,1,0,0:0:0:0:
109,192,55225,1,0,0:0:0:0:
256,192,55225,1,0,0:0:0:0:
402,192,55225,1,0,0:0:0:0:
329,192,55394,1,0,0:0:0:0:
475,192,55394,1,0,0:0:0:0:
182,192,55394,1,0,0:0:0:0:
109,192,55394,1,0,0:0:0:0:
109,192,55563,1,0,0:0:0:0:
256,192,55563,1,0,0:0:0:0:
402,192,55563,1,0,0:0:0:0:
36,192,55563,128,0,56742:0:0:0:0:
182,192,55900,1,0,0:0:0:0:
329,192,55900,1,0,0:0:0:0:
475,192,55900,1,0,0:0:0:0:
182,192,56068,1,0,0:0:0:0:
329,192,56068,1,0,0:0:0:0:
475,192,56068,1,0,0:0:0:0:
475,192,56237,1,0,0:0:0:0:
329,192,56237,1,0,0:0:0:0:
182,192,56237,1,0,0:0:0:0:
402,192,56405,1,0,0:0:0:0:
256,192,56405,1,0,0:0:0:0:
109,192,56405,1,0,0:0:0:0:
109,192,56574,1,0,0:0:0:0:
256,192,56574,1,0,0:0:0:0:
402,192,56574,1,0,0:0:0:0:
109,192,56742,1,0,0:0:0:0:
256,192,56742,1,0,0:0:0:0:
402,192,56742,1,0,0:0:0:0:
329,192,56911,1,0,0:0:0:0:
475,192,56911,1,0,0:0:0:0:
182,192,56911,1,0,0:0:0:0:
36,192,56911,1,0,0:0:0:0:
256,192,57079,1,0,0:0:0:0:
109,192,57248,1,0,0:0:0:0:
329,192,57248,1,0,0:0:0:0:
402,192,57248,1,0,0:0:0:0:
475,192,57248,1,0,0:0:0:0:
36,192,57416,1,0,0:0:0:0:
256,192,57416,1,0,0:0:0:0:
329,192,57416,1,0,0:0:0:0:
182,192,57416,1,0,0:0:0:0:
109,192,57585,1,0,0:0:0:0:
36,192,57585,1,0,0:0:0:0:
256,192,57585,1,0,0:0:0:0:
475,192,57585,1,0,0:0:0:0:
329,192,57754,1,0,0:0:0:0:
402,192,57754,1,0,0:0:0:0:
475,192,57754,1,0,0:0:0:0:
182,192,57754,1,0,0:0:0:0:
109,192,57922,1,0,0:0:0:0:
36,192,57922,1,0,0:0:0:0:
256,192,57922,1,0,0:0:0:0:
402,192,57922,1,0,0:0:0:0:
182,192,58091,1,0,0:0:0:0:
329,192,58091,1,0,0:0:0:0:
475,192,58091,1,0,0:0:0:0:
36,192,58091,1,0,0:0:0:0:
109,192,58259,1,0,0:0:0:0:
182,192,58259,1,0,0:0:0:0:
329,192,58259,1,0,0:0:0:0:
402,192,58259,1,0,0:0:0:0:
182,192,58596,128,0,58849:0:0:0:0:
36,192,58596,128,0,58849:0:0:0:0:
329,192,58596,128,0,58849:0:0:0:0:
475,192,58596,128,0,58849:0:0:0:0:
109,192,58596,128,0,58681:0:0:0:0:
256,192,58596,128,0,58681:0:0:0:0:
402,192,58596,128,0,58681:0:0:0:0:
109,192,58765,128,0,58849:0:0:0:0:
402,192,58765,128,0,58849:0:0:0:0:
256,192,58765,128,0,58849:0:0:0:0:
329,192,58933,128,0,59186:0:0:0:0:
36,192,58933,128,0,59186:0:0:0:0:
182,192,58933,128,0,59186:0:0:0:0:
475,192,58933,128,0,59186:0:0:0:0:
402,192,58933,128,0,59018:0:0:0:0:
256,192,58933,128,0,59018:0:0:0:0:
109,192,58933,128,0,59018:0:0:0:0:
402,192,59102,128,0,59186:0:0:0:0:
109,192,59102,128,0,59186:0:0:0:0:
256,192,59102,128,0,59186:0:0:0:0:
182,192,59270,128,0,59523:0:0:0:0:
475,192,59270,128,0,59523:0:0:0:0:
329,192,59270,128,0,59523:0:0:0:0:
36,192,59270,128,0,59523:0:0:0:0:
109,192,59270,128,0,59355:0:0:0:0:
256,192,59270,128,0,59355:0:0:0:0:
402,192,59270,128,0,59355:0:0:0:0:
256,192,59439,128,0,59523:0:0:0:0:
109,192,59439,128,0,59523:0:0:0:0:
402,192,59439,128,0,59523:0:0:0:0:
182,192,59607,1,0,0:0:0:0:
109,192,59607,1,0,0:0:0:0:
36,192,59607,1,0,0:0:0:0:
256,192,59607,1,0,0:0:0:0:
329,192,59607,1,0,0:0:0:0:
475,192,59607,1,0,0:0:0:0:
402,192,59607,1,0,0:0:0:0:
36,192,59945,1,0,0:0:0:0:
109,192,59945,1,0,0:0:0:0:
182,192,59945,1,0,0:0:0:0:
256,192,59945,1,0,0:0:0:0:
329,192,59945,1,0,0:0:0:0:
402,192,59945,1,0,0:0:0:0:
475,192,59945,1,0,0:0:0:0:
36,192,60113,1,0,0:0:0:0:
109,192,60113,1,0,0:0:0:0:
182,192,60113,1,0,0:0:0:0:
256,192,60113,1,0,0:0:0:0:
329,192,60113,1,0,0:0:0:0:
402,192,60113,1,0,0:0:0:0:
475,192,60113,1,0,0:0:0:0:
36,192,60282,1,0,0:0:0:0:
182,192,60282,1,0,0:0:0:0:
256,192,60282,1,0,0:0:0:0:
329,192,60282,1,0,0:0:0:0:
475,192,60282,1,0,0:0:0:0:
256,192,60450,128,0,60787:0:0:0:0:
109,192,60787,128,0,61124:0:0:0:0:
402,192,60956,128,0,61293:0:0:0:0:
329,192,61124,128,0,62473:0:0:0:0:
256,192,61124,128,0,61461:0:0:0:0:
36,192,61124,128,0,61209:0:0:0:0:
182,192,61293,128,0,61377:0:0:0:0:
475,192,61293,128,0,61377:0:0:0:0:
109,192,61377,128,0,61461:0:0:0:0:
36,192,61461,128,0,61546:0:0:0:0:
402,192,61461,128,0,61546:0:0:0:0:
475,192,61630,128,0,61714:0:0:0:0:
109,192,61630,128,0,61714:0:0:0:0:
256,192,61630,128,0,61967:0:0:0:0:
36,192,61714,128,0,61798:0:0:0:0:
402,192,61798,128,0,61883:0:0:0:0:
182,192,61798,128,0,62136:0:0:0:0:
475,192,61967,128,0,62051:0:0:0:0:
109,192,62051,128,0,62136:0:0:0:0:
36,192,62136,128,0,62220:0:0:0:0:
256,192,62136,128,0,62220:0:0:0:0:
402,192,62136,128,0,62220:0:0:0:0:
182,192,62304,128,0,62388:0:0:0:0:
109,192,62304,128,0,62388:0:0:0:0:
256,192,62388,128,0,62473:0:0:0:0:
475,192,62473,128,0,62641:0:0:0:0:
36,192,62473,128,0,62641:0:0:0:0:
182,192,62641,128,0,62978:0:0:0:0:
402,192,62641,128,0,62725:0:0:0:0:
329,192,62725,128,0,62810:0:0:0:0:
109,192,62810,128,0,62978:0:0:0:0:
256,192,62810,128,0,62978:0:0:0:0:
36,192,62810,128,0,62978:0:0:0:0:
475,192,62978,128,0,63315:0:0:0:0:
329,192,62978,128,0,63147:0:0:0:0:
182,192,63063,128,0,63147:0:0:0:0:
402,192,63147,128,0,63484:0:0:0:0:
256,192,63147,128,0,63231:0:0:0:0:
109,192,63231,128,0,63315:0:0:0:0:
329,192,63315,128,0,63652:0:0:0:0:
36,192,63315,128,0,63400:0:0:0:0:
256,192,63400,128,0,63484:0:0:0:0:
475,192,63484,128,0,63821:0:0:0:0:
109,192,63484,128,0,63652:0:0:0:0:
182,192,63484,128,0,63652:0:0:0:0:
36,192,63652,128,0,63821:0:0:0:0:
402,192,63652,128,0,63737:0:0:0:0:
329,192,63737,128,0,63821:0:0:0:0:
182,192,63821,128,0,65169:0:0:0:0:
256,192,63821,128,0,64158:0:0:0:0:
109,192,63821,128,0,63905:0:0:0:0:
36,192,63990,128,0,64074:0:0:0:0:
329,192,63990,128,0,64074:0:0:0:0:
402,192,64074,128,0,64158:0:0:0:0:
109,192,64158,128,0,64242:0:0:0:0:
475,192,64158,128,0,64242:0:0:0:0:
256,192,64327,128,0,64664:0:0:0:0:
36,192,64327,128,0,64411:0:0:0:0:
402,192,64327,128,0,64411:0:0:0:0:
475,192,64411,128,0,64495:0:0:0:0:
329,192,64495,128,0,64832:0:0:0:0:
109,192,64495,128,0,64579:0:0:0:0:
36,192,64664,128,0,64748:0:0:0:0:
475,192,64664,128,0,64748:0:0:0:0:
402,192,64748,128,0,64832:0:0:0:0:
109,192,64832,128,0,64916:0:0:0:0:
256,192,64832,128,0,64916:0:0:0:0:
475,192,64832,128,0,64916:0:0:0:0:
36,192,65001,128,0,65338:0:0:0:0:
329,192,65001,128,0,65085:0:0:0:0:
402,192,65085,128,0,65169:0:0:0:0:
256,192,65169,128,0,65506:0:0:0:0:
109,192,65338,128,0,65675:0:0:0:0:
475,192,65338,128,0,65422:0:0:0:0:
402,192,65422,128,0,65506:0:0:0:0:
329,192,65506,128,0,65843:0:0:0:0:
36,192,65506,128,0,65675:0:0:0:0:
475,192,65675,128,0,65843:0:0:0:0:
182,192,65675,128,0,65759:0:0:0:0:
256,192,65759,128,0,65843:0:0:0:0:
36,192,65843,128,0,66181:0:0:0:0:
109,192,65843,128,0,66181:0:0:0:0:
402,192,65843,128,0,66012:0:0:0:0:
329,192,66012,128,0,66096:0:0:0:0:
256,192,66096,128,0,66181:0:0:0:0:
182,192,66181,128,0,66265:0:0:0:0:
475,192,66181,128,0,66433:0:0:0:0:
402,192,66349,128,0,66433:0:0:0:0:
329,192,66433,128,0,66518:0:0:0:0:
36,192,66518,128,0,66686:0:0:0:0:
256,192,66518,128,0,66686:0:0:0:0:
402,192,66518,1,0,0:0:0:0:
475,192,66518,1,0,0:0:0:0:
109,192,66602,128,0,66770:0:0:0:0:
182,192,66686,128,0,66855:0:0:0:0:
402,192,66686,128,0,66855:0:0:0:0:
329,192,66770,128,0,66939:0:0:0:0:
256,192,66855,128,0,67023:0:0:0:0:
475,192,66855,128,0,67023:0:0:0:0:
36,192,66855,128,0,67023:0:0:0:0:
182,192,66939,128,0,67107:0:0:0:0:
329,192,67023,128,0,67192:0:0:0:0:
109,192,67023,128,0,67192:0:0:0:0:
402,192,67107,128,0,67276:0:0:0:0:
475,192,67192,128,0,67360:0:0:0:0:
256,192,67192,128,0,67360:0:0:0:0:
182,192,67276,128,0,67445:0:0:0:0:
36,192,67360,128,0,67529:0:0:0:0:
329,192,67360,128,0,67529:0:0:0:0:
109,192,67445,128,0,67613:0:0:0:0:
402,192,67529,128,0,67697:0:0:0:0:
475,192,67529,128,0,67697:0:0:0:0:
256,192,67529,128,0,67697:0:0:0:0:
182,192,67613,128,0,67782:0:0:0:0:
329,192,67697,128,0,67866:0:0:0:0:
36,192,67697,128,0,67866:0:0:0:0:
256,192,67782,128,0,67950:0:0:0:0:
109,192,67866,128,0,68034:0:0:0:0:
475,192,67866,128,0,68034:0:0:0:0:
402,192,67950,128,0,68119:0:0:0:0:
182,192,68034,128,0,68203:0:0:0:0:
329,192,68034,128,0,68203:0:0:0:0:
109,192,68119,128,0,68287:0:0:0:0:
36,192,68203,128,0,68372:0:0:0:0:
256,192,68203,128,0,68372:0:0:0:0:
475,192,68203,128,0,68372:0:0:0:0:
329,192,68287,128,0,68456:0:0:0:0:
402,192,68372,128,0,68540:0:0:0:0:
182,192,68372,128,0,68540:0:0:0:0:
256,192,68456,128,0,68624:0:0:0:0:
109,192,68540,128,0,68709:0:0:0:0:
36,192,68540,128,0,68709:0:0:0:0:
329,192,68624,128,0,68793:0:0:0:0:
402,192,68709,128,0,68877:0:0:0:0:
256,192,68709,128,0,68877:0:0:0:0:
182,192,68793,128,0,68961:0:0:0:0:
36,192,68877,128,0,69046:0:0:0:0:
475,192,68877,128,0,69214:0:0:0:0:
109,192,69046,128,0,69214:0:0:0:0:
256,192,69046,128,0,69130:0:0:0:0:
329,192,69130,128,0,69214:0:0:0:0:
182,192,69214,128,0,69551:0:0:0:0:
402,192,69214,128,0,69551:0:0:0:0:
36,192,69214,1,0,0:0:0:0:
256,192,69383,128,0,69467:0:0:0:0:
329,192,69467,128,0,69551:0:0:0:0:
36,192,69551,128,0,69888:0:0:0:0:
475,192,69551,128,0,69720:0:0:0:0:
402,192,69720,128,0,69888:0:0:0:0:
256,192,69720,128,0,69804:0:0:0:0:
182,192,69804,128,0,69888:0:0:0:0:
109,192,69888,128,0,70225:0:0:0:0:
329,192,69888,128,0,70225:0:0:0:0:
475,192,69888,1,0,0:0:0:0:
256,192,70057,128,0,70141:0:0:0:0:
475,192,70057,128,0,70141:0:0:0:0:
402,192,70057,128,0,70141:0:0:0:0:
36,192,70057,128,0,70141:0:0:0:0:
36,192,70225,128,0,70310:0:0:0:0:
182,192,70225,128,0,70310:0:0:0:0:
256,192,70225,128,0,70310:0:0:0:0:
475,192,70225,128,0,70310:0:0:0:0:
256,192,70394,128,0,70478:0:0:0:0:
329,192,70394,128,0,70478:0:0:0:0:
36,192,70394,128,0,71237:0:0:0:0:
475,192,70394,128,0,71237:0:0:0:0:
182,192,70731,1,0,0:0:0:0:
256,192,70731,1,0,0:0:0:0:
329,192,70731,1,0,0:0:0:0:
182,192,70900,1,0,0:0:0:0:
256,192,70900,1,0,0:0:0:0:
329,192,70900,1,0,0:0:0:0:
402,192,71068,1,0,0:0:0:0:
109,192,71068,1,0,0:0:0:0:
182,192,71152,1,0,0:0:0:0:
329,192,71152,1,0,0:0:0:0:
402,192,71237,1,0,0:0:0:0:
109,192,71237,1,0,0:0:0:0:
256,192,71237,128,0,71574:0:0:0:0:
182,192,71405,1,0,0:0:0:0:
329,192,71405,1,0,0:0:0:0:
475,192,71405,1,0,0:0:0:0:
36,192,71405,1,0,0:0:0:0:
109,192,71574,128,0,71911:0:0:0:0:
182,192,71574,1,0,0:0:0:0:
329,192,71574,1,0,0:0:0:0:
402,192,71742,128,0,72079:0:0:0:0:
329,192,71742,1,0,0:0:0:0:
182,192,71742,1,0,0:0:0:0:
329,192,71911,128,0,73259:0:0:0:0:
36,192,71911,128,0,72079:0:0:0:0:
256,192,71911,128,0,72248:0:0:0:0:
475,192,72079,128,0,72248:0:0:0:0:
182,192,72079,128,0,72248:0:0:0:0:
109,192,72164,128,0,72332:0:0:0:0:
36,192,72248,128,0,72416:0:0:0:0:
402,192,72248,128,0,72416:0:0:0:0:
256,192,72416,128,0,72754:0:0:0:0:
475,192,72416,128,0,72585:0:0:0:0:
109,192,72416,128,0,72585:0:0:0:0:
36,192,72501,128,0,72669:0:0:0:0:
182,192,72585,128,0,72922:0:0:0:0:
402,192,72585,128,0,72754:0:0:0:0:
475,192,72754,128,0,72922:0:0:0:0:
109,192,72838,128,0,73006:0:0:0:0:
256,192,72922,128,0,73091:0:0:0:0:
36,192,72922,128,0,73091:0:0:0:0:
402,192,72922,128,0,73091:0:0:0:0:
109,192,73091,128,0,73428:0:0:0:0:
182,192,73091,128,0,73259:0:0:0:0:
256,192,73175,128,0,73343:0:0:0:0:
475,192,73259,128,0,73428:0:0:0:0:
36,192,73259,128,0,73428:0:0:0:0:
402,192,73428,128,0,73596:0:0:0:0:
182,192,73428,128,0,73765:0:0:0:0:
329,192,73512,128,0,73681:0:0:0:0:
36,192,73596,128,0,73765:0:0:0:0:
256,192,73596,128,0,73765:0:0:0:0:
109,192,73596,128,0,73765:0:0:0:0:
329,192,73765,128,0,73933:0:0:0:0:
475,192,73765,128,0,74102:0:0:0:0:
182,192,73849,128,0,74018:0:0:0:0:
256,192,73933,128,0,74102:0:0:0:0:
402,192,73933,128,0,74270:0:0:0:0:
109,192,74018,128,0,74186:0:0:0:0:
36,192,74102,128,0,74270:0:0:0:0:
329,192,74102,128,0,74439:0:0:0:0:
256,192,74186,128,0,74355:0:0:0:0:
109,192,74270,128,0,74439:0:0:0:0:
182,192,74270,128,0,74439:0:0:0:0:
475,192,74270,128,0,74607:0:0:0:0:
36,192,74439,128,0,74607:0:0:0:0:
402,192,74439,128,0,74607:0:0:0:0:
329,192,74523,128,0,74692:0:0:0:0:
256,192,74607,128,0,74945:0:0:0:0:
109,192,74607,128,0,74776:0:0:0:0:
182,192,74607,128,0,75956:0:0:0:0:
329,192,74776,128,0,74945:0:0:0:0:
36,192,74776,128,0,74945:0:0:0:0:
402,192,74860,128,0,75029:0:0:0:0:
475,192,74945,128,0,75113:0:0:0:0:
109,192,74945,128,0,75113:0:0:0:0:
402,192,75113,128,0,75282:0:0:0:0:
256,192,75113,128,0,75450:0:0:0:0:
36,192,75113,128,0,75282:0:0:0:0:
475,192,75197,128,0,75366:0:0:0:0:
329,192,75282,128,0,75619:0:0:0:0:
109,192,75282,128,0,75450:0:0:0:0:
36,192,75450,128,0,75619:0:0:0:0:
475,192,75534,128,0,75703:0:0:0:0:
402,192,75619,128,0,75787:0:0:0:0:
256,192,75619,128,0,75787:0:0:0:0:
109,192,75619,128,0,75787:0:0:0:0:
36,192,75787,128,0,76124:0:0:0:0:
329,192,75787,128,0,75956:0:0:0:0:
402,192,75872,128,0,76040:0:0:0:0:
256,192,75956,128,0,76293:0:0:0:0:
475,192,76124,128,0,76293:0:0:0:0:
109,192,76124,128,0,76461:0:0:0:0:
402,192,76209,128,0,76377:0:0:0:0:
36,192,76293,128,0,76461:0:0:0:0:
329,192,76293,128,0,76630:0:0:0:0:
475,192,76461,128,0,76630:0:0:0:0:
182,192,76461,128,0,76630:0:0:0:0:
256,192,76546,128,0,76714:0:0:0:0:
402,192,76630,128,0,76798:0:0:0:0:
109,192,76630,128,0,76967:0:0:0:0:
36,192,76630,128,0,76967:0:0:0:0:
329,192,76798,128,0,76967:0:0:0:0:
256,192,76883,128,0,77051:0:0:0:0:
475,192,76967,128,0,77304:0:0:0:0:
182,192,76967,128,0,77136:0:0:0:0:
402,192,77136,128,0,77304:0:0:0:0:
329,192,77220,128,0,77304:0:0:0:0:
256,192,77304,128,0,77473:0:0:0:0:
36,192,77304,128,0,77473:0:0:0:0:
109,192,77388,128,0,77557:0:0:0:0:
402,192,77473,128,0,77641:0:0:0:0:
182,192,77473,128,0,77641:0:0:0:0:
329,192,77557,128,0,77725:0:0:0:0:
36,192,77641,128,0,77810:0:0:0:0:
475,192,77641,128,0,77810:0:0:0:0:
256,192,77641,128,0,77810:0:0:0:0:
182,192,77725,128,0,77894:0:0:0:0:
109,192,77810,128,0,77978:0:0:0:0:
329,192,77810,128,0,77978:0:0:0:0:
402,192,77894,128,0,78063:0:0:0:0:
256,192,77978,128,0,78147:0:0:0:0:
475,192,77978,128,0,78147:0:0:0:0:
182,192,78063,128,0,78231:0:0:0:0:
329,192,78147,128,0,78315:0:0:0:0:
36,192,78147,128,0,78315:0:0:0:0:
109,192,78231,128,0,78400:0:0:0:0:
256,192,78315,128,0,78484:0:0:0:0:
475,192,78315,128,0,78484:0:0:0:0:
402,192,78315,128,0,78484:0:0:0:0:
182,192,78400,128,0,78568:0:0:0:0:
36,192,78484,128,0,78652:0:0:0:0:
329,192,78484,128,0,78652:0:0:0:0:
256,192,78568,128,0,78737:0:0:0:0:
475,192,78652,128,0,78821:0:0:0:0:
109,192,78652,128,0,78821:0:0:0:0:
402,192,78737,128,0,78905:0:0:0:0:
329,192,78821,128,0,78990:0:0:0:0:
182,192,78821,128,0,78990:0:0:0:0:
109,192,78905,128,0,79074:0:0:0:0:
475,192,78990,128,0,79158:0:0:0:0:
256,192,78990,128,0,79158:0:0:0:0:
36,192,78990,128,0,79158:0:0:0:0:
329,192,79074,128,0,79242:0:0:0:0:
182,192,79158,128,0,79327:0:0:0:0:
402,192,79158,128,0,79327:0:0:0:0:
256,192,79242,128,0,79411:0:0:0:0:
36,192,79327,128,0,79495:0:0:0:0:
109,192,79327,128,0,79495:0:0:0:0:
329,192,79411,128,0,79579:0:0:0:0:
256,192,79495,128,0,79664:0:0:0:0:
402,192,79495,128,0,79664:0:0:0:0:
475,192,79495,128,0,79664:0:0:0:0:
182,192,79579,128,0,79748:0:0:0:0:
109,192,79664,128,0,80001:0:0:0:0:
36,192,79664,128,0,80001:0:0:0:0:
329,192,79748,128,0,80001:0:0:0:0:
256,192,79832,128,0,80001:0:0:0:0:
182,192,79916,128,0,80001:0:0:0:0:
402,192,80001,1,0,0:0:0:0:
475,192,80001,1,0,0:0:0:0:
109,192,80169,1,0,0:0:0:0:
36,192,80169,1,0,0:0:0:0:
402,192,80338,1,0,0:0:0:0:
475,192,80338,1,0,0:0:0:0:
109,192,80675,1,0,0:0:0:0:
182,192,80675,1,0,0:0:0:0:
182,192,80843,1,0,0:0:0:0:
256,192,80843,1,0,0:0:0:0:
256,192,81012,1,0,0:0:0:0:
329,192,81012,1,0,0:0:0:0:
329,192,81181,1,0,0:0:0:0:
402,192,81181,1,0,0:0:0:0:
182,192,81349,1,0,0:0:0:0:
109,192,81349,1,0,0:0:0:0:
36,192,81349,1,0,0:0:0:0:
256,192,81349,1,0,0:0:0:0:
329,192,81518,1,0,0:0:0:0:
475,192,81518,1,0,0:0:0:0:
182,192,81686,1,0,0:0:0:0:
109,192,81686,1,0,0:0:0:0:
36,192,81686,1,0,0:0:0:0:
329,192,81855,1,0,0:0:0:0:
475,192,81855,1,0,0:0:0:0:
182,192,82023,1,0,0:0:0:0:
109,192,82023,1,0,0:0:0:0:
36,192,82023,1,0,0:0:0:0:
256,192,82023,1,0,0:0:0:0:
329,192,82192,1,0,0:0:0:0:
475,192,82192,1,0,0:0:0:0:
182,192,82360,1,0,0:0:0:0:
109,192,82360,1,0,0:0:0:0:
36,192,82360,1,0,0:0:0:0:
329,192,82529,1,0,0:0:0:0:
475,192,82529,1,0,0:0:0:0:
402,192,82529,1,0,0:0:0:0:
256,192,82529,1,0,0:0:0:0:
36,192,82866,1,0,0:0:0:0:
109,192,82866,1,0,0:0:0:0:
402,192,83034,1,0,0:0:0:0:
475,192,83034,1,0,0:0:0:0:
402,192,83203,1,0,0:0:0:0:
475,192,83203,1,0,0:0:0:0:
109,192,83372,1,0,0:0:0:0:
36,192,83372,1,0,0:0:0:0:
36,192,83540,1,0,0:0:0:0:
109,192,83540,1,0,0:0:0:0:
402,192,83709,1,0,0:0:0:0:
475,192,83709,1,0,0:0:0:0:
256,192,83877,1,0,0:0:0:0:
182,192,83877,1,0,0:0:0:0:
109,192,83877,1,0,0:0:0:0:
36,192,83877,1,0,0:0:0:0:
109,192,84214,1,0,0:0:0:0:
182,192,84214,1,0,0:0:0:0:
256,192,84214,1,0,0:0:0:0:
329,192,84214,1,0,0:0:0:0:
329,192,84383,1,0,0:0:0:0:
402,192,84383,1,0,0:0:0:0:
475,192,84383,1,0,0:0:0:0:
36,192,84383,1,0,0:0:0:0:
109,192,84383,1,0,0:0:0:0:
182,192,84551,1,0,0:0:0:0:
109,192,84551,1,0,0:0:0:0:
36,192,84551,1,0,0:0:0:0:
402,192,84551,1,0,0:0:0:0:
475,192,84551,1,0,0:0:0:0:
109,192,84888,1,0,0:0:0:0:
329,192,84888,1,0,0:0:0:0:
182,192,84973,1,0,0:0:0:0:
402,192,84973,1,0,0:0:0:0:
256,192,85057,1,0,0:0:0:0:
475,192,85057,1,0,0:0:0:0:
109,192,85057,1,0,0:0:0:0:
329,192,85057,1,0,0:0:0:0:
36,192,85057,1,0,0:0:0:0:
182,192,85394,128,0,85478:0:0:0:0:
329,192,85563,128,0,85647:0:0:0:0:
256,192,85647,128,0,85731:0:0:0:0:
182,192,85731,128,0,85815:0:0:0:0:
329,192,85900,128,0,85984:0:0:0:0:
36,192,86068,128,0,86237:0:0:0:0:
182,192,86237,128,0,86405:0:0:0:0:
36,192,86405,128,0,86574:0:0:0:0:
182,192,86574,128,0,86742:0:0:0:0:
329,192,86742,128,0,86827:0:0:0:0:
182,192,86911,128,0,86995:0:0:0:0:
256,192,86995,128,0,87079:0:0:0:0:
329,192,87079,128,0,87164:0:0:0:0:
182,192,87248,128,0,87332:0:0:0:0:
475,192,87416,128,0,87585:0:0:0:0:
329,192,87585,128,0,87754:0:0:0:0:
475,192,87754,128,0,87838:0:0:0:0:
329,192,87922,128,0,88006:0:0:0:0:
182,192,88091,128,0,88175:0:0:0:0:
329,192,88259,128,0,88343:0:0:0:0:
402,192,88343,128,0,88428:0:0:0:0:
475,192,88428,128,0,88512:0:0:0:0:
256,192,88596,128,0,88681:0:0:0:0:
329,192,88681,128,0,88765:0:0:0:0:
402,192,88765,128,0,88933:0:0:0:0:
182,192,88933,128,0,89102:0:0:0:0:
329,192,89102,128,0,89186:0:0:0:0:
109,192,89270,128,0,89355:0:0:0:0:
475,192,89439,128,0,89607:0:0:0:0:
329,192,89607,128,0,89776:0:0:0:0:
182,192,89692,128,0,89776:0:0:0:0:
36,192,89776,128,0,89945:0:0:0:0:
182,192,89945,128,0,90113:0:0:0:0:
475,192,90113,128,0,90282:0:0:0:0:
329,192,90282,128,0,90450:0:0:0:0:
36,192,90450,128,0,90787:0:0:0:0:
182,192,90619,128,0,90787:0:0:0:0:
475,192,90787,128,0,90872:0:0:0:0:
329,192,90787,128,0,90872:0:0:0:0:
329,192,90956,128,0,91040:0:0:0:0:
475,192,90956,128,0,91040:0:0:0:0:
475,192,91124,128,0,91293:0:0:0:0:
329,192,91124,128,0,91293:0:0:0:0:
36,192,91461,128,0,91546:0:0:0:0:
182,192,91461,128,0,91546:0:0:0:0:
36,192,91630,128,0,91714:0:0:0:0:
182,192,91630,128,0,91714:0:0:0:0:
36,192,91798,128,0,91967:0:0:0:0:
182,192,91798,128,0,91967:0:0:0:0:
329,192,92136,1,0,0:0:0:0:
475,192,92136,1,0,0:0:0:0:
329,192,92248,1,0,0:0:0:0:
475,192,92248,1,0,0:0:0:0:
475,192,92360,1,0,0:0:0:0:
329,192,92360,1,0,0:0:0:0:
182,192,92473,1,0,0:0:0:0:
36,192,92473,1,0,0:0:0:0:
329,192,92641,1,0,0:0:0:0:
475,192,92641,1,0,0:0:0:0:
36,192,92810,128,0,92978:0:0:0:0:
182,192,92810,128,0,92978:0:0:0:0:
329,192,93063,128,0,93147:0:0:0:0:
256,192,93105,128,0,93189:0:0:0:0:
182,192,93147,128,0,93231:0:0:0:0:
109,192,93147,128,0,93484:0:0:0:0:
36,192,93147,128,0,93484:0:0:0:0:
475,192,93147,128,0,93231:0:0:0:0:
402,192,93189,128,0,93273:0:0:0:0:
329,192,93231,128,0,93315:0:0:0:0:
256,192,93273,128,0,93357:0:0:0:0:
475,192,93315,128,0,93484:0:0:0:0:
182,192,93315,128,0,93484:0:0:0:0:
402,192,93357,128,0,93484:0:0:0:0:
329,192,93400,128,0,93484:0:0:0:0:
256,192,93442,128,0,93484:0:0:0:0:
