osu file format v14

[General]
AudioFilename: audio.mp3
AudioLeadIn: 0
PreviewTime: 60282
Countdown: 0
SampleSet: Soft
StackLeniency: 0.7
Mode: 3
LetterboxInBreaks: 0
SpecialStyle: 0
WidescreenStoryboard: 0

[Editor]
DistanceSpacing: 0.7
BeatDivisor: 4
GridSize: 16
TimelineZoom: 1.5

[Metadata]
Title:Koi no Hime Hime Pettanko
TitleUnicode:恋のヒメヒメぺったんこ
Artist:*namirin
ArtistUnicode:*なみりん
Creator:Litharrale
Version:Hard
Source:弱虫ペダル
Tags:yowamushi pedal Virtue utaite
BeatmapID:1282467
BeatmapSetID:607139

[Difficulty]
HPDrainRate:7.5
CircleSize:4
OverallDifficulty:7.5
ApproachRate:5
SliderMultiplier:1.4
SliderTickRate:1

[Events]
//Background and Video events
0,0,"himehimebg.jpg",0,0
//Break Periods
//Storyboard Layer 0 (Background)
//Storyboard Layer 1 (Fail)
//Storyboard Layer 2 (Pass)
//Storyboard Layer 3 (Foreground)
//Storyboard Sound Samples

[TimingPoints]
1799,337.078651685393,4,2,1,20,1,0
7192,-100,4,2,1,40,0,0
61124,-100,4,2,1,40,0,1
70563,-100,4,2,1,40,0,0
71911,-100,4,2,1,40,0,1
85394,-100,4,2,1,20,0,0

[HitObjects]
64,192,1799,5,0,0:0:0:0:
320,192,1799,1,2,0:0:0:0:
192,192,1967,1,0,0:0:0:0:
320,192,2051,1,0,0:0:0:0:
448,192,2136,1,10,0:0:0:0:
64,192,2136,1,0,0:0:0:0:
192,192,2304,1,0,0:0:0:0:
320,192,2473,1,2,0:0:0:0:
448,192,2473,1,0,0:0:0:0:
192,192,2641,1,0,0:0:0:0:
320,192,2810,1,10,0:0:0:0:
64,192,2810,1,0,0:0:0:0:
448,192,2978,1,0,0:0:0:0:
192,192,3147,1,0,0:0:0:0:
320,192,3147,1,2,0:0:0:0:
64,192,3315,1,0,0:0:0:0:
192,192,3400,1,0,0:0:0:0:
320,192,3484,1,10,0:0:0:0:
448,192,3484,1,0,0:0:0:0:
64,192,3652,1,0,0:0:0:0:
192,192,3821,1,0,0:0:0:0:
448,192,3821,1,2,0:0:0:0:
320,192,3990,1,0,0:0:0:0:
192,192,4158,1,10,0:0:0:0:
64,192,4158,1,0,0:0:0:0:
448,192,4327,1,0,0:0:0:0:
192,192,4495,1,0,0:0:0:0:
320,192,4495,1,2,0:0:0:0:
64,192,4664,1,0,0:0:0:0:
192,192,4748,1,0,0:0:0:0:
320,192,4832,1,10,0:0:0:0:
448,192,4832,1,0,0:0:0:0:
192,192,5001,1,0,0:0:0:0:
320,192,5085,1,0,0:0:0:0:
448,192,5169,1,2,0:0:0:0:
64,192,5169,1,0,0:0:0:0:
320,192,5338,1,0,0:0:0:0:
192,192,5506,1,10,0:0:0:0:
64,192,5506,1,0,0:0:0:0:
448,192,5675,1,0,0:0:0:0:
320,192,5843,1,2,0:0:0:0:
64,192,5843,1,0,0:0:0:0:
192,192,6012,1,0,0:0:0:0:
64,192,6181,1,0,0:0:0:0:
448,192,6181,1,10,0:0:0:0:
320,192,6349,1,0,0:0:0:0:
192,192,6518,1,2,0:0:0:0:
64,192,6518,1,0,0:0:0:0:
192,192,6770,1,0,0:0:0:0:
320,192,6813,1,0,0:0:0:0:
448,192,6855,1,2,0:0:0:0:
64,192,6855,1,0,0:0:0:0:
64,192,7192,1,0,0:0:0:0:
320,192,7192,128,0,7529:0:0:0:0:
448,192,7192,128,6,7529:0:0:0:0:
320,192,8372,1,2,0:0:0:0:
448,192,8540,1,0,0:0:0:0:
64,192,8540,128,0,8877:0:0:0:0:
192,192,8540,128,6,8877:0:0:0:0:
448,192,9551,1,0,0:0:0:0:
320,192,9551,1,10,0:0:0:0:
192,192,9720,1,2,0:0:0:0:
64,192,9888,1,0,0:0:0:0:
320,192,9888,128,6,10225:0:0:0:0:
448,192,9888,128,0,10225:0:0:0:0:
192,192,10225,1,0,0:0:0:0:
192,192,10900,1,0,0:0:0:0:
320,192,11068,1,2,0:0:0:0:
448,192,11237,1,0,0:0:0:0:
64,192,11237,128,0,11574:0:0:0:0:
192,192,11237,128,6,11574:0:0:0:0:
320,192,11574,1,0,0:0:0:0:
320,192,12079,1,0,0:0:0:0:
64,192,12248,1,0,0:0:0:0:
448,192,12248,1,8,0:0:0:0:
320,192,12332,1,8,0:0:0:0:
192,192,12416,1,8,0:0:0:0:
64,192,12501,1,8,0:0:0:0:
192,192,12585,1,14,0:0:0:0:
448,192,12585,1,0,0:0:0:0:
320,192,12585,1,0,0:0:0:0:
64,192,12754,1,2,0:0:0:0:
192,192,12922,1,10,0:0:0:0:
448,192,12922,1,0,0:0:0:0:
320,192,13091,1,2,0:0:0:0:
64,192,13259,1,0,0:0:0:0:
192,192,13428,1,2,0:0:0:0:
64,192,13596,1,10,0:0:0:0:
448,192,13596,1,0,0:0:0:0:
320,192,13765,1,0,0:0:0:0:
448,192,13933,1,0,0:0:0:0:
192,192,13933,1,10,0:0:0:0:
64,192,13933,1,0,0:0:0:0:
320,192,14102,1,2,0:0:0:0:
64,192,14270,1,0,0:0:0:0:
192,192,14270,1,10,0:0:0:0:
448,192,14439,1,2,0:0:0:0:
320,192,14523,1,8,0:0:0:0:
192,192,14607,1,2,0:0:0:0:
64,192,14776,1,2,0:0:0:0:
320,192,14945,1,10,0:0:0:0:
448,192,14945,1,0,0:0:0:0:
64,192,15113,1,0,0:0:0:0:
192,192,15282,1,10,0:0:0:0:
448,192,15282,1,0,0:0:0:0:
320,192,15282,1,0,0:0:0:0:
64,192,15450,1,2,0:0:0:0:
192,192,15619,1,10,0:0:0:0:
320,192,15619,1,0,0:0:0:0:
448,192,15787,1,0,0:0:0:0:
320,192,15872,1,8,0:0:0:0:
192,192,15956,1,2,0:0:0:0:
448,192,16040,1,8,0:0:0:0:
64,192,16124,1,2,0:0:0:0:
192,192,16293,1,10,0:0:0:0:
320,192,16293,1,0,0:0:0:0:
448,192,16461,1,0,0:0:0:0:
192,192,16630,1,0,0:0:0:0:
320,192,16630,1,0,0:0:0:0:
64,192,16630,128,14,17473:0:0:0:0:
192,192,17473,1,2,0:0:0:0:
448,192,17641,1,0,0:0:0:0:
320,192,17641,1,10,0:0:0:0:
64,192,17978,1,0,0:0:0:0:
192,192,17978,1,6,0:0:0:0:
448,192,17978,1,0,0:0:0:0:
320,192,18147,1,0,0:0:0:0:
64,192,18315,1,0,0:0:0:0:
192,192,18315,1,10,0:0:0:0:
448,192,18484,1,0,0:0:0:0:
320,192,18652,1,0,0:0:0:0:
64,192,18821,1,2,0:0:0:0:
192,192,18821,1,0,0:0:0:0:
448,192,18990,1,10,0:0:0:0:
320,192,18990,1,0,0:0:0:0:
64,192,19158,1,0,0:0:0:0:
192,192,19327,1,2,0:0:0:0:
320,192,19327,1,0,0:0:0:0:
448,192,19327,1,0,0:0:0:0:
448,192,19664,1,10,0:0:0:0:
320,192,19664,128,0,19832:0:0:0:0:
192,192,19832,1,2,0:0:0:0:
64,192,19832,1,0,0:0:0:0:
64,192,20169,1,2,0:0:0:0:
192,192,20169,128,0,20338:0:0:0:0:
320,192,20338,1,10,0:0:0:0:
448,192,20338,1,0,0:0:0:0:
64,192,20506,1,0,0:0:0:0:
320,192,20675,1,0,0:0:0:0:
192,192,20675,1,2,0:0:0:0:
448,192,20675,1,0,0:0:0:0:
64,192,20843,1,0,0:0:0:0:
448,192,21012,1,10,0:0:0:0:
192,192,21012,1,0,0:0:0:0:
320,192,21181,1,0,0:0:0:0:
192,192,21349,1,0,0:0:0:0:
320,192,21518,1,0,0:0:0:0:
448,192,21518,1,2,0:0:0:0:
192,192,21686,1,0,0:0:0:0:
64,192,21686,1,10,0:0:0:0:
448,192,21855,1,0,0:0:0:0:
320,192,22023,1,0,0:0:0:0:
64,192,22023,1,0,0:0:0:0:
192,192,22023,1,2,0:0:0:0:
448,192,22360,1,10,0:0:0:0:
64,192,22360,128,0,22529:0:0:0:0:
192,192,22529,1,2,0:0:0:0:
320,192,22529,1,0,0:0:0:0:
64,192,22866,1,2,0:0:0:0:
448,192,22866,1,0,0:0:0:0:
192,192,23034,1,10,0:0:0:0:
320,192,23034,1,0,0:0:0:0:
64,192,23203,1,0,0:0:0:0:
320,192,23372,1,2,0:0:0:0:
448,192,23372,1,0,0:0:0:0:
192,192,23372,1,0,0:0:0:0:
64,192,23540,1,0,0:0:0:0:
320,192,23709,1,10,0:0:0:0:
448,192,23709,1,0,0:0:0:0:
192,192,23877,1,0,0:0:0:0:
64,192,24046,1,0,0:0:0:0:
192,192,24214,1,2,0:0:0:0:
320,192,24214,1,0,0:0:0:0:
64,192,24383,1,10,0:0:0:0:
448,192,24383,1,0,0:0:0:0:
320,192,24551,1,0,0:0:0:0:
64,192,24720,1,0,0:0:0:0:
192,192,24720,1,2,0:0:0:0:
448,192,24720,1,0,0:0:0:0:
320,192,25057,1,10,0:0:0:0:
192,192,25057,128,0,25225:0:0:0:0:
64,192,25225,1,0,0:0:0:0:
448,192,25225,1,2,0:0:0:0:
192,192,25563,1,2,0:0:0:0:
64,192,25563,128,0,25731:0:0:0:0:
320,192,25731,1,0,0:0:0:0:
448,192,25731,1,10,0:0:0:0:
64,192,25900,1,0,0:0:0:0:
192,192,25900,1,2,0:0:0:0:
448,192,25900,1,0,0:0:0:0:
448,192,26237,1,0,0:0:0:0:
320,192,26237,1,2,0:0:0:0:
192,192,26405,1,2,0:0:0:0:
64,192,26574,1,2,0:0:0:0:
192,192,26742,1,10,0:0:0:0:
448,192,26742,1,0,0:0:0:0:
64,192,26911,1,2,0:0:0:0:
320,192,27079,1,10,0:0:0:0:
448,192,27079,1,0,0:0:0:0:
64,192,27248,1,0,0:0:0:0:
192,192,27248,1,2,0:0:0:0:
320,192,27248,1,0,0:0:0:0:
64,192,27585,1,0,0:0:0:0:
192,192,27585,1,2,0:0:0:0:
320,192,27754,1,2,0:0:0:0:
448,192,27922,1,2,0:0:0:0:
64,192,28091,1,0,0:0:0:0:
320,192,28091,1,10,0:0:0:0:
192,192,28259,1,0,0:0:0:0:
320,192,28343,1,0,0:0:0:0:
64,192,28428,1,10,0:0:0:0:
448,192,28428,128,0,28765:0:0:0:0:
64,192,28765,1,0,0:0:0:0:
192,192,28765,1,6,0:0:0:0:
320,192,28765,1,0,0:0:0:0:
320,192,28933,1,0,0:0:0:0:
448,192,29102,1,10,0:0:0:0:
192,192,29102,1,0,0:0:0:0:
64,192,29270,1,0,0:0:0:0:
320,192,29439,1,0,0:0:0:0:
320,192,29607,1,2,0:0:0:0:
448,192,29607,1,0,0:0:0:0:
192,192,29776,1,10,0:0:0:0:
64,192,29776,1,0,0:0:0:0:
448,192,29945,1,0,0:0:0:0:
320,192,30113,1,0,0:0:0:0:
192,192,30113,1,2,0:0:0:0:
64,192,30113,1,0,0:0:0:0:
448,192,30450,1,10,0:0:0:0:
320,192,30450,128,0,30619:0:0:0:0:
192,192,30619,1,2,0:0:0:0:
64,192,30619,1,0,0:0:0:0:
64,192,30956,1,2,0:0:0:0:
448,192,30956,128,0,31124:0:0:0:0:
192,192,31124,1,10,0:0:0:0:
320,192,31124,1,0,0:0:0:0:
448,192,31293,1,0,0:0:0:0:
192,192,31461,1,2,0:0:0:0:
64,192,31461,1,0,0:0:0:0:
320,192,31461,1,0,0:0:0:0:
448,192,31630,1,0,0:0:0:0:
64,192,31798,1,0,0:0:0:0:
192,192,31798,1,10,0:0:0:0:
320,192,31967,1,0,0:0:0:0:
448,192,32136,1,0,0:0:0:0:
192,192,32304,1,2,0:0:0:0:
64,192,32304,1,0,0:0:0:0:
320,192,32473,1,10,0:0:0:0:
448,192,32473,1,0,0:0:0:0:
64,192,32641,1,0,0:0:0:0:
320,192,32810,1,2,0:0:0:0:
448,192,32810,1,0,0:0:0:0:
192,192,32894,1,0,0:0:0:0:
64,192,32978,1,0,0:0:0:0:
448,192,33063,1,0,0:0:0:0:
320,192,33147,1,8,0:0:0:0:
192,192,33231,1,0,0:0:0:0:
64,192,33315,1,2,0:0:0:0:
448,192,33315,128,0,33652:0:0:0:0:
64,192,33652,1,2,0:0:0:0:
192,192,33737,1,0,0:0:0:0:
320,192,33821,1,10,0:0:0:0:
448,192,33821,1,0,0:0:0:0:
192,192,33990,1,0,0:0:0:0:
64,192,34158,1,2,0:0:0:0:
448,192,34158,1,0,0:0:0:0:
320,192,34158,1,0,0:0:0:0:
192,192,34327,1,0,0:0:0:0:
64,192,34495,1,10,0:0:0:0:
320,192,34495,1,0,0:0:0:0:
448,192,34664,1,0,0:0:0:0:
64,192,34832,1,0,0:0:0:0:
320,192,35001,1,0,0:0:0:0:
192,192,35001,1,2,0:0:0:0:
64,192,35169,1,10,0:0:0:0:
448,192,35169,1,0,0:0:0:0:
192,192,35338,1,0,0:0:0:0:
64,192,35506,1,0,0:0:0:0:
320,192,35506,1,2,0:0:0:0:
448,192,35506,1,0,0:0:0:0:
320,192,35843,1,10,0:0:0:0:
192,192,35843,128,0,36012:0:0:0:0:
64,192,36012,1,0,0:0:0:0:
448,192,36012,1,2,0:0:0:0:
64,192,36349,1,2,0:0:0:0:
192,192,36349,128,0,36518:0:0:0:0:
320,192,36518,1,10,0:0:0:0:
448,192,36518,1,0,0:0:0:0:
192,192,36686,1,2,0:0:0:0:
64,192,36855,1,0,0:0:0:0:
320,192,36855,1,2,0:0:0:0:
448,192,37023,1,0,0:0:0:0:
192,192,37023,1,2,0:0:0:0:
64,192,37192,1,0,0:0:0:0:
320,192,37192,1,10,0:0:0:0:
448,192,37192,1,0,0:0:0:0:
64,192,37529,1,0,0:0:0:0:
192,192,37529,1,2,0:0:0:0:
320,192,37697,1,2,0:0:0:0:
448,192,37697,1,0,0:0:0:0:
192,192,37866,1,10,0:0:0:0:
320,192,37866,1,0,0:0:0:0:
448,192,38034,128,0,38540:0:0:0:0:
192,192,38034,1,0,0:0:0:0:
64,192,38034,1,6,0:0:0:0:
64,192,38372,1,2,0:0:0:0:
192,192,38372,1,0,0:0:0:0:
64,192,38540,1,2,0:0:0:0:
192,192,38540,1,0,0:0:0:0:
64,192,38709,1,2,0:0:0:0:
192,192,38709,1,0,0:0:0:0:
192,192,38877,1,0,0:0:0:0:
448,192,38877,1,0,0:0:0:0:
64,192,38877,1,10,0:0:0:0:
320,192,38961,1,0,0:0:0:0:
192,192,39046,1,0,0:0:0:0:
64,192,39130,1,0,0:0:0:0:
448,192,39214,1,8,0:0:0:0:
320,192,39298,1,0,0:0:0:0:
192,192,39383,1,0,0:0:0:0:
64,192,39467,1,0,0:0:0:0:
192,192,39551,1,0,0:0:0:0:
448,192,39551,1,0,0:0:0:0:
320,192,39551,1,14,0:0:0:0:
64,192,39888,128,0,40225:0:0:0:0:
448,192,40057,1,2,0:0:0:0:
320,192,40225,128,2,40563:0:0:0:0:
192,192,40563,128,10,40900:0:0:0:0:
64,192,40563,1,0,0:0:0:0:
320,192,40731,1,2,0:0:0:0:
448,192,40900,128,0,41237:0:0:0:0:
64,192,41068,1,2,0:0:0:0:
320,192,41237,128,0,41574:0:0:0:0:
192,192,41405,1,2,0:0:0:0:
64,192,41574,128,2,41911:0:0:0:0:
192,192,41911,128,10,42248:0:0:0:0:
448,192,41911,1,0,0:0:0:0:
64,192,42079,1,0,0:0:0:0:
320,192,42248,1,2,0:0:0:0:
448,192,42416,1,0,0:0:0:0:
192,192,42585,1,0,0:0:0:0:
64,192,42754,128,2,43428:0:0:0:0:
320,192,42922,1,2,0:0:0:0:
448,192,43259,1,0,0:0:0:0:
192,192,43259,1,10,0:0:0:0:
320,192,43428,1,2,0:0:0:0:
192,192,43596,128,0,43765:0:0:0:0:
320,192,43765,128,2,43933:0:0:0:0:
192,192,43933,128,0,44102:0:0:0:0:
320,192,44102,128,2,44607:0:0:0:0:
448,192,44270,1,2,0:0:0:0:
64,192,44439,1,0,0:0:0:0:
192,192,44439,1,10,0:0:0:0:
192,192,44607,1,10,0:0:0:0:
64,192,44607,1,0,0:0:0:0:
320,192,44776,1,2,0:0:0:0:
448,192,44945,1,0,0:0:0:0:
192,192,44945,1,6,0:0:0:0:
64,192,44945,1,0,0:0:0:0:
192,192,45282,128,0,45619:0:0:0:0:
448,192,45450,1,2,0:0:0:0:
320,192,45619,128,2,45956:0:0:0:0:
448,192,45956,128,10,46293:0:0:0:0:
64,192,45956,1,0,0:0:0:0:
192,192,46124,1,2,0:0:0:0:
64,192,46293,128,0,46630:0:0:0:0:
192,192,46461,1,2,0:0:0:0:
320,192,46630,128,0,46967:0:0:0:0:
448,192,46798,1,2,0:0:0:0:
192,192,46967,128,2,47304:0:0:0:0:
64,192,46967,1,0,0:0:0:0:
448,192,47304,128,10,47641:0:0:0:0:
320,192,47304,1,0,0:0:0:0:
192,192,47473,1,2,0:0:0:0:
64,192,47641,1,0,0:0:0:0:
320,192,47641,1,6,0:0:0:0:
320,192,47978,1,10,0:0:0:0:
448,192,47978,1,0,0:0:0:0:
64,192,48147,1,10,0:0:0:0:
192,192,48231,1,8,0:0:0:0:
320,192,48315,1,8,0:0:0:0:
448,192,48315,1,0,0:0:0:0:
192,192,48484,1,10,0:0:0:0:
320,192,48568,1,8,0:0:0:0:
64,192,48652,1,8,0:0:0:0:
448,192,48652,1,0,0:0:0:0:
320,192,48821,1,0,0:0:0:0:
192,192,48821,1,6,0:0:0:0:
320,192,49158,1,2,0:0:0:0:
64,192,49327,1,0,0:0:0:0:
192,192,49327,1,10,0:0:0:0:
320,192,49495,1,2,0:0:0:0:
64,192,49664,1,0,0:0:0:0:
192,192,49664,1,10,0:0:0:0:
320,192,49832,1,2,0:0:0:0:
64,192,50001,1,0,0:0:0:0:
192,192,50001,1,10,0:0:0:0:
448,192,50169,1,2,0:0:0:0:
320,192,50338,1,0,0:0:0:0:
192,192,50338,1,14,0:0:0:0:
64,192,50338,1,0,0:0:0:0:
448,192,50675,1,0,0:0:0:0:
320,192,50675,1,0,0:0:0:0:
192,192,50675,1,10,0:0:0:0:
64,192,51012,1,0,0:0:0:0:
192,192,51012,1,10,0:0:0:0:
448,192,51012,1,0,0:0:0:0:
320,192,51181,1,2,0:0:0:0:
448,192,51349,1,0,0:0:0:0:
320,192,51349,1,10,0:0:0:0:
64,192,51349,1,0,0:0:0:0:
64,192,51686,1,0,0:0:0:0:
192,192,51686,1,0,0:0:0:0:
320,192,51686,1,14,0:0:0:0:
448,192,51855,1,2,0:0:0:0:
192,192,52023,1,0,0:0:0:0:
320,192,52023,1,10,0:0:0:0:
64,192,52192,1,0,0:0:0:0:
448,192,52192,1,6,0:0:0:0:
192,192,52529,1,2,0:0:0:0:
320,192,52697,1,2,0:0:0:0:
448,192,52697,1,0,0:0:0:0:
64,192,52866,1,8,0:0:0:0:
192,192,52950,1,8,0:0:0:0:
64,192,53034,1,4,0:0:0:0:
320,192,53034,1,2,0:0:0:0:
448,192,53034,1,0,0:0:0:0:
64,192,53372,1,0,0:0:0:0:
192,192,53372,1,10,0:0:0:0:
448,192,53372,1,0,0:0:0:0:
64,192,53709,1,0,0:0:0:0:
192,192,53709,1,10,0:0:0:0:
320,192,53709,1,0,0:0:0:0:
448,192,53877,1,2,0:0:0:0:
448,192,54046,1,0,0:0:0:0:
320,192,54046,1,10,0:0:0:0:
64,192,54046,1,0,0:0:0:0:
192,192,54383,1,0,0:0:0:0:
320,192,54383,1,14,0:0:0:0:
448,192,54383,1,0,0:0:0:0:
64,192,54551,1,2,0:0:0:0:
192,192,54720,1,10,0:0:0:0:
448,192,54720,1,0,0:0:0:0:
320,192,54888,128,6,55225:0:0:0:0:
64,192,54888,1,0,0:0:0:0:
448,192,55225,1,2,0:0:0:0:
192,192,55394,1,10,0:0:0:0:
320,192,55394,1,0,0:0:0:0:
64,192,55563,128,14,56742:0:0:0:0:
448,192,55563,1,0,0:0:0:0:
192,192,55900,1,2,0:0:0:0:
320,192,56068,1,10,0:0:0:0:
448,192,56068,1,0,0:0:0:0:
192,192,56405,1,2,0:0:0:0:
192,192,56574,1,2,0:0:0:0:
320,192,56742,1,10,0:0:0:0:
448,192,56742,1,0,0:0:0:0:
192,192,56911,1,2,0:0:0:0:
448,192,57248,1,2,0:0:0:0:
192,192,57416,1,10,0:0:0:0:
64,192,57416,1,0,0:0:0:0:
448,192,57585,1,2,0:0:0:0:
64,192,57754,1,0,0:0:0:0:
320,192,57754,1,10,0:0:0:0:
192,192,57922,1,2,0:0:0:0:
320,192,58091,1,10,0:0:0:0:
448,192,58091,1,0,0:0:0:0:
64,192,58259,128,6,59439:0:0:0:0:
192,192,58259,1,0,0:0:0:0:
192,192,58596,1,2,0:0:0:0:
448,192,58765,1,8,0:0:0:0:
320,192,58765,1,0,0:0:0:0:
192,192,58933,1,2,0:0:0:0:
448,192,59102,1,8,0:0:0:0:
320,192,59102,1,0,0:0:0:0:
320,192,59270,1,2,0:0:0:0:
192,192,59355,1,8,0:0:0:0:
448,192,59439,1,8,0:0:0:0:
320,192,59439,1,0,0:0:0:0:
192,192,59607,1,0,0:0:0:0:
448,192,59607,1,14,0:0:0:0:
64,192,59607,1,0,0:0:0:0:
64,192,59945,1,0,0:0:0:0:
192,192,59945,1,10,0:0:0:0:
448,192,59945,1,0,0:0:0:0:
192,192,60113,1,10,0:0:0:0:
448,192,60113,1,0,0:0:0:0:
64,192,60113,1,0,0:0:0:0:
320,192,61124,1,0,0:0:0:0:
448,192,61124,1,0,0:0:0:0:
192,192,61124,1,6,0:0:0:0:
64,192,61293,128,0,61461:0:0:0:0:
192,192,61461,1,10,0:0:0:0:
320,192,61461,1,0,0:0:0:0:
448,192,61630,128,0,61798:0:0:0:0:
320,192,61798,1,0,0:0:0:0:
192,192,61798,1,2,0:0:0:0:
64,192,61967,128,0,62136:0:0:0:0:
192,192,62136,1,10,0:0:0:0:
320,192,62136,1,0,0:0:0:0:
448,192,62304,1,0,0:0:0:0:
192,192,62304,1,0,0:0:0:0:
320,192,62473,1,0,0:0:0:0:
64,192,62473,1,2,0:0:0:0:
192,192,62641,1,0,0:0:0:0:
64,192,62641,1,0,0:0:0:0:
320,192,62810,1,10,0:0:0:0:
448,192,62810,1,0,0:0:0:0:
64,192,62978,1,0,0:0:0:0:
192,192,62978,1,0,0:0:0:0:
448,192,63147,1,0,0:0:0:0:
64,192,63147,1,2,0:0:0:0:
320,192,63315,1,0,0:0:0:0:
192,192,63315,1,0,0:0:0:0:
64,192,63484,1,10,0:0:0:0:
448,192,63484,1,0,0:0:0:0:
192,192,63652,128,0,63821:0:0:0:0:
64,192,63821,1,0,0:0:0:0:
320,192,63821,1,2,0:0:0:0:
448,192,63990,128,0,64158:0:0:0:0:
320,192,64158,1,10,0:0:0:0:
64,192,64158,1,0,0:0:0:0:
192,192,64327,128,0,64495:0:0:0:0:
320,192,64495,1,2,0:0:0:0:
448,192,64495,1,0,0:0:0:0:
64,192,64664,128,0,64832:0:0:0:0:
192,192,64832,1,10,0:0:0:0:
448,192,64832,1,0,0:0:0:0:
64,192,65001,1,0,0:0:0:0:
192,192,65001,1,0,0:0:0:0:
320,192,65169,1,2,0:0:0:0:
448,192,65169,1,0,0:0:0:0:
64,192,65338,1,0,0:0:0:0:
192,192,65338,1,0,0:0:0:0:
320,192,65506,1,10,0:0:0:0:
448,192,65506,1,0,0:0:0:0:
64,192,65675,1,0,0:0:0:0:
320,192,65675,1,0,0:0:0:0:
448,192,65843,128,0,66012:0:0:0:0:
192,192,65843,128,2,66012:0:0:0:0:
64,192,66012,1,0,0:0:0:0:
192,192,66181,1,0,0:0:0:0:
320,192,66181,1,10,0:0:0:0:
64,192,66349,1,0,0:0:0:0:
192,192,66518,1,0,0:0:0:0:
320,192,66518,1,6,0:0:0:0:
448,192,66518,1,0,0:0:0:0:
64,192,66686,1,0,0:0:0:0:
192,192,66855,1,10,0:0:0:0:
448,192,66855,1,0,0:0:0:0:
320,192,67023,1,0,0:0:0:0:
64,192,67192,1,0,0:0:0:0:
192,192,67192,1,2,0:0:0:0:
448,192,67360,1,0,0:0:0:0:
320,192,67529,1,10,0:0:0:0:
64,192,67529,1,0,0:0:0:0:
192,192,67697,1,0,0:0:0:0:
320,192,67866,1,2,0:0:0:0:
448,192,67866,1,0,0:0:0:0:
64,192,68034,1,0,0:0:0:0:
192,192,68203,1,0,0:0:0:0:
320,192,68203,1,10,0:0:0:0:
64,192,68372,1,0,0:0:0:0:
192,192,68540,1,2,0:0:0:0:
448,192,68540,1,0,0:0:0:0:
320,192,68709,1,0,0:0:0:0:
64,192,68877,1,0,0:0:0:0:
192,192,68877,1,10,0:0:0:0:
448,192,69046,1,0,0:0:0:0:
64,192,69214,128,2,69551:0:0:0:0:
320,192,69214,1,0,0:0:0:0:
192,192,69551,1,10,0:0:0:0:
320,192,69551,1,0,0:0:0:0:
448,192,69720,1,0,0:0:0:0:
320,192,69888,1,2,0:0:0:0:
64,192,69888,1,0,0:0:0:0:
192,192,70057,1,0,0:0:0:0:
320,192,70225,1,10,0:0:0:0:
448,192,70225,1,0,0:0:0:0:
64,192,70394,128,6,70731:0:0:0:0:
192,192,70394,1,0,0:0:0:0:
192,192,70731,1,2,0:0:0:0:
320,192,70731,1,0,0:0:0:0:
320,192,70900,1,10,0:0:0:0:
448,192,70900,1,0,0:0:0:0:
64,192,71068,1,8,0:0:0:0:
192,192,71152,1,8,0:0:0:0:
320,192,71237,1,10,0:0:0:0:
448,192,71237,1,0,0:0:0:0:
64,192,71405,1,0,0:0:0:0:
192,192,71405,1,10,0:0:0:0:
448,192,71574,1,2,0:0:0:0:
192,192,71574,1,0,0:0:0:0:
320,192,71742,1,8,0:0:0:0:
192,192,71827,1,8,0:0:0:0:
64,192,71911,1,0,0:0:0:0:
448,192,71911,1,6,0:0:0:0:
320,192,71911,1,0,0:0:0:0:
192,192,72079,128,0,72248:0:0:0:0:
64,192,72248,1,0,0:0:0:0:
320,192,72248,1,10,0:0:0:0:
448,192,72416,128,0,72585:0:0:0:0:
320,192,72585,1,2,0:0:0:0:
64,192,72585,1,0,0:0:0:0:
192,192,72754,128,0,72922:0:0:0:0:
320,192,72922,1,10,0:0:0:0:
448,192,72922,1,0,0:0:0:0:
64,192,73091,1,0,0:0:0:0:
192,192,73091,1,2,0:0:0:0:
192,192,73259,1,0,0:0:0:0:
320,192,73259,1,2,0:0:0:0:
192,192,73428,1,0,0:0:0:0:
448,192,73428,1,0,0:0:0:0:
448,192,73596,1,0,0:0:0:0:
64,192,73596,1,10,0:0:0:0:
64,192,73765,1,0,0:0:0:0:
320,192,73765,1,0,0:0:0:0:
320,192,73933,1,2,0:0:0:0:
448,192,73933,1,0,0:0:0:0:
320,192,74102,1,0,0:0:0:0:
64,192,74102,1,0,0:0:0:0:
64,192,74270,1,10,0:0:0:0:
448,192,74270,1,0,0:0:0:0:
192,192,74439,128,0,74607:0:0:0:0:
64,192,74607,1,0,0:0:0:0:
320,192,74607,1,2,0:0:0:0:
448,192,74776,128,0,74945:0:0:0:0:
192,192,74945,1,10,0:0:0:0:
64,192,74945,1,0,0:0:0:0:
320,192,75113,128,0,75282:0:0:0:0:
64,192,75282,1,0,0:0:0:0:
448,192,75282,1,2,0:0:0:0:
192,192,75450,128,0,75619:0:0:0:0:
320,192,75619,1,10,0:0:0:0:
448,192,75619,1,0,0:0:0:0:
64,192,75787,1,0,0:0:0:0:
192,192,75787,1,2,0:0:0:0:
320,192,75956,1,2,0:0:0:0:
448,192,75956,1,0,0:0:0:0:
192,192,76124,1,0,0:0:0:0:
320,192,76124,1,0,0:0:0:0:
64,192,76293,1,0,0:0:0:0:
192,192,76293,1,10,0:0:0:0:
64,192,76461,128,0,76798:0:0:0:0:
320,192,76461,128,0,76798:0:0:0:0:
448,192,76630,1,2,0:0:0:0:
192,192,76798,1,0,0:0:0:0:
448,192,76967,1,10,0:0:0:0:
64,192,76967,1,0,0:0:0:0:
320,192,77136,1,0,0:0:0:0:
64,192,77304,1,0,0:0:0:0:
192,192,77304,1,6,0:0:0:0:
448,192,77304,1,0,0:0:0:0:
320,192,77473,1,0,0:0:0:0:
192,192,77641,1,10,0:0:0:0:
64,192,77641,1,0,0:0:0:0:
320,192,77810,1,0,0:0:0:0:
192,192,77978,1,2,0:0:0:0:
448,192,77978,1,0,0:0:0:0:
64,192,78147,1,0,0:0:0:0:
320,192,78315,1,10,0:0:0:0:
448,192,78315,1,0,0:0:0:0:
192,192,78484,1,0,0:0:0:0:
64,192,78652,1,0,0:0:0:0:
320,192,78652,1,2,0:0:0:0:
192,192,78821,1,0,0:0:0:0:
320,192,78990,1,10,0:0:0:0:
448,192,78990,1,0,0:0:0:0:
192,192,79158,1,0,0:0:0:0:
64,192,79327,128,0,79664:0:0:0:0:
448,192,79327,128,6,79664:0:0:0:0:
64,192,80001,1,0,0:0:0:0:
320,192,80001,1,2,0:0:0:0:
192,192,80169,1,0,0:0:0:0:
448,192,80169,1,2,0:0:0:0:
64,192,80338,1,0,0:0:0:0:
192,192,80338,1,0,0:0:0:0:
320,192,80338,1,10,0:0:0:0:
448,192,80675,1,0,0:0:0:0:
320,192,80675,1,2,0:0:0:0:
64,192,80843,1,0,0:0:0:0:
192,192,80843,1,2,0:0:0:0:
192,192,81012,1,0,0:0:0:0:
320,192,81012,1,10,0:0:0:0:
448,192,81012,1,0,0:0:0:0:
64,192,81181,1,2,0:0:0:0:
448,192,81181,1,0,0:0:0:0:
64,192,81349,1,0,0:0:0:0:
192,192,81349,1,14,0:0:0:0:
320,192,81349,1,0,0:0:0:0:
448,192,81518,1,2,0:0:0:0:
320,192,81686,1,10,0:0:0:0:
64,192,81686,1,0,0:0:0:0:
192,192,81855,1,2,0:0:0:0:
320,192,82023,1,10,0:0:0:0:
448,192,82023,1,0,0:0:0:0:
64,192,82192,1,2,0:0:0:0:
192,192,82360,1,0,0:0:0:0:
320,192,82360,1,10,0:0:0:0:
64,192,82529,1,0,0:0:0:0:
192,192,82529,1,0,0:0:0:0:
448,192,82529,1,6,0:0:0:0:
320,192,82866,128,0,83034:0:0:0:30:LR_CymbalCCR.wav
448,192,82866,128,0,83034:0:0:0:0:
192,192,83034,1,0,0:0:0:0:
64,192,83034,1,0,0:0:0:0:
192,192,83203,128,0,83372:0:0:0:0:
64,192,83203,128,0,83372:0:0:0:0:
320,192,83372,1,0,0:0:0:0:
448,192,83372,1,0,0:0:0:0:
320,192,83540,128,0,83709:0:0:0:0:
64,192,83540,128,0,83709:0:0:0:0:
192,192,83709,1,0,0:0:0:0:
448,192,83709,1,0,0:0:0:0:
448,192,83877,128,0,84214:0:0:0:0:
192,192,83877,128,0,84214:0:0:0:30:LR_CymbalCCR.wav
320,192,84214,1,2,0:0:0:0:
64,192,84214,1,0,0:0:0:0:
64,192,84383,1,0,0:0:0:0:
192,192,84383,1,10,0:0:0:0:
320,192,84551,1,2,0:0:0:0:
448,192,84551,1,0,0:0:0:0:
64,192,84888,128,0,85394:0:0:0:0:
448,192,84888,128,2,85394:0:0:0:0:
320,192,85057,128,2,85394:0:0:0:0:
192,192,85394,1,0,0:0:0:0:
64,192,85563,1,0,0:0:0:0:
192,192,85647,1,0,0:0:0:0:
448,192,85731,1,0,0:0:0:0:
64,192,85900,1,0,0:0:0:0:
448,192,86068,128,0,86237:0:0:0:0:
320,192,86237,1,0,0:0:0:0:
192,192,86405,128,0,86574:0:0:0:0:
64,192,86574,1,0,0:0:0:0:
320,192,86742,1,0,0:0:0:0:
64,192,86911,1,0,0:0:0:0:
192,192,86995,1,0,0:0:0:0:
448,192,87079,1,0,0:0:0:0:
64,192,87248,1,0,0:0:0:0:
448,192,87416,128,0,87585:0:0:0:0:
320,192,87585,1,0,0:0:0:0:
192,192,87754,1,0,0:0:0:0:
64,192,87922,1,0,0:0:0:0:
320,192,88091,1,0,0:0:0:0:
192,192,88259,1,0,0:0:0:0:
320,192,88343,1,0,0:0:0:0:
448,192,88428,1,0,0:0:0:0:
64,192,88596,1,0,0:0:0:0:
192,192,88681,1,0,0:0:0:0:
448,192,88765,128,0,88933:0:0:0:0:
320,192,88933,1,0,0:0:0:0:
192,192,89102,1,0,0:0:0:0:
320,192,89270,1,0,0:0:0:0:
448,192,89439,128,0,89607:0:0:0:0:
320,192,89607,1,0,0:0:0:0:
64,192,89692,1,0,0:0:0:0:
192,192,89776,128,0,89945:0:0:0:0:
448,192,89945,1,0,0:0:0:0:
320,192,90113,1,0,0:0:0:0:
64,192,90282,1,0,0:0:0:0:
192,192,90450,1,0,0:0:0:0:
320,192,90619,1,0,0:0:0:0:
448,192,90787,128,0,92978:0:0:0:0:
64,192,90787,1,0,0:0:0:0:
64,192,90956,1,0,0:0:0:0:
64,192,91124,1,0,0:0:0:0:
64,192,91461,1,0,0:0:0:0:
64,192,91630,1,0,0:0:0:0:
64,192,91798,1,0,0:0:0:0:
64,192,92136,1,0,0:0:0:0:
192,192,92248,1,0,0:0:0:0:
320,192,92360,1,0,0:0:0:0:
64,192,92473,1,0,0:0:0:0:
320,192,92641,1,0,0:0:0:0:
192,192,92810,1,0,0:0:0:0:
64,192,93063,128,0,93484:0:0:0:0:
192,192,93105,128,0,93484:0:0:0:0:
320,192,93147,128,0,93484:0:0:0:0:
448,192,93147,128,0,93484:0:0:0:0:
