osu file format v14

[General]
AudioFilename: audio.mp3
AudioLeadIn: 0
PreviewTime: -1
Countdown: 0
SampleSet: Soft
StackLeniency: 0.7
Mode: 3
LetterboxInBreaks: 0
SpecialStyle: 0
WidescreenStoryboard: 0

[Editor]
DistanceSpacing: 1.5
BeatDivisor: 8
GridSize: 8
TimelineZoom: 2.8

[Metadata]
Title:Koi no Hime Hime Pettanko
TitleUnicode:恋のヒメヒメぺったんこ
Artist:*namirin
ArtistUnicode:*なみりん
Creator:Alsty-
Version:LoveNotes From Princess
Source:弱虫ペダル
Tags:Evening meme yowamushi pedal featured artist
BeatmapID:1291299
BeatmapSetID:611778

[Difficulty]
HPDrainRate:8.2
CircleSize:4
OverallDifficulty:0
ApproachRate:5
SliderMultiplier:1.4
SliderTickRate:1

[Events]
//Background and Video events
0,0,"cherry_blossoms_kantoku_artist_Wallpaper HD_2560x1440_www.paperhi.com.jpg",0,0
//Break Periods
//Storyboard Layer 0 (Background)
//Storyboard Layer 1 (Fail)
//Storyboard Layer 2 (Pass)
//Storyboard Layer 3 (Foreground)
//Storyboard Layer 4 (Overlay)
//Storyboard Sound Samples

[TimingPoints]
1799,337.078651685393,4,2,0,21,1,0

[HitObjects]
64,192,1799,128,0,1883:0:0:0:0:
320,192,1799,1,0,0:0:0:0:
448,192,1799,128,0,1883:0:0:0:0:
192,192,1967,128,0,2051:0:0:0:0:
320,192,2051,128,0,2136:0:0:0:0:
448,192,2136,128,0,2220:0:0:0:0:
64,192,2136,1,0,0:0:0:0:
192,192,2304,128,0,2641:0:0:0:0:
320,192,2473,128,0,2641:0:0:0:0:
448,192,2473,1,0,0:0:0:0:
64,192,2473,1,0,0:0:0:0:
448,192,2641,128,0,2978:0:0:0:0:
64,192,2810,128,0,2978:0:0:0:0:
192,192,2810,1,0,0:0:0:0:
320,192,2810,1,0,0:0:0:0:
320,192,2978,128,0,3147:0:0:0:0:
64,192,3147,128,0,3231:0:0:0:0:
192,192,3147,128,0,3231:0:0:0:0:
448,192,3315,128,0,3400:0:0:0:0:
64,192,3400,128,0,3484:0:0:0:0:
192,192,3484,128,0,3568:0:0:0:0:
320,192,3484,1,0,0:0:0:0:
448,192,3652,128,0,3990:0:0:0:0:
192,192,3821,1,0,0:0:0:0:
64,192,3821,128,0,3990:0:0:0:0:
320,192,3821,1,0,0:0:0:0:
192,192,3990,128,0,4327:0:0:0:0:
320,192,4158,128,0,4327:0:0:0:0:
448,192,4158,1,0,0:0:0:0:
64,192,4158,1,0,0:0:0:0:
64,192,4327,128,0,4411:0:0:0:0:
448,192,4327,1,0,0:0:0:0:
320,192,4495,128,0,4579:0:0:0:0:
192,192,4495,1,0,0:0:0:0:
448,192,4664,1,0,0:0:0:0:
64,192,4664,128,0,4832:0:0:0:0:
192,192,4748,128,0,4916:0:0:0:0:
320,192,4832,128,0,4916:0:0:0:0:
448,192,4832,1,0,0:0:0:0:
448,192,5001,128,0,5169:0:0:0:0:
320,192,5085,128,0,5254:0:0:0:0:
64,192,5169,1,0,0:0:0:0:
192,192,5169,128,0,5338:0:0:0:0:
448,192,5338,128,0,5506:0:0:0:0:
320,192,5338,1,0,0:0:0:0:
320,192,5506,1,0,0:0:0:0:
192,192,5506,1,0,0:0:0:0:
64,192,5506,128,0,5591:0:0:0:0:
192,192,5675,128,0,5759:0:0:0:0:
320,192,5675,1,0,0:0:0:0:
64,192,5843,1,0,0:0:0:0:
448,192,5843,128,0,6181:0:0:0:0:
320,192,6012,128,0,6181:0:0:0:0:
192,192,6012,1,0,0:0:0:0:
192,192,6181,128,0,6265:0:0:0:0:
64,192,6181,1,0,0:0:0:0:
320,192,6349,1,0,0:0:0:0:
448,192,6349,128,0,6433:0:0:0:0:
192,192,6518,1,0,0:0:0:0:
64,192,6518,128,0,6602:0:0:0:0:
64,192,6770,128,0,7136:0:0:0:0:
192,192,6798,128,0,7136:0:0:0:0:
320,192,6827,128,0,7136:0:0:0:0:
448,192,6855,128,0,7136:0:0:0:0:
192,192,7192,1,0,0:0:0:0:
320,192,7192,1,0,0:0:0:0:
448,192,7192,1,0,0:0:0:0:
64,192,7192,128,0,7360:0:0:0:0:
448,192,7276,128,0,7445:0:0:0:0:
320,192,7360,128,0,7529:0:0:0:0:
192,192,7445,128,0,7613:0:0:0:0:
64,192,7529,128,0,7697:0:0:0:0:
448,192,7529,128,0,7697:0:0:0:0:
320,192,7613,128,0,7782:0:0:0:0:
192,192,7697,128,0,7866:0:0:0:0:
64,192,7782,128,0,7950:0:0:0:0:
320,192,7866,128,0,8034:0:0:0:0:
448,192,7950,128,0,8119:0:0:0:0:
192,192,8034,128,0,8203:0:0:0:0:
64,192,8119,128,0,8287:0:0:0:0:
320,192,8119,128,0,8456:0:0:0:0:
448,192,8203,128,0,8456:0:0:0:0:
192,192,8287,128,0,8456:0:0:0:0:
64,192,8372,128,0,8456:0:0:0:0:
64,192,8540,1,0,0:0:0:0:
192,192,8540,1,0,0:0:0:0:
320,192,8540,1,0,0:0:0:0:
448,192,8540,128,0,8709:0:0:0:0:
320,192,8624,128,0,8793:0:0:0:0:
192,192,8709,128,0,8877:0:0:0:0:
64,192,8793,128,0,8961:0:0:0:0:
448,192,8793,128,0,8961:0:0:0:0:
320,192,8877,128,0,9046:0:0:0:0:
192,192,8961,128,0,9130:0:0:0:0:
64,192,9046,128,0,9214:0:0:0:0:
320,192,9130,128,0,9298:0:0:0:0:
448,192,9214,128,0,9383:0:0:0:0:
64,192,9298,128,0,9467:0:0:0:0:
192,192,9383,128,0,9551:0:0:0:0:
320,192,9467,128,0,9636:0:0:0:0:
448,192,9551,128,0,9804:0:0:0:0:
64,192,9551,128,0,9804:0:0:0:0:
192,192,9636,128,0,9804:0:0:0:0:
320,192,9720,128,0,9804:0:0:0:0:
64,192,9888,1,0,0:0:0:0:
448,192,9888,1,0,0:0:0:0:
320,192,9888,1,0,0:0:0:0:
192,192,9888,128,0,10057:0:0:0:0:
448,192,9973,128,0,10141:0:0:0:0:
320,192,10057,128,0,10225:0:0:0:0:
64,192,10141,128,0,10310:0:0:0:0:
192,192,10225,128,0,10394:0:0:0:0:
448,192,10225,128,0,10394:0:0:0:0:
320,192,10310,128,0,10478:0:0:0:0:
64,192,10394,128,0,10563:0:0:0:0:
448,192,10478,128,0,10647:0:0:0:0:
192,192,10563,128,0,10731:0:0:0:0:
320,192,10647,128,0,10984:0:0:0:0:
64,192,10731,128,0,10900:0:0:0:0:
192,192,10815,128,0,11152:0:0:0:0:
448,192,10900,128,0,11152:0:0:0:0:
64,192,10984,128,0,11152:0:0:0:0:
320,192,11068,128,0,11152:0:0:0:0:
64,192,11237,1,0,0:0:0:0:
448,192,11237,1,0,0:0:0:0:
320,192,11237,1,0,0:0:0:0:
192,192,11237,128,0,11405:0:0:0:0:
448,192,11321,128,0,11490:0:0:0:0:
320,192,11405,128,0,11574:0:0:0:0:
64,192,11490,128,0,11658:0:0:0:0:
192,192,11574,128,0,11742:0:0:0:0:
320,192,11658,128,0,11827:0:0:0:0:
448,192,11742,128,0,11911:0:0:0:0:
64,192,11827,128,0,11995:0:0:0:0:
320,192,11911,128,0,12248:0:0:0:0:
192,192,11995,128,0,12164:0:0:0:0:
448,192,12079,128,0,12248:0:0:0:0:
64,192,12079,128,0,12164:0:0:0:0:
192,192,12248,1,0,0:0:0:0:
64,192,12248,1,0,0:0:0:0:
320,192,12332,1,0,0:0:0:0:
448,192,12332,1,0,0:0:0:0:
192,192,12416,1,0,0:0:0:0:
64,192,12416,1,0,0:0:0:0:
320,192,12501,1,0,0:0:0:0:
448,192,12501,1,0,0:0:0:0:
64,192,12585,1,0,0:0:0:0:
448,192,12585,128,0,12922:0:0:0:0:
192,192,12585,1,0,0:0:0:0:
192,192,12754,128,0,13091:0:0:0:0:
64,192,12922,128,0,13428:0:0:0:0:
320,192,12922,1,0,0:0:0:0:
448,192,13091,1,0,0:0:0:0:
320,192,13259,128,0,13596:0:0:0:0:
448,192,13259,1,0,0:0:0:0:
192,192,13259,1,0,0:0:0:0:
192,192,13428,1,0,0:0:0:0:
64,192,13596,128,0,13765:0:0:0:0:
448,192,13596,128,0,13765:0:0:0:0:
192,192,13596,1,0,0:0:0:0:
192,192,13765,128,0,13933:0:0:0:0:
320,192,13765,1,0,0:0:0:0:
320,192,13933,128,0,14102:0:0:0:0:
448,192,13933,128,0,14102:0:0:0:0:
64,192,13933,1,0,0:0:0:0:
192,192,14102,1,0,0:0:0:0:
64,192,14102,128,0,14186:0:0:0:0:
448,192,14270,1,0,0:0:0:0:
192,192,14270,128,0,14355:0:0:0:0:
320,192,14439,128,0,14523:0:0:0:0:
64,192,14439,1,0,0:0:0:0:
192,192,14607,1,0,0:0:0:0:
448,192,14607,128,0,14692:0:0:0:0:
64,192,14776,1,0,0:0:0:0:
320,192,14776,128,0,14860:0:0:0:0:
192,192,14945,128,0,15029:0:0:0:0:
448,192,14945,1,0,0:0:0:0:
64,192,15113,128,0,15197:0:0:0:0:
320,192,15113,1,0,0:0:0:0:
320,192,15282,1,0,0:0:0:0:
64,192,15282,1,0,0:0:0:0:
448,192,15282,128,0,15619:0:0:0:0:
192,192,15282,1,0,0:0:0:0:
192,192,15450,128,0,15787:0:0:0:0:
64,192,15619,128,0,16124:0:0:0:0:
320,192,15619,1,0,0:0:0:0:
448,192,15787,1,0,0:0:0:0:
320,192,15956,128,0,16293:0:0:0:0:
448,192,15956,1,0,0:0:0:0:
192,192,15956,1,0,0:0:0:0:
192,192,16124,1,0,0:0:0:0:
64,192,16293,128,0,16461:0:0:0:0:
448,192,16293,128,0,16461:0:0:0:0:
192,192,16293,1,0,0:0:0:0:
192,192,16461,128,0,16630:0:0:0:0:
320,192,16461,1,0,0:0:0:0:
320,192,16630,128,0,17388:0:0:0:0:
64,192,16630,1,0,0:0:0:0:
448,192,16630,128,0,17388:0:0:0:0:
64,192,16967,128,0,17388:0:0:0:0:
192,192,17136,128,0,17388:0:0:0:0:
448,192,17473,128,0,17557:0:0:0:0:
64,192,17473,128,0,17557:0:0:0:0:
64,192,17641,128,0,17725:0:0:0:0:
448,192,17641,128,0,17725:0:0:0:0:
192,192,17641,128,0,17894:0:0:0:0:
320,192,17641,128,0,17894:0:0:0:0:
192,192,17978,1,0,0:0:0:0:
320,192,17978,1,0,0:0:0:0:
448,192,17978,1,0,0:0:0:0:
64,192,17978,128,0,18315:0:0:0:0:
320,192,18147,128,0,18231:0:0:0:0:
192,192,18315,1,0,0:0:0:0:
320,192,18315,1,0,0:0:0:0:
448,192,18315,128,0,18568:0:0:0:0:
64,192,18484,1,0,0:0:0:0:
320,192,18484,128,0,18737:0:0:0:0:
448,192,18652,1,0,0:0:0:0:
192,192,18652,128,0,18905:0:0:0:0:
64,192,18821,128,0,18905:0:0:0:0:
320,192,18821,1,0,0:0:0:0:
192,192,18990,1,0,0:0:0:0:
320,192,18990,1,0,0:0:0:0:
448,192,18990,128,0,19242:0:0:0:0:
64,192,18990,1,0,0:0:0:0:
64,192,19158,128,0,19242:0:0:0:0:
64,192,19327,128,0,19495:0:0:0:0:
448,192,19327,128,0,19495:0:0:0:0:
320,192,19327,1,0,0:0:0:0:
192,192,19495,1,0,0:0:0:0:
320,192,19664,1,0,0:0:0:0:
448,192,19664,128,0,19832:0:0:0:0:
320,192,19832,1,0,0:0:0:0:
192,192,19832,1,0,0:0:0:0:
64,192,19832,128,0,20254:0:0:0:0:
192,192,20169,1,0,0:0:0:0:
320,192,20169,128,0,20338:0:0:0:0:
192,192,20338,1,0,0:0:0:0:
64,192,20338,1,0,0:0:0:0:
448,192,20338,128,0,20422:0:0:0:0:
320,192,20506,128,0,20591:0:0:0:0:
64,192,20506,1,0,0:0:0:0:
192,192,20675,128,0,20759:0:0:0:0:
448,192,20675,1,0,0:0:0:0:
64,192,20843,128,0,20928:0:0:0:0:
320,192,20843,1,0,0:0:0:0:
320,192,21012,1,0,0:0:0:0:
448,192,21012,1,0,0:0:0:0:
192,192,21012,128,0,21265:0:0:0:0:
64,192,21181,1,0,0:0:0:0:
320,192,21181,128,0,21433:0:0:0:0:
192,192,21349,1,0,0:0:0:0:
448,192,21349,128,0,21518:0:0:0:0:
64,192,21518,128,0,21602:0:0:0:0:
320,192,21518,1,0,0:0:0:0:
192,192,21686,1,0,0:0:0:0:
320,192,21686,1,0,0:0:0:0:
448,192,21686,128,0,21939:0:0:0:0:
64,192,21855,128,0,21939:0:0:0:0:
64,192,22023,1,0,0:0:0:0:
448,192,22023,1,0,0:0:0:0:
192,192,22023,128,0,22192:0:0:0:0:
320,192,22192,1,0,0:0:0:0:
192,192,22360,1,0,0:0:0:0:
64,192,22360,1,0,0:0:0:0:
448,192,22360,128,0,22866:0:0:0:0:
320,192,22529,1,0,0:0:0:0:
192,192,22529,1,0,0:0:0:0:
64,192,22529,128,0,22866:0:0:0:0:
320,192,22866,1,0,0:0:0:0:
192,192,22866,128,0,22950:0:0:0:0:
64,192,23034,1,0,0:0:0:0:
320,192,23034,128,0,23119:0:0:0:0:
448,192,23034,1,0,0:0:0:0:
448,192,23203,128,0,23287:0:0:0:0:
192,192,23203,1,0,0:0:0:0:
320,192,23372,1,0,0:0:0:0:
64,192,23372,128,0,23456:0:0:0:0:
192,192,23540,128,0,23624:0:0:0:0:
448,192,23540,1,0,0:0:0:0:
64,192,23709,1,0,0:0:0:0:
448,192,23709,1,0,0:0:0:0:
320,192,23709,128,0,23961:0:0:0:0:
448,192,23877,1,0,0:0:0:0:
192,192,23877,128,0,24130:0:0:0:0:
320,192,24046,1,0,0:0:0:0:
64,192,24046,128,0,24214:0:0:0:0:
192,192,24214,1,0,0:0:0:0:
448,192,24214,128,0,24383:0:0:0:0:
192,192,24383,1,0,0:0:0:0:
64,192,24383,1,0,0:0:0:0:
320,192,24383,128,0,24636:0:0:0:0:
448,192,24551,128,0,24720:0:0:0:0:
320,192,24720,1,0,0:0:0:0:
192,192,24720,1,0,0:0:0:0:
64,192,24720,1,0,0:0:0:0:
64,192,25057,1,0,0:0:0:0:
320,192,25057,1,0,0:0:0:0:
448,192,25057,128,0,25141:0:0:0:0:
192,192,25225,1,0,0:0:0:0:
64,192,25225,128,0,25563:0:0:0:0:
448,192,25563,1,0,0:0:0:0:
320,192,25563,128,0,25815:0:0:0:0:
192,192,25731,128,0,25815:0:0:0:0:
64,192,25731,1,0,0:0:0:0:
64,192,25900,1,0,0:0:0:0:
320,192,25900,1,0,0:0:0:0:
192,192,25900,1,0,0:0:0:0:
448,192,25900,128,0,26237:0:0:0:0:
192,192,26237,128,0,26321:0:0:0:0:
64,192,26237,1,0,0:0:0:0:
320,192,26237,1,0,0:0:0:0:
64,192,26405,128,0,26490:0:0:0:0:
192,192,26405,1,0,0:0:0:0:
320,192,26405,1,0,0:0:0:0:
320,192,26574,128,0,26658:0:0:0:0:
192,192,26574,1,0,0:0:0:0:
64,192,26574,1,0,0:0:0:0:
192,192,26742,1,0,0:0:0:0:
64,192,26742,1,0,0:0:0:0:
320,192,26742,1,0,0:0:0:0:
448,192,26742,128,0,26827:0:0:0:0:
320,192,26911,1,0,0:0:0:0:
64,192,26911,1,0,0:0:0:0:
192,192,27079,1,0,0:0:0:0:
320,192,27079,1,0,0:0:0:0:
448,192,27079,1,0,0:0:0:0:
192,192,27248,1,0,0:0:0:0:
320,192,27248,1,0,0:0:0:0:
64,192,27248,128,0,27501:0:0:0:0:
448,192,27248,128,0,27501:0:0:0:0:
192,192,27585,1,0,0:0:0:0:
448,192,27585,1,0,0:0:0:0:
320,192,27585,128,0,27669:0:0:0:0:
320,192,27754,1,0,0:0:0:0:
192,192,27754,1,0,0:0:0:0:
448,192,27754,128,0,27838:0:0:0:0:
320,192,27922,1,0,0:0:0:0:
192,192,27922,128,0,28006:0:0:0:0:
448,192,27922,1,0,0:0:0:0:
448,192,28091,1,0,0:0:0:0:
320,192,28091,1,0,0:0:0:0:
192,192,28091,1,0,0:0:0:0:
64,192,28091,128,0,28175:0:0:0:0:
320,192,28259,1,0,0:0:0:0:
448,192,28301,1,0,0:0:0:0:
64,192,28343,128,0,28681:0:0:0:0:
192,192,28372,128,0,28681:0:0:0:0:
320,192,28400,128,0,28681:0:0:0:0:
448,192,28428,128,0,28681:0:0:0:0:
64,192,28765,1,0,0:0:0:0:
192,192,28765,1,0,0:0:0:0:
320,192,28765,1,0,0:0:0:0:
448,192,28765,128,0,29018:0:0:0:0:
192,192,28933,128,0,29102:0:0:0:0:
320,192,29102,1,0,0:0:0:0:
448,192,29102,1,0,0:0:0:0:
64,192,29102,128,0,29355:0:0:0:0:
448,192,29270,1,0,0:0:0:0:
192,192,29270,128,0,29523:0:0:0:0:
64,192,29439,1,0,0:0:0:0:
320,192,29439,128,0,29692:0:0:0:0:
192,192,29607,1,0,0:0:0:0:
448,192,29607,128,0,29692:0:0:0:0:
64,192,29776,1,0,0:0:0:0:
320,192,29776,1,0,0:0:0:0:
448,192,29776,128,0,30029:0:0:0:0:
192,192,29945,128,0,30113:0:0:0:0:
320,192,30113,1,0,0:0:0:0:
448,192,30113,1,0,0:0:0:0:
64,192,30113,128,0,30282:0:0:0:0:
192,192,30197,128,0,30366:0:0:0:0:
448,192,30282,128,0,30450:0:0:0:0:
320,192,30366,128,0,30450:0:0:0:0:
64,192,30450,128,0,30534:0:0:0:0:
192,192,30450,128,0,30534:0:0:0:0:
320,192,30534,128,0,30787:0:0:0:0:
192,192,30619,128,0,30787:0:0:0:0:
448,192,30619,128,0,30956:0:0:0:0:
64,192,30619,128,0,30787:0:0:0:0:
192,192,30956,1,0,0:0:0:0:
64,192,30956,128,0,31124:0:0:0:0:
320,192,31040,1,0,0:0:0:0:
192,192,31124,1,0,0:0:0:0:
448,192,31124,128,0,31293:0:0:0:0:
320,192,31293,1,0,0:0:0:0:
192,192,31377,1,0,0:0:0:0:
64,192,31461,1,0,0:0:0:0:
448,192,31461,128,0,31630:0:0:0:0:
192,192,31630,1,0,0:0:0:0:
64,192,31798,1,0,0:0:0:0:
448,192,31798,1,0,0:0:0:0:
320,192,31798,128,0,32051:0:0:0:0:
448,192,31967,1,0,0:0:0:0:
192,192,31967,128,0,32220:0:0:0:0:
320,192,32136,1,0,0:0:0:0:
64,192,32136,128,0,32388:0:0:0:0:
192,192,32304,1,0,0:0:0:0:
448,192,32304,128,0,32557:0:0:0:0:
320,192,32473,128,0,32557:0:0:0:0:
64,192,32473,1,0,0:0:0:0:
192,192,32473,1,0,0:0:0:0:
192,192,32641,1,0,0:0:0:0:
64,192,32641,128,0,32810:0:0:0:0:
192,192,32810,1,0,0:0:0:0:
448,192,32810,1,0,0:0:0:0:
320,192,32810,128,0,32978:0:0:0:0:
64,192,32894,128,0,33063:0:0:0:0:
192,192,32978,128,0,33063:0:0:0:0:
448,192,33063,128,0,33147:0:0:0:0:
320,192,33147,1,0,0:0:0:0:
192,192,33147,1,0,0:0:0:0:
64,192,33147,1,0,0:0:0:0:
64,192,33315,1,0,0:0:0:0:
192,192,33315,1,0,0:0:0:0:
448,192,33315,1,0,0:0:0:0:
320,192,33315,128,0,33737:0:0:0:0:
64,192,33652,1,0,0:0:0:0:
192,192,33652,128,0,33821:0:0:0:0:
64,192,33821,1,0,0:0:0:0:
320,192,33821,1,0,0:0:0:0:
448,192,33821,128,0,34158:0:0:0:0:
192,192,33990,128,0,34158:0:0:0:0:
320,192,34158,1,0,0:0:0:0:
64,192,34158,128,0,34327:0:0:0:0:
448,192,34327,1,0,0:0:0:0:
192,192,34495,1,0,0:0:0:0:
320,192,34495,1,0,0:0:0:0:
448,192,34495,128,0,34748:0:0:0:0:
64,192,34664,1,0,0:0:0:0:
320,192,34664,128,0,34916:0:0:0:0:
448,192,34832,1,0,0:0:0:0:
192,192,34832,128,0,35085:0:0:0:0:
320,192,35001,1,0,0:0:0:0:
64,192,35001,128,0,35085:0:0:0:0:
192,192,35169,1,0,0:0:0:0:
64,192,35169,1,0,0:0:0:0:
448,192,35169,128,0,35422:0:0:0:0:
320,192,35338,128,0,35506:0:0:0:0:
64,192,35506,1,0,0:0:0:0:
448,192,35506,1,0,0:0:0:0:
192,192,35506,128,0,35675:0:0:0:0:
192,192,35843,1,0,0:0:0:0:
320,192,35843,1,0,0:0:0:0:
64,192,36012,1,0,0:0:0:0:
448,192,36012,1,0,0:0:0:0:
320,192,36012,128,0,36349:0:0:0:0:
192,192,36349,1,0,0:0:0:0:
64,192,36349,128,0,36602:0:0:0:0:
192,192,36518,1,0,0:0:0:0:
320,192,36518,1,0,0:0:0:0:
448,192,36518,128,0,36686:0:0:0:0:
64,192,36686,1,0,0:0:0:0:
320,192,36686,128,0,36770:0:0:0:0:
192,192,36855,128,0,36939:0:0:0:0:
448,192,36855,1,0,0:0:0:0:
320,192,37023,128,0,37107:0:0:0:0:
64,192,37023,1,0,0:0:0:0:
192,192,37192,1,0,0:0:0:0:
64,192,37192,1,0,0:0:0:0:
448,192,37192,128,0,37529:0:0:0:0:
192,192,37529,1,0,0:0:0:0:
64,192,37529,128,0,37613:0:0:0:0:
320,192,37697,1,0,0:0:0:0:
448,192,37697,128,0,37782:0:0:0:0:
192,192,37866,1,0,0:0:0:0:
64,192,37866,128,0,37950:0:0:0:0:
320,192,37866,1,0,0:0:0:0:
64,192,38034,1,0,0:0:0:0:
192,192,38034,1,0,0:0:0:0:
320,192,38034,1,0,0:0:0:0:
448,192,38034,1,0,0:0:0:0:
320,192,38372,1,0,0:0:0:0:
64,192,38372,128,0,38456:0:0:0:0:
448,192,38372,1,0,0:0:0:0:
192,192,38540,128,0,38624:0:0:0:0:
448,192,38540,1,0,0:0:0:0:
64,192,38540,1,0,0:0:0:0:
320,192,38709,128,0,38793:0:0:0:0:
192,192,38709,1,0,0:0:0:0:
64,192,38709,1,0,0:0:0:0:
64,192,38877,1,0,0:0:0:0:
320,192,38877,1,0,0:0:0:0:
448,192,38877,128,0,39046:0:0:0:0:
192,192,38961,128,0,39130:0:0:0:0:
320,192,39046,128,0,39214:0:0:0:0:
64,192,39130,128,0,39298:0:0:0:0:
448,192,39214,128,0,39383:0:0:0:0:
320,192,39298,128,0,39467:0:0:0:0:
192,192,39383,128,0,39467:0:0:0:0:
64,192,39467,128,0,39551:0:0:0:0:
192,192,39551,1,0,0:0:0:0:
320,192,39551,1,0,0:0:0:0:
448,192,39551,1,0,0:0:0:0:
448,192,39720,1,0,0:0:0:0:
64,192,39888,128,0,40225:0:0:0:0:
192,192,40057,1,0,0:0:0:0:
192,192,40225,1,0,0:0:0:0:
320,192,40225,1,0,0:0:0:0:
448,192,40225,128,0,40563:0:0:0:0:
192,192,40563,128,0,40900:0:0:0:0:
64,192,40563,1,0,0:0:0:0:
320,192,40563,1,0,0:0:0:0:
64,192,40731,1,0,0:0:0:0:
320,192,40900,128,0,41237:0:0:0:0:
448,192,41068,1,0,0:0:0:0:
64,192,41237,128,0,41574:0:0:0:0:
320,192,41405,1,0,0:0:0:0:
192,192,41574,128,0,41911:0:0:0:0:
448,192,41574,1,0,0:0:0:0:
320,192,41911,128,0,42248:0:0:0:0:
64,192,41911,1,0,0:0:0:0:
448,192,41911,1,0,0:0:0:0:
448,192,42248,128,0,42332:0:0:0:0:
192,192,42248,1,0,0:0:0:0:
320,192,42416,128,0,42501:0:0:0:0:
64,192,42416,1,0,0:0:0:0:
192,192,42585,128,0,42669:0:0:0:0:
448,192,42585,1,0,0:0:0:0:
64,192,42754,128,0,43259:0:0:0:0:
320,192,42754,1,0,0:0:0:0:
320,192,42922,1,0,0:0:0:0:
192,192,43259,1,0,0:0:0:0:
320,192,43259,1,0,0:0:0:0:
448,192,43259,128,0,43428:0:0:0:0:
192,192,43428,1,0,0:0:0:0:
64,192,43428,1,0,0:0:0:0:
320,192,43596,128,0,43765:0:0:0:0:
192,192,43765,128,0,43933:0:0:0:0:
64,192,43765,1,0,0:0:0:0:
448,192,43933,128,0,44102:0:0:0:0:
320,192,44102,1,0,0:0:0:0:
64,192,44102,128,0,44776:0:0:0:0:
192,192,44270,1,0,0:0:0:0:
448,192,44270,1,0,0:0:0:0:
192,192,44439,1,0,0:0:0:0:
320,192,44439,1,0,0:0:0:0:
448,192,44439,1,0,0:0:0:0:
192,192,44607,1,0,0:0:0:0:
320,192,44607,1,0,0:0:0:0:
448,192,44607,1,0,0:0:0:0:
448,192,44776,128,0,44945:0:0:0:0:
320,192,44945,1,0,0:0:0:0:
192,192,44945,1,0,0:0:0:0:
64,192,44945,1,0,0:0:0:0:
448,192,45282,128,0,45619:0:0:0:0:
320,192,45282,1,0,0:0:0:0:
192,192,45450,1,0,0:0:0:0:
192,192,45619,1,0,0:0:0:0:
64,192,45619,128,0,45956:0:0:0:0:
320,192,45787,1,0,0:0:0:0:
320,192,45956,128,0,46293:0:0:0:0:
448,192,45956,1,0,0:0:0:0:
192,192,45956,1,0,0:0:0:0:
64,192,46124,1,0,0:0:0:0:
192,192,46293,128,0,46630:0:0:0:0:
448,192,46293,1,0,0:0:0:0:
320,192,46461,1,0,0:0:0:0:
64,192,46630,128,0,46967:0:0:0:0:
448,192,46630,1,0,0:0:0:0:
320,192,46798,1,0,0:0:0:0:
448,192,46967,128,0,47304:0:0:0:0:
192,192,46967,1,0,0:0:0:0:
192,192,47136,1,0,0:0:0:0:
192,192,47304,128,0,47641:0:0:0:0:
64,192,47304,1,0,0:0:0:0:
320,192,47304,1,0,0:0:0:0:
448,192,47473,1,0,0:0:0:0:
320,192,47641,128,0,47978:0:0:0:0:
448,192,47641,1,0,0:0:0:0:
64,192,47641,1,0,0:0:0:0:
192,192,47978,1,0,0:0:0:0:
448,192,47978,1,0,0:0:0:0:
64,192,47978,128,0,48231:0:0:0:0:
320,192,48147,128,0,48315:0:0:0:0:
448,192,48315,128,0,48400:0:0:0:0:
192,192,48315,128,0,48400:0:0:0:0:
64,192,48315,128,0,48400:0:0:0:0:
64,192,48484,128,0,48652:0:0:0:0:
192,192,48484,128,0,48652:0:0:0:0:
448,192,48484,128,0,48652:0:0:0:0:
320,192,48652,1,0,0:0:0:0:
64,192,48821,1,0,0:0:0:0:
192,192,48821,1,0,0:0:0:0:
448,192,48821,1,0,0:0:0:0:
320,192,48821,128,0,49242:0:0:0:0:
192,192,49158,128,0,49327:0:0:0:0:
64,192,49158,1,0,0:0:0:0:
64,192,49327,1,0,0:0:0:0:
320,192,49327,1,0,0:0:0:0:
448,192,49327,128,0,49579:0:0:0:0:
192,192,49495,1,0,0:0:0:0:
320,192,49495,128,0,49664:0:0:0:0:
192,192,49664,1,0,0:0:0:0:
64,192,49664,1,0,0:0:0:0:
448,192,49664,1,0,0:0:0:0:
320,192,49832,1,0,0:0:0:0:
192,192,49916,1,0,0:0:0:0:
64,192,50001,1,0,0:0:0:0:
320,192,50001,1,0,0:0:0:0:
448,192,50001,128,0,50254:0:0:0:0:
192,192,50169,128,0,50338:0:0:0:0:
64,192,50338,1,0,0:0:0:0:
448,192,50338,1,0,0:0:0:0:
320,192,50338,128,0,50591:0:0:0:0:
192,192,50506,128,0,50675:0:0:0:0:
64,192,50675,1,0,0:0:0:0:
320,192,50675,1,0,0:0:0:0:
448,192,50675,128,0,50928:0:0:0:0:
64,192,50843,128,0,51012:0:0:0:0:
192,192,51012,1,0,0:0:0:0:
448,192,51012,1,0,0:0:0:0:
320,192,51012,128,0,51265:0:0:0:0:
192,192,51181,128,0,51349:0:0:0:0:
64,192,51181,1,0,0:0:0:0:
64,192,51349,1,0,0:0:0:0:
320,192,51349,1,0,0:0:0:0:
448,192,51349,128,0,51602:0:0:0:0:
64,192,51518,128,0,51686:0:0:0:0:
192,192,51686,1,0,0:0:0:0:
448,192,51686,1,0,0:0:0:0:
320,192,51686,128,0,51855:0:0:0:0:
192,192,51855,1,0,0:0:0:0:
64,192,51855,1,0,0:0:0:0:
64,192,52023,1,0,0:0:0:0:
320,192,52023,1,0,0:0:0:0:
448,192,52023,1,0,0:0:0:0:
64,192,52192,1,0,0:0:0:0:
192,192,52192,1,0,0:0:0:0:
320,192,52192,1,0,0:0:0:0:
448,192,52192,128,0,52360:0:0:0:0:
192,192,52529,1,0,0:0:0:0:
320,192,52529,1,0,0:0:0:0:
448,192,52697,1,0,0:0:0:0:
192,192,52697,1,0,0:0:0:0:
64,192,52697,128,0,52782:0:0:0:0:
320,192,52866,128,0,52950:0:0:0:0:
192,192,52866,1,0,0:0:0:0:
448,192,52950,1,0,0:0:0:0:
320,192,53034,1,0,0:0:0:0:
192,192,53034,1,0,0:0:0:0:
64,192,53034,128,0,53287:0:0:0:0:
448,192,53203,128,0,53372:0:0:0:0:
320,192,53372,1,0,0:0:0:0:
64,192,53372,1,0,0:0:0:0:
192,192,53372,128,0,53624:0:0:0:0:
320,192,53540,128,0,53709:0:0:0:0:
192,192,53709,1,0,0:0:0:0:
64,192,53709,1,0,0:0:0:0:
448,192,53709,128,0,53877:0:0:0:0:
64,192,53877,128,0,54046:0:0:0:0:
320,192,53877,1,0,0:0:0:0:
192,192,54046,1,0,0:0:0:0:
320,192,54046,1,0,0:0:0:0:
448,192,54046,128,0,54214:0:0:0:0:
64,192,54383,1,0,0:0:0:0:
192,192,54383,1,0,0:0:0:0:
448,192,54383,1,0,0:0:0:0:
320,192,54383,128,0,54636:0:0:0:0:
192,192,54551,128,0,54720:0:0:0:0:
64,192,54551,1,0,0:0:0:0:
64,192,54720,1,0,0:0:0:0:
320,192,54720,1,0,0:0:0:0:
448,192,54720,1,0,0:0:0:0:
320,192,54888,1,0,0:0:0:0:
448,192,54888,1,0,0:0:0:0:
192,192,54888,128,0,55310:0:0:0:0:
320,192,55225,1,0,0:0:0:0:
64,192,55225,128,0,55394:0:0:0:0:
192,192,55394,1,0,0:0:0:0:
320,192,55394,1,0,0:0:0:0:
448,192,55394,1,0,0:0:0:0:
64,192,55563,1,0,0:0:0:0:
192,192,55563,1,0,0:0:0:0:
320,192,55563,1,0,0:0:0:0:
448,192,55563,128,0,55900:0:0:0:0:
192,192,55900,128,0,56068:0:0:0:0:
64,192,55900,128,0,55984:0:0:0:0:
320,192,55984,128,0,56152:0:0:0:0:
448,192,56068,128,0,56237:0:0:0:0:
64,192,56068,128,0,56237:0:0:0:0:
192,192,56152,128,0,56321:0:0:0:0:
320,192,56237,128,0,56405:0:0:0:0:
64,192,56321,128,0,56405:0:0:0:0:
192,192,56405,128,0,56658:0:0:0:0:
448,192,56405,128,0,56658:0:0:0:0:
320,192,56574,128,0,56658:0:0:0:0:
64,192,56574,128,0,56658:0:0:0:0:
64,192,56742,1,0,0:0:0:0:
192,192,56742,1,0,0:0:0:0:
320,192,56742,1,0,0:0:0:0:
448,192,56742,1,0,0:0:0:0:
448,192,56911,128,0,57248:0:0:0:0:
64,192,56911,128,0,57079:0:0:0:0:
320,192,57079,1,0,0:0:0:0:
192,192,57248,128,0,57501:0:0:0:0:
64,192,57416,1,0,0:0:0:0:
320,192,57416,1,0,0:0:0:0:
448,192,57416,128,0,57585:0:0:0:0:
192,192,57585,1,0,0:0:0:0:
64,192,57585,128,0,57838:0:0:0:0:
192,192,57754,1,0,0:0:0:0:
320,192,57754,1,0,0:0:0:0:
448,192,57754,128,0,57922:0:0:0:0:
64,192,57922,1,0,0:0:0:0:
320,192,57922,128,0,58175:0:0:0:0:
192,192,58091,1,0,0:0:0:0:
448,192,58091,128,0,58175:0:0:0:0:
64,192,58091,128,0,58175:0:0:0:0:
64,192,58259,1,0,0:0:0:0:
192,192,58259,1,0,0:0:0:0:
448,192,58259,128,0,58596:0:0:0:0:
320,192,58259,128,0,58596:0:0:0:0:
192,192,58596,128,0,58765:0:0:0:0:
64,192,58596,128,0,58681:0:0:0:0:
320,192,58681,128,0,58849:0:0:0:0:
448,192,58765,128,0,58933:0:0:0:0:
64,192,58765,128,0,58933:0:0:0:0:
192,192,58849,128,0,59018:0:0:0:0:
320,192,58933,128,0,59102:0:0:0:0:
64,192,59018,128,0,59102:0:0:0:0:
192,192,59102,128,0,59355:0:0:0:0:
448,192,59102,128,0,59355:0:0:0:0:
320,192,59270,128,0,59355:0:0:0:0:
64,192,59270,128,0,59355:0:0:0:0:
64,192,59439,1,0,0:0:0:0:
448,192,59439,1,0,0:0:0:0:
64,192,59607,1,0,0:0:0:0:
192,192,59607,1,0,0:0:0:0:
320,192,59607,1,0,0:0:0:0:
448,192,59607,1,0,0:0:0:0:
64,192,59945,128,0,60029:0:0:0:0:
192,192,59945,128,0,60029:0:0:0:0:
320,192,59945,128,0,60029:0:0:0:0:
448,192,59945,128,0,60029:0:0:0:0:
64,192,60113,1,0,0:0:0:0:
192,192,60113,1,0,0:0:0:0:
320,192,60113,1,0,0:0:0:0:
448,192,60113,1,0,0:0:0:0:
192,192,60450,128,0,60872:0:0:0:0:
320,192,60450,128,0,60872:0:0:0:0:
448,192,60787,128,0,61040:0:0:0:0:
64,192,60787,128,0,61040:0:0:0:0:
192,192,60956,128,0,61040:0:0:0:0:
320,192,60956,128,0,61040:0:0:0:0:
192,192,61124,1,0,0:0:0:0:
448,192,61124,128,0,61377:0:0:0:0:
64,192,61124,128,0,61377:0:0:0:0:
320,192,61124,128,0,61293:0:0:0:0:
192,192,61293,128,0,61377:0:0:0:0:
320,192,61377,128,0,61546:0:0:0:0:
448,192,61461,128,0,61630:0:0:0:0:
64,192,61461,128,0,61883:0:0:0:0:
192,192,61461,128,0,61714:0:0:0:0:
320,192,61630,128,0,61714:0:0:0:0:
448,192,61714,128,0,61798:0:0:0:0:
192,192,61798,128,0,61967:0:0:0:0:
320,192,61798,128,0,62051:0:0:0:0:
448,192,61883,128,0,62051:0:0:0:0:
64,192,61967,128,0,62051:0:0:0:0:
192,192,62051,128,0,62136:0:0:0:0:
320,192,62136,128,0,62220:0:0:0:0:
64,192,62136,128,0,62388:0:0:0:0:
448,192,62136,128,0,62388:0:0:0:0:
192,192,62220,128,0,62388:0:0:0:0:
320,192,62304,128,0,62557:0:0:0:0:
448,192,62473,128,0,62725:0:0:0:0:
192,192,62473,128,0,62557:0:0:0:0:
64,192,62473,128,0,62725:0:0:0:0:
192,192,62641,128,0,62810:0:0:0:0:
320,192,62641,128,0,62725:0:0:0:0:
320,192,62810,128,0,62978:0:0:0:0:
64,192,62810,128,0,62894:0:0:0:0:
448,192,62810,128,0,63063:0:0:0:0:
192,192,62894,128,0,63063:0:0:0:0:
64,192,62978,128,0,63063:0:0:0:0:
320,192,63063,128,0,63147:0:0:0:0:
448,192,63147,128,0,63231:0:0:0:0:
64,192,63147,128,0,63400:0:0:0:0:
192,192,63147,128,0,63315:0:0:0:0:
320,192,63231,128,0,63400:0:0:0:0:
448,192,63315,128,0,63400:0:0:0:0:
192,192,63400,128,0,63484:0:0:0:0:
320,192,63484,128,0,63568:0:0:0:0:
64,192,63484,128,0,63568:0:0:0:0:
448,192,63484,128,0,63737:0:0:0:0:
192,192,63568,128,0,63737:0:0:0:0:
64,192,63652,128,0,63821:0:0:0:0:
320,192,63652,128,0,63737:0:0:0:0:
448,192,63821,128,0,64074:0:0:0:0:
320,192,63821,128,0,63990:0:0:0:0:
192,192,63821,128,0,63905:0:0:0:0:
64,192,63905,128,0,64074:0:0:0:0:
192,192,63990,128,0,64074:0:0:0:0:
320,192,64074,128,0,64158:0:0:0:0:
192,192,64158,128,0,64327:0:0:0:0:
64,192,64158,128,0,64411:0:0:0:0:
448,192,64158,128,0,64242:0:0:0:0:
320,192,64242,128,0,64411:0:0:0:0:
448,192,64327,128,0,64411:0:0:0:0:
192,192,64411,128,0,64495:0:0:0:0:
64,192,64495,128,0,64579:0:0:0:0:
448,192,64495,128,0,64664:0:0:0:0:
320,192,64495,128,0,64748:0:0:0:0:
192,192,64579,128,0,64748:0:0:0:0:
64,192,64664,128,0,64748:0:0:0:0:
448,192,64748,128,0,64916:0:0:0:0:
320,192,64832,128,0,64916:0:0:0:0:
192,192,64832,128,0,64916:0:0:0:0:
64,192,64832,128,0,64916:0:0:0:0:
64,192,65001,128,0,65043:0:0:0:0:
320,192,65022,128,0,65064:0:0:0:0:
192,192,65043,128,0,65085:0:0:0:0:
448,192,65064,128,0,65106:0:0:0:0:
320,192,65169,128,0,65211:0:0:0:0:
192,192,65190,128,0,65232:0:0:0:0:
448,192,65211,128,0,65254:0:0:0:0:
64,192,65232,128,0,65275:0:0:0:0:
64,192,65338,128,0,65380:0:0:0:0:
320,192,65359,128,0,65401:0:0:0:0:
192,192,65380,128,0,65422:0:0:0:0:
448,192,65401,128,0,65443:0:0:0:0:
320,192,65506,128,0,65548:0:0:0:0:
192,192,65527,128,0,65570:0:0:0:0:
448,192,65548,128,0,65591:0:0:0:0:
64,192,65570,128,0,65612:0:0:0:0:
64,192,65675,128,0,65717:0:0:0:0:
320,192,65696,128,0,65738:0:0:0:0:
192,192,65717,128,0,65759:0:0:0:0:
448,192,65738,128,0,65780:0:0:0:0:
320,192,65843,128,0,66012:0:0:0:0:
192,192,65865,128,0,66012:0:0:0:0:
448,192,65886,128,0,66012:0:0:0:0:
64,192,65907,128,0,66012:0:0:0:0:
448,192,66181,128,0,66223:0:0:0:0:
320,192,66223,128,0,66265:0:0:0:0:
192,192,66265,128,0,66307:0:0:0:0:
64,192,66307,128,0,66433:0:0:0:0:
448,192,66349,128,0,66433:0:0:0:0:
320,192,66433,1,0,0:0:0:0:
192,192,66433,1,0,0:0:0:0:
64,192,66518,1,0,0:0:0:0:
192,192,66518,1,0,0:0:0:0:
320,192,66518,1,0,0:0:0:0:
448,192,66518,128,0,66770:0:0:0:0:
192,192,66686,1,0,0:0:0:0:
64,192,66686,128,0,66939:0:0:0:0:
320,192,66770,1,0,0:0:0:0:
320,192,66855,1,0,0:0:0:0:
448,192,66855,1,0,0:0:0:0:
192,192,66855,128,0,67023:0:0:0:0:
448,192,67023,128,0,67192:0:0:0:0:
64,192,67023,1,0,0:0:0:0:
192,192,67107,1,0,0:0:0:0:
64,192,67192,1,0,0:0:0:0:
320,192,67192,128,0,67276:0:0:0:0:
192,192,67360,1,0,0:0:0:0:
64,192,67360,1,0,0:0:0:0:
448,192,67360,128,0,67445:0:0:0:0:
320,192,67529,128,0,67613:0:0:0:0:
192,192,67529,1,0,0:0:0:0:
64,192,67529,1,0,0:0:0:0:
64,192,67697,1,0,0:0:0:0:
448,192,67697,1,0,0:0:0:0:
192,192,67697,128,0,67866:0:0:0:0:
320,192,67866,1,0,0:0:0:0:
448,192,67866,1,0,0:0:0:0:
64,192,67866,1,0,0:0:0:0:
64,192,68034,128,0,68119:0:0:0:0:
320,192,68034,1,0,0:0:0:0:
448,192,68034,1,0,0:0:0:0:
192,192,68203,128,0,68287:0:0:0:0:
448,192,68203,1,0,0:0:0:0:
64,192,68203,1,0,0:0:0:0:
320,192,68372,128,0,68456:0:0:0:0:
64,192,68372,1,0,0:0:0:0:
192,192,68372,1,0,0:0:0:0:
320,192,68540,1,0,0:0:0:0:
192,192,68540,1,0,0:0:0:0:
448,192,68540,128,0,68793:0:0:0:0:
64,192,68709,128,0,68877:0:0:0:0:
192,192,68877,1,0,0:0:0:0:
448,192,68877,1,0,0:0:0:0:
320,192,68877,128,0,69130:0:0:0:0:
192,192,69046,128,0,69214:0:0:0:0:
64,192,69214,1,0,0:0:0:0:
320,192,69214,1,0,0:0:0:0:
448,192,69214,128,0,69467:0:0:0:0:
192,192,69383,128,0,69551:0:0:0:0:
448,192,69551,1,0,0:0:0:0:
320,192,69551,1,0,0:0:0:0:
64,192,69551,128,0,69804:0:0:0:0:
320,192,69720,128,0,69888:0:0:0:0:
64,192,69888,1,0,0:0:0:0:
448,192,69888,1,0,0:0:0:0:
192,192,69888,128,0,70141:0:0:0:0:
448,192,70057,128,0,70225:0:0:0:0:
320,192,70225,1,0,0:0:0:0:
192,192,70225,1,0,0:0:0:0:
64,192,70225,1,0,0:0:0:0:
64,192,70394,1,0,0:0:0:0:
192,192,70394,1,0,0:0:0:0:
320,192,70394,1,0,0:0:0:0:
448,192,70394,1,0,0:0:0:0:
192,192,70731,1,0,0:0:0:0:
320,192,70731,1,0,0:0:0:0:
64,192,70900,1,0,0:0:0:0:
448,192,70900,128,0,70984:0:0:0:0:
320,192,70942,128,0,71026:0:0:0:0:
192,192,70984,128,0,71068:0:0:0:0:
64,192,71026,128,0,71110:0:0:0:0:
448,192,71026,128,0,71110:0:0:0:0:
320,192,71068,128,0,71152:0:0:0:0:
192,192,71110,128,0,71195:0:0:0:0:
64,192,71152,128,0,71237:0:0:0:0:
448,192,71152,128,0,71237:0:0:0:0:
320,192,71195,128,0,71279:0:0:0:0:
192,192,71237,128,0,71321:0:0:0:0:
64,192,71279,128,0,71363:0:0:0:0:
448,192,71321,128,0,71363:0:0:0:0:
192,192,71405,1,0,0:0:0:0:
320,192,71405,1,0,0:0:0:0:
448,192,71405,1,0,0:0:0:0:
64,192,71405,1,0,0:0:0:0:
448,192,71574,128,0,71827:0:0:0:0:
192,192,71574,128,0,71658:0:0:0:0:
320,192,71574,128,0,71658:0:0:0:0:
64,192,71574,128,0,71827:0:0:0:0:
192,192,71742,128,0,71827:0:0:0:0:
320,192,71742,128,0,71827:0:0:0:0:
320,192,71911,1,0,0:0:0:0:
64,192,71911,128,0,72164:0:0:0:0:
448,192,71911,128,0,72164:0:0:0:0:
192,192,71911,128,0,72079:0:0:0:0:
320,192,72079,128,0,72164:0:0:0:0:
192,192,72164,128,0,72332:0:0:0:0:
64,192,72248,128,0,72416:0:0:0:0:
448,192,72248,128,0,72669:0:0:0:0:
320,192,72248,128,0,72501:0:0:0:0:
192,192,72416,128,0,72501:0:0:0:0:
64,192,72501,128,0,72585:0:0:0:0:
320,192,72585,128,0,72754:0:0:0:0:
192,192,72585,128,0,72838:0:0:0:0:
64,192,72669,128,0,72838:0:0:0:0:
448,192,72754,128,0,72838:0:0:0:0:
320,192,72838,128,0,72922:0:0:0:0:
192,192,72922,128,0,73006:0:0:0:0:
448,192,72922,128,0,73175:0:0:0:0:
64,192,72922,128,0,73175:0:0:0:0:
320,192,73006,128,0,73175:0:0:0:0:
192,192,73091,128,0,73343:0:0:0:0:
64,192,73259,128,0,73512:0:0:0:0:
320,192,73259,128,0,73343:0:0:0:0:
448,192,73259,128,0,73512:0:0:0:0:
320,192,73428,128,0,73596:0:0:0:0:
192,192,73428,128,0,73512:0:0:0:0:
192,192,73596,128,0,73765:0:0:0:0:
448,192,73596,128,0,73681:0:0:0:0:
64,192,73596,128,0,73849:0:0:0:0:
320,192,73681,128,0,73849:0:0:0:0:
448,192,73765,128,0,73849:0:0:0:0:
192,192,73849,128,0,73933:0:0:0:0:
64,192,73933,128,0,74018:0:0:0:0:
448,192,73933,128,0,74186:0:0:0:0:
320,192,73933,128,0,74102:0:0:0:0:
192,192,74018,128,0,74186:0:0:0:0:
64,192,74102,128,0,74186:0:0:0:0:
320,192,74186,128,0,74270:0:0:0:0:
192,192,74270,128,0,74355:0:0:0:0:
448,192,74270,128,0,74355:0:0:0:0:
64,192,74270,128,0,74523:0:0:0:0:
320,192,74355,128,0,74523:0:0:0:0:
448,192,74439,128,0,74607:0:0:0:0:
192,192,74439,128,0,74523:0:0:0:0:
64,192,74607,128,0,74860:0:0:0:0:
192,192,74607,128,0,74776:0:0:0:0:
320,192,74607,128,0,74692:0:0:0:0:
448,192,74692,128,0,74860:0:0:0:0:
320,192,74776,128,0,74860:0:0:0:0:
192,192,74860,128,0,74945:0:0:0:0:
320,192,74945,128,0,75113:0:0:0:0:
448,192,74945,128,0,75197:0:0:0:0:
64,192,74945,128,0,75029:0:0:0:0:
192,192,75029,128,0,75197:0:0:0:0:
64,192,75113,128,0,75197:0:0:0:0:
320,192,75197,128,0,75282:0:0:0:0:
448,192,75282,128,0,75366:0:0:0:0:
64,192,75282,128,0,75450:0:0:0:0:
192,192,75282,128,0,75534:0:0:0:0:
320,192,75366,128,0,75534:0:0:0:0:
448,192,75450,128,0,75534:0:0:0:0:
64,192,75534,128,0,75703:0:0:0:0:
192,192,75619,128,0,75703:0:0:0:0:
320,192,75619,128,0,75703:0:0:0:0:
448,192,75619,128,0,75703:0:0:0:0:
448,192,75787,128,0,75829:0:0:0:0:
192,192,75808,128,0,75850:0:0:0:0:
320,192,75829,128,0,75872:0:0:0:0:
64,192,75850,128,0,75893:0:0:0:0:
192,192,75956,128,0,75998:0:0:0:0:
320,192,75977,128,0,76019:0:0:0:0:
64,192,75998,128,0,76040:0:0:0:0:
448,192,76019,128,0,76061:0:0:0:0:
448,192,76124,128,0,76166:0:0:0:0:
192,192,76145,128,0,76188:0:0:0:0:
320,192,76166,128,0,76209:0:0:0:0:
64,192,76188,128,0,76230:0:0:0:0:
192,192,76293,128,0,76335:0:0:0:0:
320,192,76314,128,0,76356:0:0:0:0:
64,192,76335,128,0,76377:0:0:0:0:
448,192,76356,128,0,76398:0:0:0:0:
448,192,76461,128,0,76504:0:0:0:0:
192,192,76482,128,0,76525:0:0:0:0:
320,192,76504,128,0,76546:0:0:0:0:
64,192,76525,128,0,76567:0:0:0:0:
192,192,76630,128,0,76883:0:0:0:0:
320,192,76651,128,0,76883:0:0:0:0:
64,192,76672,128,0,76883:0:0:0:0:
448,192,76693,128,0,76883:0:0:0:0:
64,192,76967,1,0,0:0:0:0:
448,192,76967,1,0,0:0:0:0:
320,192,76967,128,0,77220:0:0:0:0:
192,192,76967,128,0,77220:0:0:0:0:
64,192,77136,128,0,77220:0:0:0:0:
448,192,77136,128,0,77220:0:0:0:0:
64,192,77304,1,0,0:0:0:0:
192,192,77304,1,0,0:0:0:0:
320,192,77304,1,0,0:0:0:0:
448,192,77304,128,0,77557:0:0:0:0:
192,192,77473,1,0,0:0:0:0:
64,192,77473,128,0,77725:0:0:0:0:
320,192,77557,1,0,0:0:0:0:
320,192,77641,1,0,0:0:0:0:
448,192,77641,1,0,0:0:0:0:
192,192,77641,128,0,77810:0:0:0:0:
448,192,77810,128,0,77978:0:0:0:0:
64,192,77810,1,0,0:0:0:0:
192,192,77894,1,0,0:0:0:0:
64,192,77978,1,0,0:0:0:0:
320,192,77978,128,0,78063:0:0:0:0:
192,192,78147,1,0,0:0:0:0:
64,192,78147,1,0,0:0:0:0:
448,192,78147,128,0,78231:0:0:0:0:
320,192,78315,128,0,78400:0:0:0:0:
192,192,78315,1,0,0:0:0:0:
64,192,78315,1,0,0:0:0:0:
64,192,78484,1,0,0:0:0:0:
448,192,78484,1,0,0:0:0:0:
192,192,78484,128,0,78652:0:0:0:0:
320,192,78652,1,0,0:0:0:0:
448,192,78652,1,0,0:0:0:0:
64,192,78652,1,0,0:0:0:0:
64,192,78821,128,0,78905:0:0:0:0:
320,192,78821,1,0,0:0:0:0:
448,192,78821,1,0,0:0:0:0:
192,192,78990,128,0,79074:0:0:0:0:
448,192,78990,1,0,0:0:0:0:
64,192,78990,1,0,0:0:0:0:
320,192,79158,128,0,79242:0:0:0:0:
64,192,79158,1,0,0:0:0:0:
192,192,79158,1,0,0:0:0:0:
448,192,79242,1,0,0:0:0:0:
448,192,79327,128,0,79411:0:0:0:0:
320,192,79327,128,0,79495:0:0:0:0:
192,192,79327,128,0,79579:0:0:0:0:
64,192,79327,128,0,79664:0:0:0:0:
448,192,79495,128,0,79916:0:0:0:0:
320,192,79579,128,0,79916:0:0:0:0:
192,192,79664,128,0,79916:0:0:0:0:
64,192,79748,128,0,79916:0:0:0:0:
64,192,80001,128,0,80085:0:0:0:0:
192,192,80001,128,0,80085:0:0:0:0:
320,192,80001,128,0,80085:0:0:0:0:
192,192,80169,128,0,80254:0:0:0:0:
320,192,80169,128,0,80254:0:0:0:0:
448,192,80169,128,0,80254:0:0:0:0:
64,192,80338,128,0,80422:0:0:0:0:
192,192,80338,128,0,80422:0:0:0:0:
448,192,80338,128,0,80422:0:0:0:0:
320,192,80338,128,0,80675:0:0:0:0:
448,192,80675,128,0,80759:0:0:0:0:
192,192,80675,128,0,80759:0:0:0:0:
64,192,80675,128,0,80759:0:0:0:0:
320,192,80843,128,0,80928:0:0:0:0:
448,192,80843,128,0,80928:0:0:0:0:
64,192,80843,128,0,80928:0:0:0:0:
192,192,81012,128,0,81096:0:0:0:0:
448,192,81012,128,0,81265:0:0:0:0:
320,192,81012,128,0,81096:0:0:0:0:
192,192,81181,128,0,81265:0:0:0:0:
64,192,81181,128,0,81265:0:0:0:0:
320,192,81181,128,0,81265:0:0:0:0:
192,192,81349,1,0,0:0:0:0:
320,192,81349,1,0,0:0:0:0:
64,192,81349,128,0,81602:0:0:0:0:
448,192,81349,128,0,81602:0:0:0:0:
320,192,81518,128,0,81602:0:0:0:0:
192,192,81518,128,0,81602:0:0:0:0:
192,192,81686,1,0,0:0:0:0:
320,192,81686,1,0,0:0:0:0:
448,192,81686,1,0,0:0:0:0:
64,192,81686,128,0,81770:0:0:0:0:
320,192,81855,1,0,0:0:0:0:
448,192,81855,1,0,0:0:0:0:
192,192,81855,128,0,81939:0:0:0:0:
64,192,81939,1,0,0:0:0:0:
64,192,82023,1,0,0:0:0:0:
448,192,82023,1,0,0:0:0:0:
320,192,82023,128,0,82445:0:0:0:0:
192,192,82192,128,0,82445:0:0:0:0:
448,192,82360,1,0,0:0:0:0:
64,192,82360,128,0,82445:0:0:0:0:
192,192,82529,1,0,0:0:0:0:
320,192,82529,1,0,0:0:0:0:
448,192,82529,1,0,0:0:0:0:
64,192,82529,128,0,82782:0:0:0:0:
192,192,82613,128,0,82782:0:0:0:0:
320,192,82697,128,0,82950:0:0:0:0:
448,192,82782,128,0,82950:0:0:0:0:
192,192,82866,128,0,83119:0:0:0:0:
64,192,82866,128,0,83119:0:0:0:0:
320,192,83034,128,0,83287:0:0:0:0:
448,192,83034,128,0,83287:0:0:0:0:
192,192,83203,128,0,83456:0:0:0:0:
64,192,83203,128,0,83456:0:0:0:0:
320,192,83372,128,0,83624:0:0:0:0:
448,192,83372,128,0,83624:0:0:0:0:
192,192,83540,128,0,83793:0:0:0:0:
64,192,83540,128,0,83793:0:0:0:0:
448,192,83709,128,0,83793:0:0:0:0:
320,192,83709,128,0,83793:0:0:0:0:
192,192,83877,1,0,0:0:0:0:
320,192,83877,1,0,0:0:0:0:
448,192,83877,128,0,84130:0:0:0:0:
64,192,83877,128,0,84130:0:0:0:0:
320,192,84046,128,0,84298:0:0:0:0:
192,192,84046,128,0,84298:0:0:0:0:
64,192,84214,128,0,84298:0:0:0:0:
448,192,84214,128,0,84298:0:0:0:0:
192,192,84383,128,0,84467:0:0:0:0:
320,192,84383,128,0,84467:0:0:0:0:
64,192,84383,128,0,84551:0:0:0:0:
448,192,84383,1,0,0:0:0:0:
448,192,84467,128,0,84551:0:0:0:0:
320,192,84551,128,0,84636:0:0:0:0:
192,192,84551,128,0,84636:0:0:0:0:
64,192,84636,128,0,84720:0:0:0:0:
448,192,84636,128,0,84720:0:0:0:0:
192,192,84720,128,0,84804:0:0:0:0:
320,192,84720,128,0,84804:0:0:0:0:
64,192,84888,128,0,84973:0:0:0:0:
192,192,84888,128,0,84973:0:0:0:0:
320,192,84888,128,0,84973:0:0:0:0:
448,192,84888,128,0,84973:0:0:0:0:
192,192,85057,1,0,0:0:0:0:
320,192,85057,1,0,0:0:0:0:
64,192,85057,128,0,85310:0:0:0:0:
448,192,85057,128,0,85310:0:0:0:0:
192,192,85394,1,0,0:0:0:0:
192,192,85563,1,0,0:0:0:0:
64,192,85563,1,0,0:0:0:0:
320,192,85647,1,0,0:0:0:0:
448,192,85731,1,0,0:0:0:0:
64,192,85731,1,0,0:0:0:0:
192,192,85900,1,0,0:0:0:0:
320,192,85900,1,0,0:0:0:0:
64,192,86068,1,0,0:0:0:0:
448,192,86068,1,0,0:0:0:0:
448,192,86237,1,0,0:0:0:0:
320,192,86237,1,0,0:0:0:0:
320,192,86405,1,0,0:0:0:0:
64,192,86405,1,0,0:0:0:0:
192,192,86574,1,0,0:0:0:0:
64,192,86574,1,0,0:0:0:0:
320,192,86742,1,0,0:0:0:0:
192,192,86742,1,0,0:0:0:0:
448,192,86911,1,0,0:0:0:0:
64,192,86911,1,0,0:0:0:0:
192,192,86995,1,0,0:0:0:0:
320,192,87079,1,0,0:0:0:0:
448,192,87079,1,0,0:0:0:0:
320,192,87248,1,0,0:0:0:0:
64,192,87248,1,0,0:0:0:0:
64,192,87416,1,0,0:0:0:0:
448,192,87416,1,0,0:0:0:0:
320,192,87585,1,0,0:0:0:0:
448,192,87585,1,0,0:0:0:0:
64,192,87754,1,0,0:0:0:0:
192,192,87754,1,0,0:0:0:0:
64,192,87922,1,0,0:0:0:0:
320,192,87922,1,0,0:0:0:0:
192,192,88091,1,0,0:0:0:0:
448,192,88091,1,0,0:0:0:0:
64,192,88259,1,0,0:0:0:0:
320,192,88259,1,0,0:0:0:0:
192,192,88343,1,0,0:0:0:0:
448,192,88428,1,0,0:0:0:0:
64,192,88428,1,0,0:0:0:0:
192,192,88596,1,0,0:0:0:0:
448,192,88596,1,0,0:0:0:0:
320,192,88681,1,0,0:0:0:0:
448,192,88765,1,0,0:0:0:0:
64,192,88765,1,0,0:0:0:0:
64,192,88933,1,0,0:0:0:0:
448,192,88933,1,0,0:0:0:0:
192,192,89102,1,0,0:0:0:0:
320,192,89102,1,0,0:0:0:0:
192,192,89270,1,0,0:0:0:0:
64,192,89270,1,0,0:0:0:0:
192,192,89439,1,0,0:0:0:0:
320,192,89439,1,0,0:0:0:0:
320,192,89607,1,0,0:0:0:0:
448,192,89607,1,0,0:0:0:0:
192,192,89692,1,0,0:0:0:0:
64,192,89776,1,0,0:0:0:0:
448,192,89776,1,0,0:0:0:0:
192,192,89945,1,0,0:0:0:0:
64,192,89945,1,0,0:0:0:0:
64,192,90113,1,0,0:0:0:0:
448,192,90113,1,0,0:0:0:0:
320,192,90282,1,0,0:0:0:0:
192,192,90282,1,0,0:0:0:0:
448,192,90450,1,0,0:0:0:0:
320,192,90450,1,0,0:0:0:0:
192,192,90619,1,0,0:0:0:0:
64,192,90619,1,0,0:0:0:0:
448,192,90787,128,0,92894:0:0:0:0:
320,192,90787,1,0,0:0:0:0:
64,192,90787,128,0,90872:0:0:0:0:
192,192,90956,1,0,0:0:0:0:
64,192,90956,128,0,91040:0:0:0:0:
192,192,91124,1,0,0:0:0:0:
64,192,91124,128,0,91209:0:0:0:0:
192,192,91293,1,0,0:0:0:0:
64,192,91461,1,0,0:0:0:0:
320,192,91461,128,0,91546:0:0:0:0:
320,192,91630,128,0,91714:0:0:0:0:
64,192,91630,1,0,0:0:0:0:
320,192,91798,128,0,91883:0:0:0:0:
192,192,91798,1,0,0:0:0:0:
192,192,91967,1,0,0:0:0:0:
64,192,92136,1,0,0:0:0:0:
320,192,92136,1,0,0:0:0:0:
64,192,92248,1,0,0:0:0:0:
320,192,92248,1,0,0:0:0:0:
64,192,92360,1,0,0:0:0:0:
320,192,92360,1,0,0:0:0:0:
64,192,92473,1,0,0:0:0:0:
320,192,92473,1,0,0:0:0:0:
64,192,92641,1,0,0:0:0:0:
320,192,92641,1,0,0:0:0:0:
320,192,92810,128,0,92894:0:0:0:0:
64,192,92810,128,0,92894:0:0:0:0:
64,192,93147,128,0,93484:0:0:0:0:
192,192,93203,128,0,93484:0:0:0:0:
320,192,93259,128,0,93484:0:0:0:0:
448,192,93315,128,0,93484:0:0:0:0:
