osu file format v14

[General]
AudioFilename: audio.mp3
AudioLeadIn: 0
PreviewTime: 60366
Countdown: 0
SampleSet: Soft
StackLeniency: 0.7
Mode: 0
LetterboxInBreaks: 0
WidescreenStoryboard: 0

[Editor]
Bookmarks: 1799,7192,12585,17978,28765,39551,50338,61124,71911,85394,93484
DistanceSpacing: 1.5
BeatDivisor: 4
GridSize: 8
TimelineZoom: 2.4

[Metadata]
Title:Koi no Hime Hime Pettanko
TitleUnicode:恋のヒメヒメぺったんこ
Artist:*namirin
ArtistUnicode:*なみりん
Creator:[C u r i]
Version:Taeyang's Ultra Princess
Source:弱虫ペダル
Tags:Yowamushi Pedal HabiHolic Kalibe Taeyang
BeatmapID:1053520
BeatmapSetID:485056

[Difficulty]
HPDrainRate:7
CircleSize:3.5
OverallDifficulty:9
ApproachRate:9.2
SliderMultiplier:1.85
SliderTickRate:1

[Events]
//Background and Video events
0,0,"cherry_blossoms_kantoku_artist_Wallpaper HD_2560x1440_www.paperhi.com.jpg",0,0
//Break Periods
//Storyboard Layer 0 (Background)
//Storyboard Layer 1 (Fail)
//Storyboard Layer 2 (Pass)
//Storyboard Layer 3 (Foreground)
//Storyboard Sound Samples

[TimingPoints]
1799,337.078651685393,4,2,1,30,1,0
1799,-133.333333333333,4,2,1,30,0,0
6770,-133.333333333333,4,2,1,30,0,0
6855,-111.111111111111,4,2,1,30,0,0
7107,-133.333333333333,4,2,1,30,0,0
7192,-100,4,2,2,60,0,0
16630,-133.333333333333,4,2,2,60,0,0
17388,-133.333333333333,4,2,2,5,0,0
17473,-133.333333333333,4,2,2,60,0,0
17978,-100,4,2,2,60,0,0
28428,-133.333333333333,4,2,2,60,0,0
28681,-133.333333333333,4,2,2,5,0,0
28765,-100,4,2,2,60,0,0
54888,-90.9090909090909,4,2,2,60,0,0
56911,-100,4,2,2,60,0,0
58259,-133.333333333333,4,2,2,60,0,0
60703,-133.333333333333,4,2,2,5,0,0
60787,-133.333333333333,4,2,2,60,0,0
61124,-83.3333333333333,4,2,2,100,0,1
69130,-83.3333333333333,4,2,2,5,0,1
69214,-83.3333333333333,4,2,2,100,0,1
69804,-83.3333333333333,4,2,2,5,0,1
69888,-83.3333333333333,4,2,2,100,0,1
71827,-83.3333333333333,4,2,2,100,0,0
71911,-83.3333333333333,4,2,2,100,0,1
79664,-83.3333333333333,4,2,2,100,0,0
80001,-83.3333333333333,4,2,2,100,0,1
82529,-83.3333333333333,4,2,2,100,0,0
82866,-83.3333333333333,4,2,2,100,0,1
85394,-133.333333333333,4,2,1,30,0,0
93063,-133.333333333333,4,2,1,5,0,0
93147,-100,4,2,1,30,0,0
93484,-100,4,2,1,5,0,0

[Colours]
Combo1 : 249,245,138
Combo2 : 251,132,140
Combo3 : 39,241,146
Combo4 : 154,130,253

[HitObjects]
139,42,1799,5,2,0:0:0:0:
222,122,1967,2,0,L|216:156,1,34.6875013232232,0|0,0:0|0:0,0:0:0:0:
158,210,2136,2,0,L|166:278,1,69.3750026464463,2|0,0:0|0:0,0:0:0:0:
303,144,2473,2,0,P|336:128|380:133,1,69.3750026464463,2|0,0:0|0:0,0:0:0:0:
303,144,2810,2,0,L|294:212,1,69.3750026464463,10|0,0:0|0:0,0:0:0:0:
272,371,3147,5,2,0:0:0:0:
421,339,3315,2,0,L|426:304,1,34.6875013232232,0|0,0:0|0:0,0:0:0:0:
466,235,3484,2,0,P|434:221|400:226,1,69.3750026464463,2|0,0:0|0:0,0:0:0:0:
179,290,3821,2,0,L|170:221,1,69.3750026464463,2|0,0:0|0:0,0:0:0:0:
178,289,4158,2,0,P|209:302|243:297,1,69.3750026464463,10|0,0:0|0:0,0:0:0:0:
160,137,4495,5,2,0:0:0:0:
259,217,4664,2,0,L|293:212,2,34.6875013232232,0|0|2,0:0|0:0|0:0,0:0:0:0:
82,246,5001,1,0,0:0:0:0:
82,246,5085,1,0,0:0:0:0:
82,246,5169,2,0,L|73:177,1,69.3750026464463,2|0,0:0|0:0,0:0:0:0:
168,68,5506,2,0,L|159:137,1,69.3750026464463,10|0,0:0|0:0,0:0:0:0:
115,323,5843,6,0,P|82:333|48:325,1,69.3750026464463,2|0,0:0|0:0,0:0:0:0:
192,215,6181,2,0,P|225:207|258:217,1,69.3750026464463,10|0,0:0|0:0,0:0:0:0:
404,279,6518,2,0,B|445:301|445:301|389:311,1,104.06250396967,2|0,0:0|0:0,0:0:0:0:
389,311,6855,6,0,P|364:256|387:195,1,124.874996189118,2|0,0:1|0:0,0:0:0:0:
450,150,7192,6,0,B|467:123|467:123|461:62,1,92.5,4|0,0:0|0:0,0:0:0:0:
163,28,7529,2,0,P|108:88|151:189,2,185,0|0|0,0:0|0:0|0:0,0:0:0:0:
375,111,8372,1,2,0:0:0:0:
193,111,8540,6,0,B|254:118|254:118|310:102|310:102|374:110,1,185,4|0,0:0|0:0,0:0:0:0:
136,178,9046,2,0,P|106:95|163:28,1,185,0|0,0:0|0:0,0:0:0:0:
322,191,9551,2,0,B|339:218|339:218|333:279,1,92.5,8|2,0:0|0:0,0:0:0:0:
146,367,9888,6,0,B|129:340|129:340|135:279,1,92.5,4|0,0:0|0:0,0:0:0:0:
416,311,10225,2,0,P|347:366|264:336,2,185,0|0|0,0:0|0:0|0:0,0:0:0:0:
406,145,11068,1,2,0:0:0:0:
333,278,11237,6,0,B|356:232|333:189|333:189|310:146|332:100,1,185,4|0,0:0|0:0,0:0:0:0:
416,311,11742,2,0,P|347:366|264:336,1,185,0|8,0:0|0:0,0:0:0:0:
152,229,12248,1,2,0:0:0:0:
139,225,12332,1,2,0:0:0:0:
128,226,12416,1,2,0:0:0:0:
116,228,12500,1,2,0:0:0:0:
105,231,12585,6,0,P|144:253|201:247,1,92.5,4|0,0:0|0:0,0:0:0:0:
406,145,12922,1,8,0:0:0:0:
333,278,13091,1,0,0:0:0:0:
481,181,13259,2,0,P|491:135|473:94,1,92.5,2|0,0:0|0:0,0:0:0:0:
330,44,13596,2,0,L|231:52,1,92.5,8|0,0:0|0:0,0:0:0:0:
105,231,13933,6,0,P|144:253|201:247,1,92.5,4|0,0:0|0:0,0:0:0:0:
76,95,14270,1,8,0:0:0:0:
47,290,14439,2,0,P|128:332|222:332,1,185,0|0,0:0|0:0,0:0:0:0:
406,145,14945,2,0,P|362:130|318:143,1,92.5,8|0,0:0|0:0,0:0:0:0:
190,251,15282,5,4,0:0:0:0:
416,311,15450,1,0,0:0:0:0:
253,95,15619,2,0,P|236:137|248:181,1,92.5,8|0,0:0|0:0,0:0:0:0:
482,106,15956,1,2,0:0:0:0:
482,106,16040,1,0,0:0:0:0:
482,106,16124,1,0,0:0:0:0:
416,311,16293,2,0,L|323:301,1,92.5,8|0,0:0|0:0,0:0:0:0:
80,304,16630,6,0,P|70:240|129:215,1,138.750005292893,4|0,0:0|0:0,0:0:0:0:
129,215,17136,2,0,P|164:250|153:299,1,104.06250396967,0|0,0:0|0:0,0:0:0:0:
115,265,17473,5,2,0:0:0:0:
431,217,17641,1,8,0:0:0:0:
356,180,17978,6,0,P|347:224|364:267,1,92.5,4|0,0:0|0:0,0:0:0:0:
445,122,18315,2,0,B|358:90|358:90|269:117,1,185,8|2,0:0|0:0,0:0:0:0:
75,183,18821,1,0,0:0:0:0:
119,21,18990,1,8,0:0:0:0:
119,21,19327,6,0,L|211:26,1,92.5,2|0,0:0|0:0,0:0:0:0:
63,103,19664,1,2,0:0:0:0:
247,114,19832,2,0,L|62:102,1,185,8|2,0:0|0:0,0:0:0:0:
17,280,20338,2,0,L|109:274,1,92.5,8|0,0:0|0:0,0:0:0:0:
270,265,20675,6,0,P|285:326|265:377,1,92.5,2|0,0:0|0:0,0:0:0:0:
189,210,21012,2,0,L|374:222,1,185,8|0,0:0|0:0,0:0:0:0:
442,357,21518,1,2,0:0:0:0:
506,155,21686,1,8,0:0:0:0:
506,155,22023,6,0,B|463:138|463:138|418:150,1,92.5,2|0,0:0|0:0,0:0:0:0:
189,210,22360,1,8,0:0:0:0:
346,281,22529,2,0,B|369:238|345:191|345:191|322:146|350:104,1,185,8|2,0:0|0:0,0:0:0:0:
273,236,23034,2,0,P|228:248|185:235,1,92.5,8|0,0:0|0:0,0:0:0:0:
117,63,23372,6,0,L|120:155,1,92.5,2|0,0:0|0:0,0:0:0:0:
129,324,23709,1,8,0:0:0:0:
185,235,23877,1,0,0:0:0:0:
22,192,24046,1,0,0:0:0:0:
28,296,24214,1,2,0:0:0:0:
119,154,24383,2,0,B|145:135|145:135|204:140,1,92.5,8|0,0:0|0:0,0:0:0:0:
346,281,24720,6,0,P|425:318|496:265,1,185,2|8,0:0|0:0,0:0:0:0:
419,59,25225,2,0,B|387:147|387:147|418:233,1,185,10|2,0:0|0:0,0:0:0:0:
499,30,25731,1,8,0:0:0:0:
288,111,25900,6,0,B|215:132|153:108|153:108|174:97|199:102,1,185,4|2,0:0|0:0,0:0:0:0:
321,190,26405,1,2,0:0:0:0:
119,251,26574,1,2,0:0:0:0:
188,41,26742,1,8,0:0:0:0:
227,249,26911,1,2,0:0:0:0:
182,19,27079,1,8,0:0:0:0:
144,271,27248,6,0,P|206:332|290:306,1,185,4|2,0:0|0:0,0:0:0:0:
427,80,27754,1,2,0:0:0:0:
496,265,27922,1,2,0:0:0:0:
419,59,28091,1,8,0:0:0:0:
219,121,28259,1,8,3:2:0:0:
219,133,28343,1,8,3:2:0:0:
220,145,28428,6,0,L|227:265,1,104.06250396967,8|0,3:2|3:2,0:0:0:0:
231,327,28765,6,0,P|248:286|226:248,1,92.5,4|0,0:0|0:0,0:0:0:0:
61,192,29102,2,0,P|9:128|53:37,1,185,2|0,0:0|0:0,0:0:0:0:
263,7,29607,1,2,0:0:0:0:
182,113,29776,1,8,0:0:0:0:
182,113,30113,6,0,B|138:125|138:125|93:112,1,92.5,2|0,0:0|0:0,0:0:0:0:
263,7,30450,1,2,0:0:0:0:
417,65,30619,2,0,L|406:259,1,185,8|2,0:0|0:0,0:0:0:0:
330,91,31124,2,0,L|325:189,1,92.5,8|0,0:0|0:0,0:0:0:0:
196,314,31461,6,0,P|170:241|245:255,1,185,2|8,0:0|0:0,0:0:0:0:
135,381,31967,1,0,0:0:0:0:
161,154,32136,1,0,0:0:0:0:
161,154,32304,2,0,P|205:143|250:153,1,92.5,2|8,0:0|0:0,0:0:0:0:
406,249,32641,1,0,0:0:0:0:
330,91,32810,6,0,B|294:121|294:121|298:259,1,185,2|8,3:2|3:2,0:0:0:0:
407,125,33315,2,0,P|396:37|313:7,1,185,2|2,0:0|0:0,0:0:0:0:
141,70,33821,2,0,B|138:130|138:130|160:153,1,92.5,8|0,3:2|0:0,0:0:0:0:
300,282,34158,5,2,0:0:0:0:
300,282,34495,2,0,L|176:292,1,92.5,8|0,0:0|0:0,0:0:0:0:
337,193,34832,1,0,0:0:0:0:
260,370,35001,1,2,0:0:0:0:
283,132,35169,2,0,P|323:111|368:119,1,92.5,8|0,0:0|0:0,0:0:0:0:
453,348,35506,6,0,B|410:360|410:360|364:347,1,92.5,2|0,0:0|0:0,0:0:0:0:
179,280,35843,1,8,0:0:0:0:
391,201,36012,2,0,P|450:135|421:52,1,185,2|0,0:0|0:0,0:0:0:0:
195,30,36518,2,0,L|200:122,1,92.5,8|2,0:0|0:0,0:0:0:0:
214,364,36855,5,2,0:0:0:0:
300,282,37023,1,2,0:0:0:0:
101,249,37192,2,0,P|95:294|115:335,1,92.5,8|0,0:0|0:0,0:0:0:0:
325,368,37529,1,0,0:0:0:0:
270,168,37697,1,2,0:0:0:0:
179,280,37866,1,8,0:0:0:0:
405,337,38034,6,0,B|441:316|441:316|447:172,1,185,2|2,0:0|0:0,0:0:0:0:
237,55,38540,1,2,0:0:0:0:
300,282,38709,1,2,0:0:0:0:
426,83,38877,2,0,L|379:87,1,46.25,8|0,3:2|3:2,0:0:0:0:
270,168,39046,2,0,L|316:172,1,46.25,0|0,3:2|0:0,0:0:0:0:
407,251,39214,1,8,3:2:0:0:
418,271,39299,1,0,3:2:0:0:
420,294,39383,1,0,3:2:0:0:
416,317,39467,1,0,3:2:0:0:
404,336,39551,6,0,B|369:368|369:368|198:351,1,185,4|0,3:2|0:0,0:0:0:0:
113,217,40057,1,0,0:0:0:0:
35,253,40225,2,0,P|106:304|184:263,1,185,2|8,0:0|0:0,0:0:0:0:
241,147,40731,6,0,L|333:154,1,92.5,2|0,0:0|0:0,0:0:0:0:
197,55,41068,2,0,L|289:62,1,92.5,2|0,0:0|0:0,0:0:0:0:
140,139,41405,1,2,0:0:0:0:
364,230,41574,2,0,P|416:159|375:81,1,185,2|8,0:0|0:0,0:0:0:0:
279,274,42079,1,0,0:0:0:0:
466,321,42248,5,2,0:0:0:0:
216,329,42416,2,0,P|196:289|201:244,1,92.5,0|0,0:0|0:0,0:0:0:0:
333,154,42754,1,2,0:0:0:0:
242,63,42922,2,0,B|155:31|155:31|63:62,1,185,2|8,0:0|0:0,0:0:0:0:
138,211,43428,6,0,P|158:170|152:125,1,92.5,2|0,0:0|0:0,0:0:0:0:
58,238,43765,2,0,P|84:276|125:293,1,92.5,2|0,0:0|0:0,0:0:0:0:
78,155,44102,1,2,0:0:0:0:
25,348,44270,1,2,0:0:0:0:
239,274,44439,1,8,0:0:0:0:
239,274,44607,2,0,L|236:181,1,92.5,8|2,0:0|0:0,0:0:0:0:
328,309,44945,6,0,L|319:124,1,185,4|0,0:0|0:0,0:0:0:0:
460,276,45450,1,2,0:0:0:0:
398,96,45619,2,0,P|330:40|249:75,1,185,2|8,0:0|0:0,0:0:0:0:
150,245,46124,6,0,L|58:238,1,92.5,2|0,0:0|0:0,0:0:0:0:
212,339,46461,2,0,L|120:346,1,92.5,2|0,0:0|0:0,0:0:0:0:
180,155,46798,1,2,0:0:0:0:
57,237,46967,2,0,L|241:251,1,185,2|8,0:0|0:0,0:0:0:0:
119,346,47473,1,2,0:0:0:0:
302,309,47641,6,0,P|324:269|319:223,1,92.5,4|0,0:0|0:0,0:0:0:0:
225,42,47978,1,8,0:0:0:0:
392,125,48147,1,2,0:0:0:0:
392,125,48231,1,8,0:0:0:0:
392,125,48315,1,8,0:0:0:0:
241,251,48484,1,2,0:0:0:0:
241,251,48568,1,8,0:0:0:0:
241,251,48652,1,8,0:0:0:0:
317,79,48821,6,0,P|394:38|469:85,1,185,4|2,0:0|0:0,0:0:0:0:
370,283,49327,1,8,0:0:0:0:
213,141,49495,1,2,0:0:0:0:
484,221,49664,1,8,0:0:0:0:
256,337,49832,1,2,0:0:0:0:
256,337,49916,1,2,0:0:0:0:
256,337,50000,1,4,0:0:0:0:
153,89,50169,1,2,0:0:0:0:
401,192,50338,5,4,0:0:0:0:
153,294,50506,1,0,0:0:0:0:
256,46,50675,1,8,0:0:0:0:
358,294,50843,1,0,0:0:0:0:
110,191,51012,5,8,0:0:0:0:
358,89,51181,1,2,0:0:0:0:
256,337,51349,1,8,0:0:0:0:
256,337,51686,6,0,B|206:348|206:348|159:333,1,92.5,4|0,0:0|0:0,0:0:0:0:
22,193,52023,1,8,0:0:0:0:
22,193,52192,2,0,B|64:166|109:189|109:189|156:213|199:190,1,185,6|2,0:0|0:0,0:0:0:0:
379,67,52697,1,8,0:0:0:0:
265,345,52866,1,8,0:0:0:0:
260,356,52951,1,8,0:0:0:0:
256,367,53035,5,2,0:0:0:0:
131,67,53203,1,0,0:0:0:0:
431,192,53372,1,8,0:0:0:0:
131,315,53540,1,0,0:0:0:0:
256,15,53709,5,8,0:0:0:0:
379,315,53877,1,2,0:0:0:0:
79,190,54046,1,8,0:0:0:0:
79,190,54383,5,4,0:0:0:0:
286,57,54551,1,2,0:0:0:0:
131,315,54720,1,8,0:0:0:0:
40,113,54888,6,0,B|111:106|111:106|158:135|158:135|235:131,1,203.500006210327,6|2,0:0|0:0,0:0:0:0:
375,226,55394,1,8,0:0:0:0:
302,79,55563,6,0,B|333:132|306:176|306:176|278:220|301:272,1,203.500006210327,4|2,0:0|0:0,0:0:0:0:
485,360,56068,1,8,0:0:0:0:
485,360,56405,5,2,0:0:0:0:
407,107,56574,1,2,0:0:0:0:
227,302,56742,1,8,0:0:0:0:
493,269,56911,6,0,L|505:84,1,185,4|2,0:0|0:0,0:0:0:0:
235,142,57416,1,8,0:0:0:0:
422,309,57585,1,2,0:0:0:0:
446,15,57754,1,8,0:0:0:0:
155,164,57922,1,2,0:0:0:0:
493,269,58091,1,8,0:0:0:0:
90,288,58259,1,6,0:0:0:0:
493,269,58596,5,2,0:0:0:0:
155,164,58765,1,8,0:0:0:0:
493,269,58934,5,2,0:0:0:0:
90,288,59102,1,8,0:0:0:0:
286,37,59270,5,2,0:0:0:0:
285,46,59354,1,8,0:0:0:0:
285,55,59438,1,8,0:0:0:0:
256,367,59607,1,4,0:0:0:0:
408,77,59945,5,4,0:0:0:0:
362,349,60113,1,4,0:0:0:0:
414,282,60450,6,0,P|366:264|316:278,1,104.06250396967,0|0,0:0|0:0,0:0:0:0:
296,298,60787,2,0,L|286:229,1,69.3750026464463,0|0,0:0|0:0,0:0:0:0:
256,32,61124,5,4,3:2:0:0:
87,139,61293,2,0,L|100:249,1,110.999996612549,2|8,0:0|3:2,0:0:0:0:
270,127,61630,1,0,0:0:0:0:
71,57,61798,1,2,3:2:0:0:
40,304,61967,2,0,P|87:331|140:320,1,110.999996612549,0|8,0:0|3:2,0:0:0:0:
387,142,62304,1,0,0:0:0:0:
126,237,62473,5,2,3:2:0:0:
387,142,62641,1,0,0:0:0:0:
194,321,62810,5,8,3:2:0:0:
318,56,62978,1,0,0:0:0:0:
309,333,63147,5,2,3:2:0:0:
204,45,63315,1,0,0:0:0:0:
388,251,63484,5,8,3:2:0:0:
123,126,63652,1,0,0:0:0:0:
308,335,63821,5,4,3:2:0:0:
261,88,63990,2,0,P|212:64|159:78,1,110.999996612549,0|8,0:0|3:2,0:0:0:0:
64,243,64327,1,0,0:0:0:0:
374,290,64495,1,2,3:2:0:0:
199,155,64664,2,0,B|177:179|177:179|183:257,1,110.999996612549,0|8,0:0|3:2,0:0:0:0:
469,307,65001,1,0,0:0:0:0:
256,96,65169,5,2,3:2:0:0:
200,349,65338,1,0,0:0:0:0:
263,81,65506,5,8,3:2:0:0:
299,379,65675,1,0,0:0:0:0:
270,66,65843,6,0,B|216:48|216:48|164:62,1,110.999996612549,2|0,3:2|0:0,0:0:0:0:
123,266,66181,1,8,3:2:0:0:
379,221,66349,1,0,0:0:0:0:
392,218,66433,1,8,0:0:0:0:
406,216,66518,5,2,3:2:0:0:
199,155,66686,1,0,0:0:0:0:
301,384,66855,1,8,3:2:0:0:
482,201,67023,1,0,0:0:0:0:
236,247,67192,1,2,3:2:0:0:
452,350,67360,1,0,0:0:0:0:
502,119,67529,2,0,B|479:93|479:93|399:99,1,110.999996612549,8|0,3:2|0:0,0:0:0:0:
236,247,67866,6,0,B|213:273|213:273|133:267,1,110.999996612549,2|0,3:2|0:0,0:0:0:0:
57,99,68203,1,8,3:2:0:0:
306,192,68372,1,0,0:0:0:0:
80,327,68540,2,0,P|54:278|65:225,1,110.999996612549,2|0,3:2|0:0,0:0:0:0:
185,79,68877,6,0,B|218:111|218:111|338:102,1,166.499994918823,8|0,3:2|0:0,0:0:0:0:
405,56,69214,2,0,P|420:109|398:159,1,110.999996612549,2|0,3:2|0:0,0:0:0:0:
427,38,69551,6,0,P|446:119|410:192,1,166.499994918823,8|0,3:2|0:0,0:0:0:0:
353,249,69888,1,2,3:2:0:0:
93,203,70057,2,0,L|101:337,1,110.999996612549,0|8,0:0|3:2,0:0:0:0:
205,149,70394,6,0,L|189:389,1,221.999993225098,4|0,0:0|0:0,0:0:0:0:
335,262,70900,1,8,3:2:0:0:
89,175,71068,1,0,0:0:0:0:
89,175,71152,1,0,0:0:0:0:
89,175,71237,1,2,3:2:0:0:
382,89,71405,1,8,0:0:0:0:
308,353,71574,1,8,3:2:0:0:
203,53,71742,1,0,0:0:0:0:
485,119,71911,5,4,3:2:0:0:
276,220,72079,2,0,B|252:199|252:199|255:121,1,110.999996612549,0|8,0:0|3:2,0:0:0:0:
396,259,72416,1,0,0:0:0:0:
139,307,72585,1,2,3:2:0:0:
203,53,72753,2,0,P|255:35|306:55,1,110.999996612549,0|8,0:0|3:2,0:0:0:0:
259,343,73091,1,0,0:0:0:0:
76,159,73259,5,2,3:2:0:0:
405,123,73428,1,0,0:0:0:0:
70,242,73596,5,8,3:2:0:0:
429,201,73765,1,0,0:0:0:0:
65,325,73933,5,2,3:2:0:0:
452,280,74102,1,0,0:0:0:0:
132,88,74270,5,8,3:2:0:0:
259,343,74439,1,0,0:0:0:0:
429,118,74607,5,4,3:2:0:0:
102,67,74776,2,0,B|81:94|81:94|90:170,1,110.999996612549,0|8,0:0|3:2,0:0:0:0:
346,269,75113,1,0,0:0:0:0:
221,29,75282,1,2,3:2:0:0:
31,224,75450,2,0,P|80:249|132:236,1,110.999996612549,0|8,0:0|3:2,0:0:0:0:
309,29,75787,1,0,0:0:0:0:
429,294,75956,5,2,3:2:0:0:
200,192,76124,1,0,0:0:0:0:
453,303,76293,5,8,3:2:0:0:
118,340,76461,1,0,0:0:0:0:
477,312,76630,6,0,B|499:287|499:287|497:209,1,110.999996612549,2|0,3:2|0:0,0:0:0:0:
297,107,76967,2,0,P|267:161|288:214,1,110.999996612549,8|0,3:2|0:0,0:0:0:0:
291,214,77220,1,8,0:0:0:0:
302,222,77304,5,2,3:2:0:0:
447,91,77473,1,0,0:0:0:0:
180,157,77641,1,8,3:2:0:0:
389,276,77810,1,0,0:0:0:0:
353,47,77978,2,0,P|303:24|250:38,1,110.999996612549,2|0,3:2|0:0,0:0:0:0:
151,243,78315,1,8,3:2:0:0:
297,107,78484,1,0,0:0:0:0:
389,276,78652,5,2,3:2:0:0:
250,38,78821,1,0,0:0:0:0:
131,270,78990,1,8,3:2:0:0:
479,272,79158,1,0,0:0:0:0:
477,261,79243,1,8,0:0:0:0:
475,250,79327,6,0,L|467:194,1,55.4999983062745,2|0,3:2|0:0,0:0:0:0:
370,128,79495,2,0,L|362:183,1,55.4999983062745,0|0,0:0|0:0,0:0:0:0:
339,342,79664,1,0,3:2:0:0:
401,288,80001,6,0,P|353:261|299:270,1,110.999996612549,2|8,3:2|0:0,0:0:0:0:
72,342,80338,1,8,3:2:0:0:
59,363,80675,5,2,3:2:0:0:
121,60,80843,1,8,0:0:0:0:
165,361,81012,5,8,3:2:0:0:
213,110,81180,1,2,0:0:0:0:
271,359,81349,5,8,3:2:0:0:
57,136,81518,1,2,0:0:0:0:
407,86,81686,1,8,3:2:0:0:
95,240,81855,5,8,0:0:0:0:
95,240,81939,1,8,0:0:0:0:
95,240,82023,1,8,3:2:0:0:
393,199,82192,1,2,0:0:0:0:
121,60,82360,5,8,3:2:0:0:
160,332,82529,1,8,0:0:0:0:
165,62,82866,5,0,0:0:0:0:
193,321,83035,1,8,3:2:0:0:
346,62,83203,5,0,0:0:0:0:
318,321,83372,1,8,3:2:0:0:
139,49,83540,5,0,0:0:0:0:
174,343,83709,1,8,3:2:0:0:
373,49,83877,6,0,B|357:122|357:122|378:190|378:190|360:264,1,221.999993225098,4|2,0:0|0:0,0:0:0:0:
165,62,84383,5,8,3:2:0:0:
193,321,84552,1,2,0:0:0:0:
139,49,84888,5,8,0:0:0:0:
174,343,85057,1,8,3:2:0:0:
63,301,85394,5,2,3:2:0:0:
146,234,85563,2,0,L|179:241,2,34.6875013232232,0|0|2,0:0|0:0|0:0,0:0:0:0:
26,199,85900,1,0,0:0:0:0:
190,145,86068,2,0,P|219:125|230:93,1,69.3750026464463,2|0,0:0|0:0,0:0:0:0:
123,131,86405,2,0,L|190:144,1,69.3750026464463,10|0,0:0|0:0,0:0:0:0:
368,179,86742,5,2,3:2:0:0:
318,98,86911,2,0,L|328:37,2,34.6875013232232,0|0|2,0:0|0:0|0:0,0:0:0:0:
291,266,87248,1,0,0:0:0:0:
430,202,87416,2,0,P|401:182|367:178,1,69.3750026464463,2|0,0:0|0:0,0:0:0:0:
419,270,87754,2,0,L|430:202,1,69.3750026464463,10|0,0:0|0:0,0:0:0:0:
451,86,88091,5,2,3:2:0:0:
350,43,88259,2,0,L|356:-11,2,34.6875013232232,0|0|2,0:0|0:0|0:0,0:0:0:0:
283,144,88596,2,0,L|289:198,2,34.6875013232232,0|0|2,0:0|0:0|0:0,0:0:0:0:
261,7,88933,1,0,0:0:0:0:
142,70,89102,2,0,P|171:86|206:85,1,69.3750026464463,10|0,0:0|0:0,0:0:0:0:
53,24,89439,6,0,L|57:94,1,69.3750026464463,2|0,3:2|0:0,0:0:0:0:
69,189,89692,1,0,0:0:0:0:
83,176,89776,2,0,P|116:167|150:173,1,69.3750026464463,2|0,0:0|0:0,0:0:0:0:
286,228,90113,2,0,L|282:298,1,69.3750026464463,2|0,0:0|0:0,0:0:0:0:
164,357,90450,2,0,L|160:287,1,69.3750026464463,10|0,0:0|0:0,0:0:0:0:
139,68,90787,5,2,3:2:0:0:
279,124,90956,1,2,0:0:0:0:
75,124,91124,2,0,P|56:95|55:60,1,69.3750026464463,2|0,0:0|0:0,0:0:0:0:
302,38,91461,5,2,3:2:0:0:
256,210,91630,1,2,0:0:0:0:
139,68,91798,2,0,B|181:59|181:59|224:74,1,69.3750026464463,2|0,0:0|0:0,0:0:0:0:
372,144,92136,6,0,L|376:208,2,46.2500017642976,2|2|2,3:2|0:0|0:0,0:0:0:0:
456,124,92473,2,0,L|461:206,1,69.3750026464463,2|2,0:0|0:0,0:0:0:0:
469,329,92810,2,0,B|441:312|441:312|370:324,1,104.06250396967,2|0,0:0|0:0,0:0:0:0:
288,334,93147,6,0,P|362:324|311:263,1,185,4|0,0:0|0:0,0:0:0:0:
