osu file format v14

[General]
AudioFilename: audio.mp3
AudioLeadIn: 0
PreviewTime: 60366
Countdown: 0
SampleSet: Soft
StackLeniency: 0.7
Mode: 0
LetterboxInBreaks: 0
WidescreenStoryboard: 0

[Editor]
DistanceSpacing: 1.4
BeatDivisor: 4
GridSize: 4
TimelineZoom: 1.6

[Metadata]
Title:Koi no Hime Hime Pettanko
TitleUnicode:恋のヒメヒメぺったんこ
Artist:*namirin
ArtistUnicode:*なみりん
Creator:[C u r i]
Version:Kalibe's Hard
Source:弱虫ペダル
Tags:Yowamushi Pedal HabiHolic Kalibe Taeyang
BeatmapID:1034862
BeatmapSetID:485056

[Difficulty]
HPDrainRate:5
CircleSize:3.8
OverallDifficulty:6
ApproachRate:7.5
SliderMultiplier:1.43
SliderTickRate:1

[Events]
//Background and Video events
0,0,"cherry_blossoms_kantoku_artist_Wallpaper HD_2560x1440_www.paperhi.com.jpg",0,0
//Break Periods
//Storyboard Layer 0 (Background)
//Storyboard Layer 1 (Fail)
//Storyboard Layer 2 (Pass)
//Storyboard Layer 3 (Foreground)
//Storyboard Sound Samples

[TimingPoints]
1799,337.078651685393,4,2,1,30,1,0
7192,-111.111111111111,4,2,2,60,0,0
12585,-100,4,2,2,60,0,0
17473,-100,4,2,2,60,0,0
17978,-111.111111111111,4,2,2,60,0,0
28428,-100,4,2,2,60,0,0
28681,-90.9090909090909,4,2,2,5,0,0
28765,-111.111111111111,4,2,2,60,0,0
39551,-125,4,2,2,60,0,0
50338,-100,4,2,2,60,0,0
60450,-111.111111111111,4,2,2,60,0,0
60787,-111.111111111111,4,2,2,60,0,0
61124,-90.9090909090909,4,2,2,100,0,1
69214,-90.9090909090909,4,2,2,100,0,1
69888,-90.9090909090909,4,2,2,100,0,1
71827,-90.9090909090909,4,2,2,100,0,0
71911,-90.9090909090909,4,2,2,100,0,1
79664,-90.9090909090909,4,2,2,100,0,0
80001,-90.9090909090909,4,2,2,100,0,1
82529,-90.9090909090909,4,2,2,100,0,0
82866,-90.9090909090909,4,2,2,100,0,1
85394,-100,4,2,1,30,0,0
93147,-100,4,2,1,30,0,0

[Colours]
Combo1 : 255,187,255
Combo2 : 255,51,255
Combo3 : 255,128,255
Combo4 : 203,148,148

[HitObjects]
320,156,1799,6,0,P|392:156|472:192,2,143,2|2|2,0:0|0:0|0:0,0:0:0:0:
232,184,2641,1,0,0:0:0:0:
232,184,2810,2,0,P|196:180|152:164,1,71.5,10|0,0:0|0:0,0:0:0:0:
60,124,3147,6,0,B|36:196|84:204|48:280,2,143,2|2|2,0:0|0:0|0:0,0:0:0:0:
108,44,3990,1,0,0:0:0:0:
108,44,4158,2,0,P|140:28|200:24,1,71.5,10|0,0:0|0:0,0:0:0:0:
296,56,4495,6,0,B|348:76|396:52|396:52|440:72,2,143,2|2|2,0:0|0:0|0:0,0:0:0:0:
208,20,5338,1,0,0:0:0:0:
168,104,5506,2,0,P|164:136|172:190,1,71.5,10|0,0:0|0:0,0:0:0:0:
231,326,5843,6,0,P|226:291|207:242,1,71.5,2|0,0:0|0:0,0:0:0:0:
167,174,6181,1,10,0:0:0:0:
136,268,6349,1,0,0:0:0:0:
281,222,6518,1,2,0:0:0:0:
281,222,6855,2,0,P|287:186|288:151,1,71.5,2|0,0:1|0:0,0:0:0:0:
264,12,7192,6,0,P|268:44|264:88,1,64.3499980361939,4|0,0:0|0:0,0:0:0:0:
208,176,7529,2,0,P|203:242|211:314,2,128.699996072388,0|0|0,0:0|0:0|0:0,0:0:0:0:
232,88,8372,1,2,0:0:0:0:
335,173,8540,6,0,B|283:165|283:165|180:180,1,128.699996072388,4|0,0:0|0:0,0:0:0:0:
108,220,9046,2,0,B|144:204|192:220|192:220|224:260|300:252,1,193.049994108582,0|8,0:0|0:0,0:0:0:0:
378,237,9720,1,2,0:0:0:0:
437,169,9888,6,0,P|442:138|442:104,1,64.3499980361939,4|0,0:0|0:0,0:0:0:0:
333,171,10225,2,0,P|331:240|344:312,2,128.699996072388,0|0|0,0:0|0:0|0:0,0:0:0:0:
359,84,11068,1,2,0:0:0:0:
264,132,11237,6,0,P|201:138|129:98,1,128.699996072388,4|0,0:0|0:0,0:0:0:0:
80,47,11742,2,0,B|98:195,1,128.699996072388,0|8,0:0|0:0,0:0:0:0:
71,261,12248,1,2,0:0:0:0:
172,292,12416,1,2,0:0:0:0:
172,292,12501,1,2,0:0:0:0:
172,292,12585,6,0,P|172:256|187:204,1,71.5,4|0,0:0|0:0,0:0:0:0:
275,164,12922,2,0,B|346:139|346:191|435:166,1,143,8|2,0:0|0:0,0:0:0:0:
503,141,13428,1,0,0:0:0:0:
416,80,13596,2,0,P|382:68|336:62,1,71.5,8|0,0:0|0:0,0:0:0:0:
232,100,13933,6,0,P|224:152|240:264,1,143,4|8,0:0|0:0,0:0:0:0:
292,312,14439,2,0,P|232:276|152:280,1,143,0|0,0:0|0:0,0:0:0:0:
80,324,14945,1,8,0:0:0:0:
92,232,15113,1,0,0:0:0:0:
176,188,15282,6,0,P|216:185|252:192,1,71.5,4|0,0:0|0:0,0:0:0:0:
92,232,15619,2,0,P|80:164|112:76,1,143,8|2,0:0|0:0,0:0:0:0:
100,94,16040,1,0,0:0:0:0:
100,94,16124,1,0,0:0:0:0:
192,56,16293,2,0,P|228:56|276:68,1,71.5,8|0,0:0|0:0,0:0:0:0:
364,124,16630,6,0,B|306:113|306:113|216:132,1,143,4|0,0:0|0:0,0:0:0:0:
156,192,17136,2,0,P|216:220|292:192,1,143,0|2,0:0|0:0,0:0:0:0:
360,52,17641,2,0,P|359:88|368:140,1,71.5,8|0,0:0|0:0,0:0:0:0:
409,225,17978,6,0,P|353:201|285:197,1,128.699996072388,4|8,0:0|0:0,0:0:0:0:
199,223,18484,1,0,0:0:0:0:
199,223,18652,2,0,P|167:230|127:227,1,64.3499980361939,2|0,0:0|0:0,0:0:0:0:
304,176,18990,2,0,P|336:178|379:193,1,64.3499980361939,8|0,0:0|0:0,0:0:0:0:
412,265,19327,6,0,P|411:204|425:121,1,128.699996072388,2|2,0:0|0:0,0:0:0:0:
484,74,19832,2,0,P|412:88|338:84,1,128.699996072388,8|2,0:0|0:0,0:0:0:0:
278,43,20338,2,0,P|280:77|272:129,1,64.3499980361939,8|0,0:0|0:0,0:0:0:0:
248,204,20675,5,2,0:0:0:0:
248,204,21012,2,0,L|168:192,1,64.3499980361939,8|0,0:0|0:0,0:0:0:0:
103,154,21349,1,0,0:0:0:0:
103,154,21518,1,2,0:0:0:0:
108,260,21686,2,0,P|106:293|112:336,1,64.3499980361939,8|0,0:0|0:0,0:0:0:0:
220,288,22023,6,0,B|296:276|272:316|352:304,1,128.699996072388,2|8,0:0|0:0,0:0:0:0:
428,272,22529,2,0,P|360:272|316:212,1,128.699996072388,8|2,0:0|0:0,0:0:0:0:
256,168,23034,2,0,P|256:136|272:100,1,64.3499980361939,8|0,0:0|0:0,0:0:0:0:
348,28,23372,5,2,0:0:0:0:
348,28,23709,2,0,L|416:20,1,64.3499980361939,8|0,0:0|0:0,0:0:0:0:
484,72,24046,1,0,0:0:0:0:
400,104,24214,1,2,0:0:0:0:
316,60,24383,2,0,P|284:52|236:48,1,64.3499980361939,8|0,0:0|0:0,0:0:0:0:
168,76,24720,6,0,B|148:136|148:136|164:216,1,128.699996072388,2|8,0:0|0:0,0:0:0:0:
224,264,25225,2,0,B|160:240|160:240|88:260,1,128.699996072388,10|2,0:0|0:0,0:0:0:0:
32,312,25731,1,8,0:0:0:0:
144,341,25900,6,0,P|208:317|219:247,1,128.699996072388,4|2,0:0|0:0,0:0:0:0:
192,112,26405,2,0,P|188:144|196:192,1,64.3499980361939,2|2,0:0|0:0,0:0:0:0:
283,283,26742,2,0,P|253:269|207:263,1,64.3499980361939,8|2,0:0|0:0,0:0:0:0:
136,290,27079,1,8,0:0:0:0:
52,216,27248,6,0,B|36:160|72:151|50:72,1,128.699996072388,4|2,0:0|0:0,0:0:0:0:
144,148,27754,2,0,P|172:156|208:160,1,64.3499980361939,2|2,0:0|0:0,0:0:0:0:
364,176,28091,2,0,P|331:178|296:187,1,64.3499980361939,8|8,0:0|3:2,0:0:0:0:
216,240,28428,2,0,P|200:289|230:357,1,107.25,8|0,3:2|3:2,0:0:0:0:
236,360,28765,6,0,P|300:372|364:336,1,128.699996072388,4|2,0:0|0:0,0:0:0:0:
424,287,29270,1,0,0:0:0:0:
329,206,29439,2,0,P|328:240|333:288,1,64.3499980361939,0|2,0:0|0:0,0:0:0:0:
490,244,29776,2,0,P|491:210|487:163,1,64.3499980361939,8|0,0:0|0:0,0:0:0:0:
408,132,30113,6,0,B|403:180|403:180|411:219|411:219|408:272,1,128.699996072388,2|2,0:0|0:0,0:0:0:0:
364,338,30619,2,0,P|314:360|240:332,1,128.699996072388,8|2,0:0|0:0,0:0:0:0:
163,303,31124,2,0,P|161:271|174:222,1,64.3499980361939,8|0,0:0|0:0,0:0:0:0:
240,168,31461,6,0,P|176:192|104:180,1,128.699996072388,2|8,0:0|0:0,0:0:0:0:
32,156,31967,1,0,0:0:0:0:
88,36,32136,2,0,L|96:108,1,64.3499980361939,0|2,0:0|0:0,0:0:0:0:
120,220,32473,1,8,0:0:0:0:
184,152,32641,1,0,0:0:0:0:
272,196,32810,6,0,P|340:204|408:192,1,128.699996072388,2|8,3:2|3:2,0:0:0:0:
460,124,33315,2,0,P|444:188|456:268,1,128.699996072388,2|2,0:0|0:0,0:0:0:0:
492,332,33821,2,0,P|460:324|428:324,1,64.3499980361939,8|0,3:2|0:0,0:0:0:0:
332,344,34158,1,2,0:0:0:0:
332,344,34495,6,0,P|336:312|332:268,1,64.3499980361939,8|0,0:0|0:0,0:0:0:0:
304,196,34832,1,0,0:0:0:0:
220,224,35001,1,2,0:0:0:0:
128,184,35169,2,0,P|96:176|56:172,1,64.3499980361939,8|0,0:0|0:0,0:0:0:0:
192,124,35506,6,0,P|256:112|320:112,1,128.699996072388,2|8,0:0|0:0,0:0:0:0:
400,156,36012,2,0,B|420:224|384:228|404:292,1,128.699996072388,2|0,0:0|0:0,0:0:0:0:
320,192,36518,2,0,P|288:188|248:192,1,64.3499980361939,8|2,0:0|0:0,0:0:0:0:
160,220,36855,6,0,B|112:220|112:220|72:208|72:208|24:212,1,128.699996072388,2|8,0:0|0:0,0:0:0:0:
60,124,37360,1,0,0:0:0:0:
151,156,37529,2,0,P|158:189|159:240,1,64.3499980361939,0|2,0:0|0:0,0:0:0:0:
216,84,37866,1,8,0:0:0:0:
299,127,38034,6,0,B|319:191|287:195|303:263,1,128.699996072388,2|2,0:0|0:0,0:0:0:0:
324,348,38540,1,2,0:0:0:0:
396,296,38709,1,2,0:0:0:0:
302,255,38877,1,8,3:2:0:0:
216,288,39046,1,0,3:2:0:0:
216,288,39130,1,0,3:2:0:0:
216,288,39214,2,0,L|164:280,3,32.174999018097,8|0|0|0,3:2|3:2|3:2|3:2,0:0:0:0:
148,268,39551,6,0,L|32:276,2,114.4,4|0|2,3:2|0:0|0:0,0:0:0:0:
312,216,40563,2,0,P|318:185|315:140,1,57.2,8|2,0:0|0:0,0:0:0:0:
208,200,40900,6,0,P|202:262|212:332,2,114.4,0|0|2,0:0|0:0|0:0,0:0:0:0:
244,32,41911,2,0,P|249:61|249:101,1,57.2,8|0,0:0|0:0,0:0:0:0:
292,172,42248,6,0,P|288:200|288:236,1,57.2,2|0,0:0|0:0,0:0:0:0:
380,208,42585,1,0,0:0:0:0:
292,172,42754,2,0,B|212:164|212:164|172:184,1,114.4,2|0,0:0|0:0,0:0:0:0:
136,252,43259,2,0,L|144:320,1,57.2,8|2,0:0|0:0,0:0:0:0:
100,176,43596,5,0,0:0:0:0:
100,176,43765,2,0,L|112:104,1,57.2,2|0,0:0|0:0,0:0:0:0:
181,179,44102,2,0,L|196:108,1,57.2,2|2,0:0|0:0,0:0:0:0:
256,40,44439,1,8,0:0:0:0:
348,72,44607,2,0,P|380:78|412:80,1,57.2,8|2,0:0|0:0,0:0:0:0:
280,136,44945,6,0,P|272:192|284:256,2,114.4,4|0|2,0:0|0:0|0:0,0:0:0:0:
448,164,45956,2,0,P|452:192|448:232,1,57.2,8|2,0:0|0:0,0:0:0:0:
368,248,46293,6,0,P|361:193|372:120,2,114.4,0|0|2,0:0|0:0|0:0,0:0:0:0:
280,100,47304,2,0,P|280:128|276:160,1,57.2,8|2,0:0|0:0,0:0:0:0:
216,220,47641,6,0,B|160:228|160:228|92:212,1,114.4,4|8,0:0|0:0,0:0:0:0:
124,80,48147,1,2,0:0:0:0:
124,80,48231,1,8,0:0:0:0:
124,80,48315,2,0,L|132:140,1,57.2,8|2,0:0|0:0,0:0:0:0:
90,328,48821,6,0,L|104:201,1,114.4,4|2,0:0|0:0,0:0:0:0:
131,136,49327,2,0,P|160:128|212:120,1,57.2,8|2,0:0|0:0,0:0:0:0:
283,148,49664,2,0,P|311:152|343:152,1,57.2,8|2,0:0|0:0,0:0:0:0:
383,145,49916,1,2,0:0:0:0:
383,145,50001,2,0,P|413:142|451:145,1,57.2,4|2,0:0|0:0,0:0:0:0:
260,180,50338,6,0,P|186:186|116:176,2,143,4|8|8,0:0|0:0|0:0,0:0:0:0:
364,148,51181,1,2,0:0:0:0:
364,148,51349,2,0,P|358:182|360:240,1,71.5,8|0,0:0|0:0,0:0:0:0:
248,96,51686,6,0,P|260:164|256:248,1,143,4|8,0:0|0:0,0:0:0:0:
164,292,52192,2,0,B|248:272|248:272|320:312,1,143,6|2,0:0|0:0,0:0:0:0:
384,364,52697,1,8,0:0:0:0:
468,312,52866,1,8,0:0:0:0:
468,312,52950,1,8,0:0:0:0:
468,312,53034,6,0,B|484:248|484:248|468:172,2,143,2|8|8,0:0|0:0|0:0,0:0:0:0:
384,364,53877,1,2,0:0:0:0:
284,324,54046,2,0,P|248:316|208:316,1,71.5,8|0,0:0|0:0,0:0:0:0:
352,264,54383,6,0,B|376:196|328:188|360:112,1,143,4|8,0:0|0:0,0:0:0:0:
452,80,54888,2,0,P|456:112|452:152,1,71.5,6|0,0:0|0:0,0:0:0:0:
355,123,55225,1,2,0:0:0:0:
260,172,55394,1,8,0:0:0:0:
172,100,55563,6,0,B|184:152|184:152|176:260,1,143,4|2,0:0|0:0,0:0:0:0:
48,300,56068,2,0,L|120:292,1,71.5,8|0,0:0|0:0,0:0:0:0:
264,336,56405,2,0,L|184:320,1,71.5,2|2,0:0|0:0,0:0:0:0:
275,250,56742,1,8,0:0:0:0:
182,182,56911,6,0,B|199:242|199:242|187:274|195:334,1,143,4|2,0:0|0:0,0:0:0:0:
346,252,57416,2,0,P|310:247|275:251,1,71.5,8|2,0:0|0:0,0:0:0:0:
122,318,57754,2,0,P|157:324|192:321,1,71.5,8|2,0:0|0:0,0:0:0:0:
275,250,58091,1,8,0:0:0:0:
184,200,58259,6,0,P|168:132|220:76,1,143,6|2,0:0|0:0,0:0:0:0:
308,32,58765,1,8,0:0:0:0:
308,32,58933,1,2,0:0:0:0:
360,128,59102,2,0,P|324:128|272:116,1,71.5,8|2,0:0|0:0,0:0:0:0:
200,64,59439,1,8,0:0:0:0:
120,144,59607,6,0,B|96:212|144:216|112:300,1,143,4|4,0:0|0:0,0:0:0:0:
168,370,60113,1,4,0:0:0:0:
272,224,60450,2,0,B|316:208|372:236|372:236|360:196,1,128.699996072388,0|0,0:0|0:0,0:0:0:0:
332,120,60956,1,0,0:0:0:0:
224,168,61124,6,0,L|240:340,1,157.300004800415,4|8,3:2|3:2,0:0:0:0:
320,240,61630,1,0,0:0:0:0:
404,288,61798,2,0,P|444:300|488:304,1,78.6500024002076,2|0,3:2|0:0,0:0:0:0:
335,163,62136,2,0,P|323:203|319:247,1,78.6500024002076,8|0,3:2|0:0,0:0:0:0:
432,200,62473,6,0,P|436:120|416:32,1,157.300004800415,2|8,3:2|3:2,0:0:0:0:
324,112,62978,1,0,0:0:0:0:
324,112,63147,2,0,P|280:118|239:117,1,78.6500024002076,2|0,3:2|0:0,0:0:0:0:
154,54,63484,2,0,P|151:94|141:152,1,78.6500024002076,8|0,3:2|0:0,0:0:0:0:
72,212,63821,6,0,P|140:180|220:208,1,157.300004800415,4|8,3:2|3:2,0:0:0:0:
304,280,64327,1,0,0:0:0:0:
380,204,64495,2,0,P|379:162|389:113,1,78.6500024002076,2|0,3:2|0:0,0:0:0:0:
304,280,64832,2,0,P|304:320|292:376,1,78.6500024002076,8|0,3:2|0:0,0:0:0:0:
200,288,65169,6,0,B|116:256|120:308|44:284,1,157.300004800415,2|8,3:2|3:2,0:0:0:0:
124,360,65675,1,0,0:0:0:0:
200,288,65843,2,0,P|204:248|196:196,1,78.6500024002076,2|0,3:2|0:0,0:0:0:0:
112,124,66181,2,0,P|108:164|116:216,1,78.6500024002076,8|0,3:2|0:0,0:0:0:0:
228,124,66518,6,0,B|313:98|298:158|386:129,1,157.300004800415,2|8,3:2|3:2,0:0:0:0:
480,84,67023,1,0,0:0:0:0:
385,53,67192,2,0,P|377:92|381:133,1,78.6500024002076,2|0,3:2|0:0,0:0:0:0:
452,228,67529,1,8,3:2:0:0:
452,228,67697,6,0,P|388:184|304:192,1,157.300004800415,0|0,0:0|0:0,0:0:0:0:
212,240,68203,2,0,P|176:252|116:252,1,78.6500024002076,8|0,3:2|0:0,0:0:0:0:
204,152,68540,1,2,3:2:0:0:
304,236,68709,1,0,0:0:0:0:
304,236,68793,1,0,0:0:0:0:
304,236,68877,2,0,P|344:244|392:244,1,78.6500024002076,8|0,3:2|0:0,0:0:0:0:
480,196,69214,6,0,B|500:128|500:128|476:40,2,157.300004800415,2|8|2,3:2|3:2|3:2,0:0:0:0:
423,279,70057,1,0,0:0:0:0:
344,204,70225,1,8,3:2:0:0:
269,287,70394,6,0,B|341:303|349:255|426:280,1,157.300004800415,4|0,0:0|0:0,0:0:0:0:
356,192,70900,2,0,P|352:152|364:104,1,78.6500024002076,8|0,3:2|0:0,0:0:0:0:
488,32,71237,2,0,P|452:48|404:56,1,78.6500024002076,2|8,3:2|0:0,0:0:0:0:
260,24,71574,2,0,P|298:25|340:36,1,78.6500024002076,8|0,3:2|0:0,0:0:0:0:
428,96,71911,6,0,P|444:172|428:256,1,157.300004800415,4|8,3:2|3:2,0:0:0:0:
344,184,72416,1,0,0:0:0:0:
268,256,72585,2,0,P|261:294|265:340,1,78.6500024002076,2|0,3:2|0:0,0:0:0:0:
344,184,72922,2,0,P|350:141|343:102,1,78.6500024002076,8|0,3:2|0:0,0:0:0:0:
260,28,73259,6,0,B|264:84|264:84|248:128|260:200,1,157.300004800415,2|8,3:2|3:2,0:0:0:0:
176,108,73765,1,0,0:0:0:0:
80,164,73933,2,0,P|72:204|80:248,1,78.6500024002076,2|0,3:2|0:0,0:0:0:0:
152,324,74270,2,0,P|188:332|240:320,1,78.6500024002076,8|0,3:2|0:0,0:0:0:0:
332,268,74607,6,0,P|252:288|180:248,1,157.300004800415,4|8,3:2|3:2,0:0:0:0:
120,172,75113,1,0,0:0:0:0:
228,156,75282,1,2,3:2:0:0:
187,256,75450,1,0,0:0:0:0:
120,172,75619,2,0,P|116:136|136:64,1,78.6500024002076,8|0,3:2|0:0,0:0:0:0:
216,36,75956,6,0,B|276:32|276:32|312:48|312:48|388:52,1,157.300004800415,2|8,3:2|3:2,0:0:0:0:
476,80,76461,1,0,0:0:0:0:
392,136,76630,2,0,B|352:132|352:132|304:120,1,78.6500024002076,2|0,3:2|0:0,0:0:0:0:
236,44,76967,1,8,3:2:0:0:
157,133,77136,1,0,0:0:0:0:
157,133,77220,1,8,0:0:0:0:
157,133,77304,6,0,L|325:121,1,157.300004800415,2|8,3:2|3:2,0:0:0:0:
420,88,77810,1,0,0:0:0:0:
317,43,77978,2,0,P|312:80|317:139,1,78.6500024002076,2|0,3:2|0:0,0:0:0:0:
348,228,78315,1,8,3:2:0:0:
348,228,78484,1,0,0:0:0:0:
452,196,78652,6,0,P|456:232|448:284,1,78.6500024002076,2|0,3:2|0:0,0:0:0:0:
352,328,78990,2,0,P|308:316|276:296,1,78.6500024002076,8|0,3:2|0:0,0:0:0:0:
236,196,79327,2,0,P|276:132|356:116,1,157.300004800415,2|0,3:2|3:2,0:0:0:0:
351,115,80001,6,0,L|368:208,1,78.6500024002076,2|8,3:2|0:0,0:0:0:0:
448,264,80338,2,0,B|368:224|368:224|292:240,1,157.300004800415,8|2,3:2|3:2,0:0:0:0:
204,288,80843,1,8,0:0:0:0:
204,288,81012,2,0,P|204:248|196:192,1,78.6500024002076,8|2,3:2|0:0,0:0:0:0:
108,136,81349,6,0,P|176:160|264:128,1,157.300004800415,8|8,3:2|3:2,0:0:0:0:
340,68,81855,1,8,0:0:0:0:
340,68,81939,1,8,0:0:0:0:
340,68,82023,2,0,L|332:168,1,78.6500024002076,8|2,3:2|0:0,0:0:0:0:
236,92,82360,1,8,3:2:0:0:
188,188,82529,6,0,B|172:264|212:268|184:356,1,157.300004800415,8|0,0:0|0:0,0:0:0:0:
276,276,83034,1,8,3:2:0:0:
372,320,83203,2,0,P|412:328|464:328,1,78.6500024002076,0|8,0:0|3:2,0:0:0:0:
276,276,83540,2,0,P|236:276|196:284,1,78.6500024002076,0|8,0:0|3:2,0:0:0:0:
356,220,83877,6,0,P|368:144|344:52,1,157.300004800415,4|2,0:0|0:0,0:0:0:0:
264,0,84383,1,8,3:2:0:0:
216,124,84551,1,2,0:0:0:0:
216,124,84888,5,8,0:0:0:0:
350,66,85057,1,8,3:2:0:0:
144,168,85394,6,0,P|132:240|144:328,2,143,2|2|2,3:2|0:0|0:0,0:0:0:0:
212,108,86237,1,0,0:0:0:0:
212,108,86405,2,0,P|248:100|300:104,1,71.5,10|0,0:0|0:0,0:0:0:0:
388,156,86742,6,0,B|404:228|368:236|388:300,2,143,2|2|2,3:2|0:0|0:0,0:0:0:0:
356,68,87585,1,0,0:0:0:0:
276,116,87754,2,0,P|236:116|184:104,1,71.5,10|0,0:0|0:0,0:0:0:0:
104,56,88091,6,0,P|120:120|112:204,2,143,2|2|2,3:2|0:0|0:0,0:0:0:0:
196,84,88933,1,0,0:0:0:0:
280,48,89102,2,0,P|316:44|368:64,1,71.5,10|0,0:0|0:0,0:0:0:0:
440,96,89439,6,0,P|372:80|312:116,1,143,2|2,3:2|0:0,0:0:0:0:
256,188,89945,1,0,0:0:0:0:
256,188,90113,2,0,L|264:272,1,71.5,2|0,0:0|0:0,0:0:0:0:
256,352,90450,2,0,L|336:336,1,71.5,10|0,0:0|0:0,0:0:0:0:
417,319,90787,5,2,3:2:0:0:
353,251,90956,1,2,0:0:0:0:
326,337,91124,1,2,0:0:0:0:
380,165,91461,5,2,3:2:0:0:
353,251,91629,1,2,0:0:0:0:
289,183,91798,1,2,0:0:0:0:
417,319,92136,6,0,L|476:331,2,47.6666666666667,2|2|2,3:2|0:0|0:0,0:0:0:0:
326,337,92473,2,0,P|326:293|347:259,1,71.5,2|2,0:0|0:0,0:0:0:0:
416,217,92810,1,2,0:0:0:0:
227,283,93147,5,4,0:0:0:0:
